#TITLE:TSUGARU (APPLE MIX);
#SUBTITLE:;
#ARTIST:RevenG vs DE-SIRE;
#TITLETRANSLIT:;
#SUBTITLETRANSLIT:;
#ARTISTTRANSLIT:;
#GENRE:;
#CREDIT:;
#BANNER:TSUGARU (APPLE MIX)-bn.png;
#BACKGROUND:TSUGARU (APPLE MIX)-bg.png;
#LYRICSPATH:;
#CDTITLE:;
#MUSIC:TSUGARU (APPLE MIX).ogg;
#OFFSET:0.000000;
#SAMPLESTART:20.367001;
#SAMPLELENGTH:20.000000;
#SELECTABLE:YES;
#DISPLAYBPM:81.000000:165.000000;
#BPMS:0.000000=165.000000
,236.000000=156.000000
,240.000000=131.000000
,244.000000=126.999992
,246.000000=108.500000
,247.000000=94.000000
,248.000000=80.900002
;
#STOPS:
;
#BGCHANGES:;
#KEYSOUNDS:;
#ATTACKS:;

//---------------dance-single - ----------------
#NOTES:
     dance-single:
     :
     Beginner:
     3:
     0.159075,0.295880,0.084840,0.000000,0.000000,105.000000,97.000000,8.000000,0.000000,0.000000,0.000000,0.159075,0.295880,0.084840,0.000000,0.000000,105.000000,97.000000,8.000000,0.000000,0.000000,0.000000:
0000
0000
0000
0000
,
0000
0000
0000
0000
,
0000
0000
0000
0000
,
0000
0000
0000
0000
,
0000
0000
0000
0000
,
1000
0000
0000
0000
,
1000
0000
1000
0000
,
0001
0000
0001
0000
,
0001
0000
0001
0000
,
0010
0000
0010
0000
,
0010
0000
0010
0000
,
1000
0000
0010
0000
,
1000
0000
0010
0000
,
0001
0000
0000
0000
,
0010
0000
0001
0000
,
1000
0000
1000
0000
,
0010
0000
0010
0010
,
0010
0000
0000
0000
,
1000
0000
0000
1000
,
1000
0000
0000
1000
,
1000
0000
0001
0000
,
1000
0000
0001
0000
,
0100
0000
0000
0000
,
0000
0000
0000
0000
,
0000
0000
0000
0000
,
1000
0000
0100
0000
,
1000
0000
0100
0000
,
0001
0000
0100
0000
,
0001
0000
0100
0000
,
1001
0000
0000
0000
,
0100
0000
0010
0000
,
1001
0000
0000
0000
,
0100
0000
0010
0000
,
1001
0000
0000
0000
,
1001
0000
0000
0000
,
1001
0000
1001
0000
,
0010
0010
0010
0010
,
0010
0000
0000
0000
,
0010
0010
0010
0000
,
0001
0000
0001
0000
,
1000
1000
1000
0000
,
1000
0000
0000
0000
,
0100
0000
0010
0000
,
0001
0000
0000
0000
,
0010
0000
0100
0000
,
0001
0000
0000
0000
,
1000
1000
0000
0000
,
0001
0000
0010
0010
,
0010
0000
0000
0000
,
0100
0000
0000
0000
,
1001
0000
0000
0000
,
0100
0000
0000
0100
,
0100
0000
0000
0000
,
0001
0001
0001
0000
,
1001
0000
0000
0000
,
0100
0000
0000
0010
,
0010
0000
0000
0000
,
1000
1000
1000
0000
,
0000
0000
0010
0000
,
0010
0000
0000
0000
,
1000
0000
0000
0000
,
0001
0000
0000
0000
,
1000
0000
0000
0000
;

//---------------dance-single - ----------------
#NOTES:
     dance-single:
     :
     Easy:
     5:
     0.242400,0.297073,0.127260,0.063630,0.000000,160.000000,148.000000,12.000000,6.000000,0.000000,0.000000,0.242400,0.297073,0.127260,0.063630,0.000000,160.000000,148.000000,12.000000,6.000000,0.000000,0.000000:
0000
0000
0000
0000
,
0000
0000
0000
0000
,
0000
0000
0000
0000
,
0000
0000
0000
0000
,
0000
0000
0000
0000
,
0020
0000
0000
0030
,
1000
1000
1000
1000
,
0001
0001
0001
0001
,
0001
0001
0001
0001
,
0010
0010
0010
0010
,
0010
0010
0010
0100
,
1000
0000
0000
0100
,
1000
0000
0000
0100
,
0001
0000
0010
0000
,
1000
0000
0001
0000
,
1000
0100
1000
0000
,
0001
0000
1000
0000
,
0001
0010
0001
0000
,
1000
0001
1000
0000
,
1000
0001
1000
0000
,
0100
0001
0100
0001
,
0001
1000
1000
0000
,
0010
0000
0000
0000
,
1000
0000
0000
0000
,
0100
0000
0001
0000
,
1001
0000
1000
0100
,
1000
0000
1001
0000
,
0010
0010
1000
1000
,
0100
0100
0001
0000
,
0110
0000
1000
0000
,
0001
0100
0001
0000
,
0110
0000
1000
0000
,
0010
0100
0010
0000
,
1001
0000
0010
0000
,
1001
0000
0100
0000
,
0010
0000
0001
0000
,
1000
0010
1000
0010
,
1000
1000
0001
0000
,
0001
0001
1000
0000
,
0100
0100
0010
0010
,
0001
0010
0001
0000
,
1000
1000
0001
0001
,
2000
3000
0000
0000
,
0001
0001
1000
1000
,
0002
0003
0000
0000
,
0010
0010
0100
0100
,
0002
0003
0000
0000
,
0010
0010
0100
0100
,
2000
3000
0000
0000
,
0010
0000
0000
0001
,
0001
0000
1001
0000
,
0010
0000
0000
0100
,
0001
0000
1000
0000
,
0010
0110
0110
0000
,
0001
0000
0000
1000
,
1000
0000
0000
0100
,
0010
0000
0001
0000
,
0010
0110
0110
0000
,
0000
0000
1000
0010
,
1001
0000
0000
0000
,
0001
0000
0000
0000
,
1000
0001
1000
0001
,
0020
0030
0000
0000
;

//---------------dance-single - ----------------
#NOTES:
     dance-single:
     :
     Medium:
     8:
     0.390871,0.462114,0.265125,0.095445,0.000000,258.000000,233.000000,25.000000,9.000000,0.000000,0.000000,0.390871,0.462114,0.265125,0.095445,0.000000,258.000000,233.000000,25.000000,9.000000,0.000000,0.000000:
0000
0000
0000
0000
,
0000
0000
0000
0000
,
0000
0000
0000
0000
,
0000
0000
0000
0000
,
0000
0000
0000
0000
,
1200
0000
0000
0300
,
1000
0000
1000
0000
1000
0000
1000
0001
,
0001
0001
0001
0001
,
0001
0000
0001
0000
0001
0000
0001
0010
,
0010
0010
0010
0010
,
0010
0000
0010
0000
0010
0000
0001
1000
,
0001
0000
0010
0000
0010
0000
0001
1000
,
0001
0000
0100
0000
0100
0000
0001
1000
,
0001
0010
0010
0100
,
1000
0000
1000
0100
0001
0000
0001
0100
,
1000
1000
0100
1001
,
0010
0010
0010
0000
0001
0010
0001
0000
,
1000
0010
1000
0010
1000
0000
0100
0000
,
0010
0001
1000
0100
0010
0000
0000
0000
,
0010
1000
0001
0100
0010
0000
0000
0000
,
1000
0001
0100
0000
1000
1000
0100
0000
,
0001
0100
0001
0100
0001
0000
0000
0000
,
1000
0000
0100
0000
,
0001
0000
0010
0000
,
1000
0000
0001
0000
,
1001
1000
0001
0100
,
0010
0000
1000
0100
,
0010
0010
0011
0100
,
1000
0100
0010
0000
,
1001
0001
0100
0001
,
0010
0001
0100
0001
,
1001
1000
0100
1000
,
0010
1000
0100
1000
,
0001
0100
0010
0100
,
1000
0100
0010
0100
,
0010
0011
0100
1100
,
1000
1010
1001
1100
,
0001
1000
1001
0000
,
0010
0100
0110
0000
,
0010
0001
0100
1000
,
0100
0001
1001
0000
,
0010
0001
0010
0000
0100
1000
0000
0001
,
0100
0000
0100
0000
1000
0100
1000
0100
,
1000
0000
0001
0100
0000
0001
0000
1000
,
0100
0010
0001
1000
,
0001
0010
0001
0000
1000
0010
0000
0001
,
1000
0000
1000
0000
0100
0010
0100
0010
,
0001
1000
0010
0010
,
0001
1000
0000
0100
0000
0010
0100
0000
,
1000
0000
0000
0101
0000
0000
1100
0000
,
0010
1000
0010
0100
,
0001
1001
0100
1000
,
0001
0010
0001
0100
,
1001
0110
1001
0000
,
0100
1000
0100
0010
,
0001
1001
0010
1000
,
0100
0001
0100
0010
,
1000
0000
1001
0000
1100
0000
0000
0001
,
0000
1000
0000
0010
0100
0000
0110
0000
,
2002
0000
0000
3003
,
2000
0000
0000
3000
,
0002
0023
2030
3020
,
0032
0003
0000
0000
;

//---------------dance-single - ----------------
#NOTES:
     dance-single:
     :
     Hard:
     10:
     0.486316,0.660217,0.339361,0.106050,0.111353,321.000000,289.000000,32.000000,10.000000,0.000000,0.000000,0.486316,0.660217,0.339361,0.106050,0.111353,321.000000,289.000000,32.000000,10.000000,0.000000,0.000000:
0000
0000
0000
0000
,
0000
0000
0000
0000
,
0000
0000
0000
0000
,
0000
0000
0000
0000
,
0000
0000
0000
0000
,
1000
0001
1000
0001
,
1000
0000
1000
0000
1000
0000
1000
0100
,
0001
0000
0001
0000
0001
0000
0001
0100
,
0001
0000
0001
0000
0001
0000
0001
1000
,
0010
0000
0010
0000
0010
0000
0010
0001
,
0010
0000
0010
0000
0010
0000
0100
1000
,
0100
0000
0010
0010
0010
0000
0100
1000
,
0100
0000
0010
0001
0010
0000
0100
1000
,
0100
0000
0010
0001
0010
0000
0001
0000
,
1000
0100
0001
0100
1000
0000
0001
0000
,
1000
0010
0001
0010
1000
0000
0010
1000
,
0000
0100
1000
0000
0001
0010
0001
0010
,
0100
1000
0100
1000
0100
0000
1001
0100
,
0010
0000
0010
1000
0001
0000
1001
0100
,
0010
0000
0010
0001
1000
0000
1100
0000
,
0100
0010
0001
0010
0100
0000
1000
1000
,
0001
0100
0001
0100
0010
0000
1010
0000
,
0002
0000
1000
0000
,
0010
0000
0100
0000
,
1000
0000
0100
0003
,
1000
1100
1001
0010
,
0100
0101
0011
1000
,
0001
0011
1001
0100
,
0010
1010
0110
0001
,
0010
1001
0100
1001
,
0010
1100
0001
0100
,
1000
0110
0001
0110
,
1000
0101
1000
0100
,
0002
0100
0010
1000
,
0203
1000
0010
0301
,
0020
0031
0200
1300
,
0010
1010
0011
0100
,
1000
0100
1000
0100
1000
0100
0010
0000
0000
0000
0000
0000
,
0001
0100
0001
0100
0001
0100
0010
0000
0000
0000
0000
0000
,
1000
0100
1000
0100
0010
0100
1000
0001
1000
0001
0100
0001
,
0100
0010
0100
0001
1000
0001
1000
0000
0000
0000
0000
0000
,
1000
0010
0010
0000
1000
1000
0100
0010
,
0000
0010
0100
0010
0001
0100
1000
0100
,
0001
0000
1100
0000
0010
1000
0100
0000
,
0010
0001
0000
0100
0001
0000
1010
0000
,
0000
0001
0010
0000
1000
0001
0010
0100
,
0010
0100
1000
0000
0010
0100
0001
0000
,
1000
0010
0100
0010
1000
0010
0100
0010
,
1000
0001
1000
0001
0010
0100
0010
0000
,
0011
0000
0000
1010
0000
0000
0101
0000
,
1000
1000
0001
0100
,
0001
0010
0001
0010
0100
1000
0100
1000
,
0010
0001
0100
0001
,
1000
0110
1001
0001
,
1000
0000
0010
0100
0000
0010
0100
0000
,
0001
0010
0000
0001
1000
0000
0001
0000
,
0010
0000
0100
0000
1000
0000
0001
1000
,
0010
0000
0110
0000
0101
0000
0000
1001
,
0000
0010
0000
0100
1000
0000
0110
0000
,
1001
0000
0000
0000
0000
0000
0000
0000
0000
0000
0000
0001
,
2000
0000
0000
3000
,
0200
0000
0320
0000
2030
0000
3010
0001
,
0200
0000
0000
0000
0000
0000
0000
0000
0000
0000
0000
0000
0000
0000
0000
0000
0000
0000
0000
0000
0000
0000
0000
0000
0000
0000
0000
0000
0000
0000
0000
0000
0000
0000
0000
0000
0000
0000
0000
0000
0000
0000
0000
0000
0000
0000
0000
0000
0000
0300
0000
0000
0000
0000
0000
0000
0000
0000
0000
0000
0000
0000
0000
0000
0000
0000
0000
0000
0000
0000
0000
0000
0000
0000
0000
0000
0000
0000
0000
0000
0000
0000
0000
0000
0000
0000
0000
0000
0000
0000
0000
0000
0000
0000
0000
0000
0000
0000
0000
0000
0000
0000
0000
0000
0000
0000
0000
0000
0000
0000
0000
0000
0000
0000
0000
0000
0000
0000
0000
0000
0000
0000
0000
0000
0000
0000
0000
0000
0000
0000
0000
0000
0000
0000
0000
0000
0000
0000
0000
0000
0000
0000
0000
0000
0000
0000
0000
0000
0000
0000
0000
0000
0000
0000
0000
0000
0000
0000
0000
0000
0000
0000
0000
0000
0000
0000
0000
0000
0000
0000
0000
0000
0000
0000
0000
0000
0000
0000
0000
0000
0000
0000
0000
0000
0000
0000
0000
0000
0000
0000
0000
0000
;

//---------------dance-single - ----------------
#NOTES:
     dance-single:
     :
     Challenge:
     11:
     0.560551,0.594146,0.180285,0.074235,0.344663,370.000000,353.000000,17.000000,7.000000,0.000000,0.000000,0.560551,0.594146,0.180285,0.074235,0.344663,370.000000,353.000000,17.000000,7.000000,0.000000,0.000000:
0000
0000
0000
0000
,
0000
0000
0000
0000
,
0000
0000
0000
0000
,
0000
0000
0000
0000
,
0000
0000
0000
0000
,
1000
1000
1000
1000
,
1000
0000
1000
0000
1000
0000
1000
0001
,
0001
0001
0001
0001
,
0001
0000
0001
0000
0001
0000
0001
0010
,
0010
0010
0010
0010
,
0010
0000
0010
0000
0010
0000
0100
1000
,
0001
0000
0010
0010
0010
0000
0100
0001
,
1000
0000
0010
0100
0010
0000
0100
1000
,
0001
0000
0010
0100
0010
0000
0010
0010
,
0010
0100
0001
1000
0001
0000
0001
0001
,
0100
0010
1000
0001
1000
0000
1000
1000
,
0000
1000
1000
0100
0010
0001
0010
0010
,
0010
0010
0001
0001
1000
0100
0100
0100
,
1000
0010
0001
0010
1000
0001
1000
1000
,
1000
0100
0001
0100
1000
0001
1000
1000
,
0100
0010
0001
0100
0010
1000
0001
0001
,
0010
0100
1000
0001
0100
0010
1000
1000
,
0001
0100
1000
0100
,
0001
0010
1000
0010
,
0001
0100
1000
0100
,
0010
0000
0000
0010
1000
0000
0000
1000
0001
0000
0000
0001
0100
0000
0000
0100
,
0010
0000
0000
0010
1000
0000
0000
1000
0001
0000
0000
0001
0100
0000
0000
0100
,
0010
0000
0000
0010
1000
0000
0000
1000
0001
0000
0000
0001
0100
0000
0000
0100
,
0010
0000
0000
0010
1000
0000
0000
1000
0001
0000
0000
0001
0100
0000
0000
0100
,
0010
0000
0000
0010
1000
0000
0000
1000
0100
0000
0000
0100
0010
0000
0000
0010
,
0001
0000
0000
0001
0100
0000
0000
0100
0010
0000
0000
0010
1000
0000
0000
1000
,
0010
0000
0000
0010
1000
0000
0000
1000
0100
0000
0000
0100
0010
0000
0000
0010
,
0001
0000
0000
0001
0100
0000
0000
0100
0010
0000
0000
0010
1000
0000
0000
1000
,
0010
0000
0000
1000
0100
0000
0000
0000
0010
0000
0000
0001
0100
0000
0000
0000
,
0001
0000
0000
0010
0100
0000
0000
0000
1000
0000
0000
0010
0100
0000
0000
0000
,
0010
0000
0000
0001
0100
0000
0000
0000
0010
0000
0000
1000
0100
0000
0000
0000
,
1000
0000
0000
0100
0010
0000
0000
0000
0001
0000
0000
0100
0010
0000
0000
0000
,
1000
0000
0001
1000
0000
0000
1001
0000
0000
0001
0000
0000
,
0010
0000
0100
0010
0000
0000
0110
0000
0000
0100
0000
0000
,
0010
0000
1000
0010
0000
0000
0100
0000
0001
0100
0000
0000
,
1000
0000
0001
1000
0000
0000
1001
0000
0000
0000
0000
0000
,
1000
0001
0001
0000
1000
1000
0001
0010
,
0100
0010
0000
0100
0010
0100
0000
1000
,
0001
0000
0010
0010
0010
0001
1000
0100
,
0010
1000
0010
0100
0001
0100
0001
1000
,
0001
0100
0001
1000
0010
1000
0010
0000
,
1000
0100
1000
0001
0010
0001
0010
0000
,
0001
1000
0001
0100
0010
0100
0010
0000
,
1000
0001
1000
0100
0010
0100
0010
0000
,
0001
0000
0000
0001
0000
0000
0001
0000
,
0001
0000
0000
0001
1000
0000
0000
1000
0100
0000
0000
0100
0010
0000
0000
0000
,
0011
0000
0000
0000
1100
0000
0000
0000
0101
0000
0000
0000
1010
0000
0000
1000
,
0001
0000
0000
0001
1000
0000
0000
1000
0010
0000
0000
0010
0100
0000
0000
0100
,
0001
0010
0100
1000
0010
0100
0001
1000
,
0001
0000
0000
0001
1000
0000
0000
1000
0100
0000
0000
0100
0010
0000
0000
0010
,
0001
0000
0000
0000
1100
0000
0000
0000
0010
0000
0000
0000
0101
0000
0000
0100
,
0001
0000
0000
0001
0010
0000
0000
0010
0100
0000
0000
0100
1000
0000
0000
1000
,
0010
0000
0101
0000
1100
0000
0000
1001
,
0000
1010
0000
0011
1001
0000
0110
0000
,
2002
0000
0000
0000
0000
0000
0000
0000
0000
3003
0000
1000
,
2000
0000
0000
0000
0000
0000
0000
0000
0000
3000
0000
0001
,
0002
0000
0000
0000
0023
0000
0000
0000
2030
0000
0000
0000
3010
0000
0001
0100
,
0020
0030
0000
0000
;

//---------------dance-double - ----------------
#NOTES:
     dance-double:
     :
     Hard:
     11:
     0.446926,0.462114,0.095445,0.074235,0.174983,295.000000,286.000000,9.000000,7.000000,0.000000,0.000000,0.446926,0.462114,0.095445,0.074235,0.174983,295.000000,286.000000,9.000000,7.000000,0.000000,0.000000:
00000000
00000000
00000000
00000000
,
00000000
00000000
00000000
00000000
,
00000000
00000000
00000000
00000000
,
00000000
00000000
00000000
00000000
,
00000000
00000000
00000000
00000000
,
00000001
00000001
00000001
00000001
,
00000100
00000000
00000100
00000000
00000100
00000000
00000100
00001000
,
00010000
00010000
00010000
00010000
,
01000000
00000000
01000000
00000000
01000000
00000000
01000000
10000000
,
00100000
00100000
00100000
00100000
,
00010000
00000000
00010000
00000000
00010000
00000000
00010000
00001000
,
00000010
00000000
00000001
00000100
00000001
00000000
00000100
00001000
,
00000100
00000000
00001000
00010000
00001000
00000000
00010000
00100000
,
00010000
00000000
00100000
10000000
00100000
00000000
10000000
01000000
,
00000000
00010000
00000000
10000000
01000000
00000000
01000000
00010000
,
00000000
00001000
00000000
00000010
00000001
00000000
00000001
00000100
,
00000000
00000100
00001000
00000100
00000000
00010000
00001000
00010000
,
00000000
01000000
00000000
01000000
00000000
10000000
00100000
10000000
,
00100000
00000000
10000000
01000000
10000000
00000000
01000000
00010000
,
01000000
00000000
00010000
00001000
00010000
00000000
00001000
00000100
,
00000000
00000001
00000100
00000001
00000000
00000001
00000010
00000001
,
00000000
00000010
00000000
00001000
00000000
00010000
00001000
00010000
,
00001000
00010000
01000000
10000000
,
01000000
00010000
00001000
00000010
,
00000001
00000010
00001000
00010000
,
00100000
00000000
00100000
10000000
00000000
00000000
01000000
00000000
01000000
00010000
00000000
00000000
,
00001000
00000000
00001000
00000100
00000000
00000000
00000001
00000000
00000001
00000010
00000000
00000000
,
00001000
00000000
00001000
00010000
00000000
00000000
00100000
00000000
00100000
10000000
00000000
00000000
,
01000000
00000000
01000000
00010000
00000000
00000000
00001000
00000000
00001000
00000100
00000000
00000000
,
00000001
00000000
00000100
00001000
00000000
00000000
00010000
00000000
00001000
00010000
00000000
00000000
,
00010000
00000000
00100000
10000000
00000000
00000000
01000000
00000000
10000000
01000000
00000000
00000000
,
01000000
00000000
00010000
00001000
00000000
00000000
00001000
00000000
00010000
00001000
00000000
00000000
,
00000010
00000000
00000001
00000100
00000000
00000000
00000100
00000000
00000001
00000100
00000000
00000000
,
00000001
00000000
00000100
00001000
00000000
00000000
00010000
00000000
00000000
00010000
00000000
00000000
,
00010000
00000000
01000000
10000000
00000000
00000000
10000000
00000000
00000000
10000000
00000000
00000000
,
10000000
00000000
00100000
00010000
00000000
00000000
00001000
00000000
00000000
00001000
00000000
00000000
,
00001000
00000000
00000010
00000100
00000000
00000001
00001000
00000000
00000100
00000010
00000000
00000001
,
00000100
00001000
00010000
01000000
,
00010000
00001000
00000100
00001000
,
00010000
00100000
10000000
00100000
,
00010000
00001000
00011000
00000000
,
00000000
00001000
00000010
00000000
00000001
00000000
00000001
00000000
,
00000000
00000100
00001000
00000000
00010000
00001000
00010000
00000000
,
00000000
00100000
10000000
00000000
01000000
10000000
01000000
00010000
,
00000000
00001000
00000010
00000000
00000000
00000001
00000000
00000100
,
00000001
00000100
00001000
00000000
00000100
00001000
00010000
00000000
,
00001000
00010000
00100000
00000000
00010000
00100000
10000000
00000000
,
00100000
10000000
01000000
00000000
10000000
01000000
00010000
00001000
,
00000000
00010000
00000000
00001000
00000000
00000010
00000001
00000000
,
00001001
00000000
00000000
00001100
00000000
00000000
00000110
00000000
,
00000010
00000000
00000000
00000001
00000100
00000000
00000000
00000000
00001000
00000000
00000000
00000000
00001000
00000000
00000000
00010000
,
00100000
10000000
00010000
01000000
,
00100000
00000000
00000000
10000000
01000000
00000000
00000000
00000000
00010000
00000000
00000000
00000000
00010000
00000000
00000000
00001000
,
00000010
00000001
00001000
00000100
,
00000010
00000000
00000000
00000001
00000100
00000000
00000000
00000000
00000001
00000000
00000000
00000000
00001000
00000000
00000000
00010000
,
00100000
10000000
00010000
01000000
,
00100000
00000000
00000000
10000000
01000000
00000000
00000000
00000000
10000000
00000000
00000000
00000000
00010000
00000000
00000000
00000000
,
00001000
00000000
00011000
00000000
00001010
00000000
00000000
00011000
,
00000000
01010000
00000000
10000000
01000000
00000000
00010000
00000000
,
00022000
00000000
00000000
00000000
00000000
00000000
00000000
00000000
00000000
00033000
00000000
00001000
,
00000020
00000000
00000000
00000000
00000000
00000000
00000000
00000000
00000000
00000030
00000000
00000001
,
00000200
00000000
00000000
00000000
00002300
00000000
00000000
00000000
00023000
00000000
00000000
00000000
01030000
00000000
00100000
00010000
,
02000000
03000000
00000000
00000000
;

//---------------dance-double - ----------------
#NOTES:
     dance-double:
     :
     Easy:
     5:
     0.224220,0.297073,0.127260,0.254520,0.000000,148.000000,136.000000,12.000000,24.000000,0.000000,0.000000,0.224220,0.297073,0.127260,0.254520,0.000000,148.000000,136.000000,12.000000,24.000000,0.000000,0.000000:
00000000
00000000
00000000
00000000
,
00000000
00000000
00000000
00000000
,
00000000
00000000
00000000
00000000
,
00000000
00000000
00000000
00000000
,
00000000
00000000
00000000
00000000
,
00001000
00001000
00001000
00001000
,
00011000
00000000
00001000
00000000
,
00100000
00001000
01000000
00000000
,
00010000
00000000
10000000
00000000
,
00100000
10000000
01000000
00000000
,
10000000
00010000
10000000
00000000
,
00100000
00100000
00100000
00000000
,
01000000
01000000
01000000
00000000
,
00001000
00001000
00001000
00000000
,
00010000
00001000
00100000
00000000
,
00001000
00010000
00000100
00000000
,
00001000
00000010
00000100
00000000
,
00000001
00000010
00001000
00000000
,
00000100
00001000
00000010
00000000
,
00001000
00000100
00001000
00000000
,
00000100
00010000
00001000
00000000
,
00100000
00000000
00001000
00000000
,
00022000
00000000
00000000
00000000
,
00000000
00000000
00000000
00000000
,
00000000
00000000
00000000
00033000
,
00010000
00000000
00001000
00000000
,
01000000
00000000
00100000
00000000
,
10000000
00000000
01000000
00000000
,
00100000
00000000
00010000
00000000
,
10010000
00000000
10000000
00000000
,
00100000
00000000
01000000
00000000
,
10010000
00000000
01000000
00000000
,
00001000
00000000
00010000
00000000
,
00011000
00000000
00010000
00000000
,
00011000
00000000
00001000
00000000
,
00011000
00000000
00010100
00000000
,
00000001
00000001
00001000
00001000
,
00000010
00000010
00000010
00000000
,
00001000
00001000
00001000
00000000
,
00000100
00000100
00000100
00000000
,
00010000
00001000
00010000
00000000
,
00002000
00003000
00200000
00300000
,
00020000
00030000
20000000
30000000
,
00200000
00300000
02000000
03000000
,
00020000
00000000
00000000
00030000
,
02000000
03000000
00200000
00300000
,
20000000
30000000
02000000
03000000
,
00200000
00300000
00002000
00003000
,
00020000
00000000
00000000
00030000
,
00022000
00000000
00000000
00033000
,
00010000
00000000
00000010
00000000
,
00001000
00000100
00001000
00000001
,
00000010
00000000
00000010
00000000
,
00000001
00001000
00000001
00000000
,
00001000
00000000
00000100
00000000
,
00010000
00001000
00100000
00010000
,
01000000
00000000
00100000
00000000
,
10000000
00010000
10000000
00000000
,
00100000
00100000
01000000
00010000
,
20020000
00000000
30030000
00000000
,
02200000
00000000
03300000
00000000
,
10000000
00010000
00100000
00001000
,
00022000
00033000
00000000
00000000
;

//---------------dance-double - ----------------
#NOTES:
     dance-double:
     :
     Medium:
     7:
     0.381781,0.528130,0.445411,0.084840,0.000000,252.000000,210.000000,42.000000,8.000000,0.000000,0.000000,0.381781,0.528130,0.445411,0.084840,0.000000,252.000000,210.000000,42.000000,8.000000,0.000000,0.000000:
00000000
00000000
00000000
00000000
,
00000000
00000000
00000000
00000000
,
00000000
00000000
00000000
00000000
,
00000000
00000000
00000000
00000000
,
00000000
00000000
00000000
00000000
,
00001000
00010000
00001000
00010000
,
00011000
00010000
00000010
00000100
,
00000001
00000010
00000001
00000100
,
00000010
00001000
00000100
00001000
,
00000010
00000100
00000001
00001000
,
00000100
00010000
00001000
00100000
,
00110000
00010000
10000000
01000000
,
11000000
10000000
00100000
01000000
,
01010000
00010000
10000000
01000000
,
10000000
00100000
10000000
00010000
,
00100000
01000000
10000000
00010000
,
01000000
00100000
01000000
00001000
,
00010000
00001000
00100000
00010000
,
01000000
00001000
00010000
00000100
,
00001000
00000010
00000100
00000001
,
00000010
00000100
00001000
00000001
,
00001000
00000010
00000100
00000001
,
00002002
00000000
00000000
00000000
,
00000000
00000000
00000000
00000000
,
00000000
00000000
00000000
00003003
,
00000110
00000010
00001000
00000100
,
00010000
00001000
01000000
00001000
,
00010000
00001000
01000000
00100000
,
10000000
01000000
00100000
00110000
,
11000000
00010000
10000000
00100000
,
10000000
01000000
00100000
00110000
,
00101000
00010000
00000100
00001000
,
00000010
00000100
00000001
00000011
,
00001100
00000010
00000100
00000110
,
00001001
00001000
00000100
00010100
,
00011000
00001000
00101000
00100000
,
00110000
11000000
01010000
10100000
,
10000000
00010000
10000000
01000000
,
00100000
00010000
01000000
00100000
,
10000000
01000000
00100000
00010000
,
10010000
01100000
10010000
00000000
,
00100000
00001000
00010000
00000100
,
00001000
00000010
00000100
00000001
,
00000010
00000100
00001000
00000001
,
00001000
00000010
00000100
00000001
,
00000010
00000100
00000010
00000001
,
00001000
00000100
00001000
00000100
,
00010000
00001000
00100000
00001000
,
01000000
00100000
10000000
00010000
,
10010000
00000000
00000000
01001000
00000000
00000000
00010100
00000000
,
00001001
00001000
00000010
00000100
,
00000001
00000010
00000100
00001000
,
00000100
00001000
00000010
00010000
,
00011000
00010100
00001100
00001000
,
00001010
00000010
00000100
00000001
,
00001000
00000100
00010000
00001000
,
01000000
00100000
10000000
00010000
,
10010000
00000000
11000000
00000000
01010000
00000000
00000000
00010000
,
00000000
10000000
00000000
00010000
10000000
00000000
00100000
00000000
,
02200000
00000000
00000000
03300000
,
20020000
00000000
00000000
30030000
,
11000000
01100000
00110000
00101000
,
00022000
00033000
00000000
00000000
;

//---------------dance-double - ----------------
#NOTES:
     dance-double:
     :
     Challenge:
     13:
     0.665086,0.693170,0.318150,0.074235,0.461318,439.000000,409.000000,30.000000,7.000000,0.000000,0.000000,0.665086,0.693170,0.318150,0.074235,0.461318,439.000000,409.000000,30.000000,7.000000,0.000000,0.000000:
// measure 0
00000000
00000000
00000000
00000000
,  // measure 1
00000000
00000000
00000000
00000000
,  // measure 2
00000000
00000000
00000000
00000000
,  // measure 3
00000000
00000000
00000000
00000000
,  // measure 4
00000000
00000000
00000000
00000000
,  // measure 5
11000000
01010000
11000000
01010000
,  // measure 6
00011000
00000000
00010000
00000010
00001000
00000100
00000010
00000001
,  // measure 7
00000100
00000010
00001000
00000100
00001000
00000001
00000100
00000010
,  // measure 8
00001000
00000000
00000100
00010000
00001000
00010000
00001000
01000000
,  // measure 9
00100000
10000000
01000000
00100000
00010000
01000000
00100000
10000000
,  // measure 10
01000000
10000000
00100000
01000000
00010000
00100000
01000000
10000000
,  // measure 11
10010000
00000000
00001000
00001000
00001000
00000000
00010000
00000100
,  // measure 12
00001100
00000000
00000000
00000000
00010000
00001000
00010000
00000000
00010000
00000000
00000000
00000000
00000010
00000000
00000100
00000000
,  // measure 13
00001001
00000000
00000000
00000000
00000100
00000010
00000100
00000000
00000100
00000000
00000000
00000000
00000001
00000000
00000011
00000000
,  // measure 14
00000000
00000000
00001000
00000001
00001000
00000000
00000010
00000000
00000100
00000000
00000001
00000000
00000010
00000000
00000100
00000000
,  // measure 15
00010000
00001000
00010000
00000000
01000000
00000000
00100000
00000000
10000000
00000000
01000000
00000000
00100000
00000000
00010000
00000000
,  // measure 16
00000000
01000000
01000000
01000000
00010000
10000000
00100000
01000000
,  // measure 17
00001000
00000000
00010000
00000000
00000100
00000000
00001000
00000000
00000010
00000100
00000010
00000100
00000010
00000000
00010000
00000000
,  // measure 18
00001000
01000000
00100000
10000000
01000000
00100000
00001000
00010000
,  // measure 19
00001000
00010000
00000010
00001000
00000100
00010000
00000100
00001000
,  // measure 20
00000010
00000100
00000001
00000010
00000100
00001000
00000010
00001000
,  // measure 21
00000100
00010000
00001000
01000000
00100000
10000000
00010000
00100000
,  // measure 22
10020000
01000000
10000000
00100000
,  // measure 23
01000000
00100000
01000000
10000000
,  // measure 24
00100000
10000000
01000000
10030000
,  // measure 25
01010000
00000000
01000000
00010000
00000000
00010000
00100000
00000000
00100000
00001000
00000000
00001000
,  // measure 26
00010000
00000000
00010000
00000100
00000000
00000100
00010000
00000000
00010000
00001000
00000000
00001000
,  // measure 27
00100000
00000000
00100000
00010000
00000000
00010000
01000000
00000000
01000000
00001000
00000000
00001000
,  // measure 28
00010000
00000000
00010000
00000010
00000000
00000010
00001000
00000000
00001000
00000001
00000000
00000001
,  // measure 29
00000010
00000000
00000010
00000100
00000000
00000100
00000010
00000000
00000010
00000001
00000000
00000001
,  // measure 30
00001000
00000000
00001000
00000100
00000000
00000100
00010000
00000000
00010000
00001000
00000000
00001000
,  // measure 31
01000000
00000000
01000000
00100000
00000000
00100000
01000000
00000000
01000000
00001000
00000000
00001000
,  // measure 32
00010000
00000000
00010000
00000100
00000000
00000100
00001000
00000000
00001000
00000010
00000000
00000010
,  // measure 33
00010000
00000000
00010000
00001000
00000000
00001000
01000000
00000000
01000000
00100000
00000000
00000000
,  // measure 34
10000000
00000000
10000000
00010000
00000000
00010000
00100000
00000000
00100000
00010000
00000000
00000000
,  // measure 35
01000000
00000000
01000000
00100000
00000000
00100000
10000000
00000000
10000000
00010000
00000000
00000000
,  // measure 36
11000000
00110000
11000000
00110000
,  // measure 37
01000000
00100000
01000000
00100000
01000000
00100000
01000000
00000000
00000000
00000000
00000000
00000000
,  // measure 38
00010000
10000000
00010000
10000000
00010000
10000000
00010000
00000000
00000000
00000000
00000000
00000000
,  // measure 39
00001000
00010000
00001000
00010000
00001000
00010000
00001000
00010000
00001000
00010000
00001000
00010000
,  // measure 40
00001000
00010000
00001000
00010000
00001000
00010000
00001000
00000000
00000000
00000000
00000000
00000000
,  // measure 41
00010000
00000100
00001000
00000010
00000100
00000001
00001000
00000000
,  // measure 42
00000100
00001000
00000010
00000100
00000010
00001000
00000001
00000000
,  // measure 43
00001000
00000100
00010000
00001000
01000000
00010000
00100000
00000000
,  // measure 44
00010000
00000000
01000000
00000000
00100000
00000000
10000000
00000000
01000000
00000000
00100000
00000000
00001000
00010000
00001000
00010000
,  // measure 45
00001000
01000000
00100000
01000000
00010000
00100000
01000000
10000000
,  // measure 46
00100000
01000000
00100000
10000000
01000000
00100000
00010000
01000000
,  // measure 47
00001000
00010000
00001000
00100000
00001000
00010000
00000010
00000100
,  // measure 48
00000001
00000010
00000100
00001000
00000001
00000100
00000010
00001000
,  // measure 49
00001100
00000000
00000000
00001000
00000001
00000000
00000101
00000000
00000000
00000100
00000010
00000000
00000110
00000000
00000001
00001000
,  // measure 50
00000001
00000000
00000000
00000001
00001000
00000000
00000000
00001000
00000100
00000000
00000000
00000100
00010000
00000000
00000000
00010000
,  // measure 51
00001000
00100000
00010000
01000000
00100000
10000000
01000000
00100000
,  // measure 52
00010000
00000000
00000000
00010000
10000000
00000000
00000000
10000000
00100000
00000000
00000000
00100000
01000000
00000000
00000000
01000000
,  // measure 53
00100000
10000000
00010000
00100000
00001000
00010000
00000100
00001000
,  // measure 54
00000001
00000000
00000000
00000001
00000100
00000000
00000000
00000100
00000010
00000000
00000000
00000010
00001000
00000000
00000000
00001000
,  // measure 55
00000100
00010000
00001000
01000000
00010000
00100000
00001000
00010000
,  // measure 56
00000100
00000010
00000001
00000100
00000010
00010000
00001000
01000000
,  // measure 57
01010000
00000000
11000000
00000000
10010000
00000000
00000000
00110000
,  // measure 58
00000000
11000000
00000000
10100000
10100000
00000000
01010000
00000000
,  // measure 59
00022000
00000000
00000000
00000000
00000000
00000000
00000000
00000000
00000000
00033000
00000000
02000000
,  // measure 60
00200000
00000000
00000000
00000000
00000000
00000000
00000000
00000000
00000000
03300000
00000000
10000000
,  // measure 61
00010000
00000000
00000000
00000000
00110000
00000000
00000000
00000000
01010000
00000000
00000000
00000000
01100000
00000000
01000000
00002000
,  // measure 62
00020000
00033000
00000000
00000000
;
