#TITLE:TRIP MACHINE;
#SUBTITLE:;
#ARTIST:DE-SIRE;
#TITLETRANSLIT:;
#SUBTITLETRANSLIT:;
#ARTISTTRANSLIT:;
#GENRE:;
#CREDIT:;
#BANNER:TRIP MACHINE.png;
#BACKGROUND:TRIP MACHINE-bg.png;
#LYRICSPATH:;
#CDTITLE:;
#MUSIC:TRIP MACHINE.ogg;
#OFFSET:0.000000;
#SAMPLESTART:13.499000;
#SAMPLELENGTH:20.000000;
#SELECTABLE:YES;
#DISPLAYBPM:160.000000;
#BPMS:0.000000=160.141998
,20.000000=160.089005
;
#STOPS:
;
#BGCHANGES:;
#KEYSOUNDS:;
#ATTACKS:;

//---------------dance-single - ----------------
#NOTES:
     dance-single:
     :
     Beginner:
     3:
     0.179268,0.289978,0.056526,0.000000,0.000000,111.000000,106.000000,5.000000,0.000000,0.000000,0.000000,0.179268,0.289978,0.056526,0.000000,0.000000,111.000000,106.000000,5.000000,0.000000,0.000000,0.000000:
0000
0000
0000
0000
,
0000
0000
0000
0000
,
0000
0000
0000
0000
,
0000
0000
0000
0000
,
0000
0000
0000
0000
,
0000
0000
0000
0000
,
0000
0000
0000
0000
,
0000
0000
0000
0000
,
0000
0000
0000
0000
,
1000
0000
0000
0000
,
1000
0000
0000
0000
,
1000
0000
0000
0000
,
1000
0000
0000
0000
,
1001
1001
0000
0000
,
0001
0000
0000
1000
,
1000
0000
0000
0001
,
0001
0000
0000
0000
,
0010
0010
0000
0100
,
0100
0100
0100
0000
,
0010
0010
0000
0100
,
0100
0100
0100
0000
,
0001
0001
0000
1000
,
1000
1000
1000
0000
,
0010
0000
0010
0000
,
0100
0100
0100
0000
,
0001
0000
0000
0100
,
0100
0000
0000
1000
,
1000
0000
0000
0001
,
0001
0000
0000
0100
,
0100
0000
0000
1001
,
1001
0000
1001
0000
,
0010
0010
0010
0000
,
0100
0100
0100
0000
,
0001
0001
0001
0001
,
0001
0001
0001
0000
,
1000
1000
1000
1000
,
1000
1000
1000
0000
,
0010
0010
0010
0010
,
0010
0010
0010
0000
,
0100
0100
0100
0100
,
0100
0100
0100
0000
,
0010
0000
0000
0000
,
0001
0000
0000
0000
,
1000
0000
0000
0000
,
0100
0000
0000
0000
,
0010
0000
0000
0000
,
0001
0000
0000
0000
,
1000
0000
0000
0000
,
0010
0000
0000
0000
,
0001
0000
0000
1000
,
1000
0000
0000
0001
,
0001
0000
0000
1000
,
1000
0000
0000
0001
,
0001
0001
0000
0000
,
0000
0000
0000
0100
,
0100
0000
0000
0001
,
0001
0001
0001
0001
,
0001
0000
0000
0000
,
0000
0000
0000
0000
;

//---------------dance-single - ----------------
#NOTES:
     dance-single:
     :
     Easy:
     8:
     0.327850,0.395116,0.135662,0.000000,0.000000,203.000000,191.000000,12.000000,0.000000,0.000000,0.000000,0.327850,0.395116,0.135662,0.000000,0.000000,203.000000,191.000000,12.000000,0.000000,0.000000,0.000000:
0000
0000
0000
0000
,
0000
0000
0000
0000
,
0000
0000
0000
0000
,
0000
0000
0000
0000
,
0000
0000
0000
0000
,
0000
0000
0000
0000
,
0000
0000
0000
0000
,
0000
0000
0000
0000
,
0000
0000
0000
0000
,
1000
0000
0010
0000
,
0001
0000
0010
0000
,
1000
0000
0010
0001
,
0001
0000
0010
1000
,
1000
0001
0010
0001
,
0001
1000
0010
1000
,
1000
0000
0001
0000
0010
0100
0001
0000
,
0001
0000
1000
0000
0010
0100
1000
0000
,
0001
0100
1000
0100
,
0000
0000
0001
0100
1000
0010
0000
0000
,
0010
1000
0100
0001
,
0000
0010
0000
0010
,
1000
0100
0001
0100
,
0000
0000
1000
0100
0001
0010
0000
0000
,
0010
0001
0100
1000
,
0000
0010
0000
0010
,
0001
0100
0001
1000
,
0010
0000
0000
0000
0000
0001
0100
0000
,
0010
0001
0100
1000
,
0010
0100
0010
1001
,
0010
0100
1001
0100
,
0001
0001
1000
0010
,
0110
0000
0000
0000
0000
1001
0000
0010
,
0000
1000
0001
0010
0100
0000
0100
0000
,
0010
0010
0001
0001
,
0100
0000
0100
0000
1000
0010
0001
0000
,
0100
0100
1000
1000
,
0010
0000
0010
0000
0001
0100
1000
0000
,
0010
0010
0001
0001
,
0100
0000
0100
0000
1000
0010
0001
0000
,
0100
0100
1000
1000
,
0010
0010
0001
0001
,
0010
0000
0000
0000
,
0001
1000
0100
0010
,
0000
0010
0001
0000
0100
0000
1000
0000
,
0110
1001
0000
0010
,
0001
0100
1000
0010
,
1000
0001
0100
0010
,
0000
0010
1000
0000
0100
0000
0001
0000
,
0110
1001
0100
0010
,
0001
0110
1000
0100
,
0010
0000
1001
0000
0000
0100
0000
1000
,
0001
0110
1000
0100
,
0000
0010
0000
1000
0000
0001
0000
0100
,
0001
0100
1000
0000
0010
0000
1000
0000
,
0100
0000
0010
0000
0000
0001
0000
0100
,
0010
0001
1000
0110
,
0001
0010
0100
1000
,
0010
0010
0000
0001
0001
0000
1000
1000
,
0000
0100
0100
0000
0000
0000
0000
0000
,
0000
0000
0000
0000
;

//---------------dance-single - ----------------
#NOTES:
     dance-single:
     :
     Medium:
     9:
     0.377916,0.460969,0.260019,0.000000,0.000000,234.000000,211.000000,23.000000,0.000000,0.000000,0.000000,0.377916,0.460969,0.260019,0.000000,0.000000,234.000000,211.000000,23.000000,0.000000,0.000000,0.000000:
0000
0000
0000
0000
,
0000
0000
0000
0000
,
0000
0000
0000
0000
,
0000
0000
0000
0000
,
0000
0000
0000
0000
,
0000
0000
0000
0000
,
0000
0000
0000
0000
,
0000
0000
0000
0000
,
0000
0000
0000
0000
,
1000
0000
0010
0001
,
0001
0000
0010
1000
,
1000
0001
0010
0001
,
0001
1000
0010
1000
,
1000
0000
0001
0000
0010
0100
0001
0000
,
0001
0000
1000
0000
0010
0100
1000
0000
,
1000
0100
0001
0000
0010
0100
0001
0000
,
0001
0100
1000
0000
0010
0100
1000
0000
,
0001
0000
0100
0000
1000
0010
0001
0000
,
0000
0000
0001
0100
1000
0010
0001
0000
,
0010
1000
0100
0001
,
1000
0001
0100
0010
,
1000
0000
0100
0000
0001
0010
1000
0000
,
0000
0000
1000
0100
0001
0010
1000
0000
,
0010
0001
0100
1000
,
0001
1000
0100
0010
,
0101
0010
0100
1010
,
0100
0000
0000
0000
0000
0001
0001
0000
,
1001
0001
0101
1100
,
0010
0100
0010
1001
,
1100
0011
0100
1000
,
1100
1100
1000
0010
,
0110
0000
0000
0000
0000
1001
0000
0010
,
0000
1000
0001
0010
0100
0000
0100
0000
,
0010
0001
0100
1000
,
0010
0000
0001
0000
0100
1000
0010
0000
,
0001
0100
1000
0010
,
0001
0000
0100
0000
1000
0010
0001
0000
,
0100
1000
0010
0001
,
0100
0000
1000
0000
0010
0001
0100
0000
,
1000
0010
0001
0100
,
1000
0000
0010
0000
0001
0100
1000
0000
,
0010
0000
0000
0000
,
0001
1000
0100
0001
,
0000
0010
0001
0000
0100
0000
1000
0000
,
1100
0011
0000
0010
,
0001
0100
1000
0000
0001
0010
1000
0000
,
1000
0001
0100
1000
,
0000
0010
1000
0000
0100
0000
0001
0000
,
1100
0011
0100
0010
,
1100
0010
0001
0100
,
0010
0000
1001
0000
0000
0100
0000
0001
,
1000
0110
1000
0001
,
0000
1000
0100
0001
0000
1000
0000
0100
,
0001
0100
1000
0000
0010
0000
1100
0000
,
0010
0000
0001
0000
0000
0001
0000
0001
,
1000
0100
0101
0001
,
0011
0010
1010
1000
,
1000
0010
0000
0010
0001
0000
0001
0100
,
0000
0100
1000
0000
0000
0000
0000
0000
,
0000
0000
0000
0000
;

//---------------dance-single - ----------------
#NOTES:
     dance-single:
     :
     Hard:
     10:
     0.415062,0.526821,0.305240,0.000000,0.000000,257.000000,230.000000,27.000000,0.000000,0.000000,0.000000,0.415062,0.526821,0.305240,0.000000,0.000000,257.000000,230.000000,27.000000,0.000000,0.000000,0.000000:
0000
0000
0000
0000
,
0000
0000
0000
0000
,
0000
0000
0000
0000
,
0000
0000
0000
0000
,
0000
0000
0000
0000
,
0000
0000
0000
0000
,
0000
0000
0000
0000
,
0000
0000
0000
0000
,
0000
0000
0000
0000
,
1000
0000
0000
0000
0010
0100
0001
0000
,
0001
0000
0000
0000
0010
0100
1000
0000
,
1000
0000
0001
0000
0010
0100
0001
0000
,
0001
0000
1000
0000
0010
0100
1000
0000
,
1000
0100
0001
0000
0010
0100
0001
0000
,
0001
0100
1000
0000
0010
0100
1000
0000
,
1000
0010
0001
0000
0010
0100
0001
0000
,
0001
0010
1000
0000
0010
0100
1000
0000
,
0001
0010
0100
0000
1000
0010
0001
0000
,
0000
0000
0001
0100
1000
0010
0001
0000
,
0010
1000
0100
0001
,
0001
0100
1000
0010
0001
0010
1000
0000
,
1000
0010
0100
0000
0001
0010
1000
0000
,
0000
0000
1000
0100
0001
0010
1000
0000
,
0010
0001
0100
1000
,
1000
0100
0001
0010
1000
0010
0001
0000
,
0101
0010
0100
1010
,
0110
0000
0000
0000
0000
0010
0100
0000
,
1001
0001
0010
1100
,
0010
0100
0010
1001
,
1100
0011
0100
1000
,
1000
0011
1000
0010
,
0110
0000
0000
0000
0000
1001
0000
0010
,
0000
1000
0001
0010
0100
0000
0100
0000
,
0010
0001
0100
1000
,
0010
0000
0001
0000
0100
0001
0010
0000
,
0001
0100
1000
0010
,
0001
0000
0100
0000
1000
0100
0001
0000
,
0100
1000
0010
0001
,
0100
0000
1000
0000
0010
1000
0100
0000
,
1000
0010
0001
0100
,
1000
0000
0010
0000
0001
0010
1000
0000
,
0010
0000
0000
0000
,
0011
1000
0100
0100
,
0000
1010
1000
0000
0100
0000
1000
0000
,
1100
0011
0000
0010
,
0001
0100
1000
0000
0001
0010
1000
0000
,
1010
1000
0001
0010
0100
0001
0100
1000
,
0000
0011
0001
0000
0100
0000
0001
0000
,
1100
0011
0100
0010
,
0110
0001
1100
0001
,
0010
0000
0001
0000
0000
0100
0000
0001
,
1000
1000
0001
0010
,
0000
1000
0100
0001
0010
1000
0000
0001
,
0100
0001
0010
0000
0100
0000
1001
0000
,
0011
0000
1010
0000
0000
0001
0000
0010
,
1000
0001
0101
0010
,
0011
1000
1010
0100
,
1000
0010
0000
0100
1000
0000
0001
0100
,
0000
0010
0001
0000
0000
0000
0000
0000
,
0000
0000
0000
0000
;

//---------------dance-double - ----------------
#NOTES:
     dance-double:
     :
     Easy:
     9:
     0.358536,0.428043,0.237409,0.000000,0.000000,222.000000,201.000000,21.000000,0.000000,0.000000,0.000000,0.358536,0.428043,0.237409,0.000000,0.000000,222.000000,201.000000,21.000000,0.000000,0.000000,0.000000:
00000000
00000000
00000000
00000000
,
00000000
00000000
00000000
00000000
,
00000000
00000000
00000000
00000000
,
00000000
00000000
00000000
00000000
,
00000000
00000000
00000000
00000000
,
00000000
00000000
00000000
00000000
,
00000000
00000000
00000000
00000000
,
00000000
00000000
00000000
00000000
,
00000000
00000000
00000000
00000000
,
00000010
00000100
00000001
00001000
,
00010000
10000000
01000000
00100000
,
00010000
10000000
00000000
00100000
,
00000000
00010000
01000000
10000000
,
00110000
00001100
00000001
00000100
,
00000110
00000001
00000010
00001000
,
00000010
00000100
00000010
00000100
,
00001000
01000000
00010000
00100000
,
01100000
10010000
00100000
01000000
,
00000000
00000000
00010000
01000000
10000000
00100000
00010000
00000000
,
00100000
10000000
01000000
00010000
,
00001000
00000010
00000001
00000100
,
00000110
00001001
00000010
00000100
,
00000000
00000000
00001000
00000100
00000001
00000010
00001000
00000000
,
00000010
00000001
00000100
00001000
,
00010000
00100000
10000000
01000000
,
00100000
01000000
00010000
00001000
,
00000100
00001000
00010000
01000000
,
10100000
00010000
00001000
00010000
,
01000000
00000000
00000100
00000000
00000001
00000010
00000000
00000000
,
00000100
00001000
00000011
00001100
,
00000010
00001000
01000000
10000000
,
00010000
00100000
10010000
01000000
,
00100000
00010000
01000000
10000000
,
00100000
00100000
01000000
01000000
,
10000000
00000000
10000000
00000000
01000000
00010000
00001000
00000000
,
00000010
00000010
00000100
00000100
,
00000001
00000000
00000001
00000000
00000100
00001000
00010000
00000000
,
00100000
00100000
01000000
01000000
,
10000000
00000000
10000000
00000000
01000000
00010000
00001000
00000000
,
00000010
00000010
00000100
00000100
,
00000001
00000001
00001000
00001000
,
00001001
00000000
00000000
00000000
,
00000100
00000001
00000100
00001000
,
00000010
00000010
00000010
00000100
,
00000001
00000010
00001000
00000010
,
00001000
01000000
00000100
01000000
,
10000000
00010000
10000000
00100000
,
01100000
00010000
10100000
00010000
,
01100000
10000000
01010000
10000000
,
00100000
00001000
00000100
00010000
,
01000000
00000000
01000000
00000000
00000000
00001000
00000000
00000001
,
00000100
00000010
00000101
00001010
,
00000000
00000010
00000000
00000100
00000000
00001000
00000000
01000000
,
10000000
01000000
00010000
00000000
10000000
00000000
00110000
00000000
,
10000000
00000000
01000000
00000000
00000000
00010000
00000000
10000000
,
01000000
00010000
01000000
00001100
,
00000011
00001000
01000000
00010000
,
00100000
10000000
00000000
00010000
01000000
00000000
00000100
00001000
,
00000000
00000001
00000010
00000000
00000000
00000000
00000000
00000000
,
00000000
00000000
00000000
00000000
;

//---------------dance-double - ----------------
#NOTES:
     dance-double:
     :
     Medium:
     10:
     0.389221,0.526821,0.293935,0.000000,0.000000,241.000000,215.000000,26.000000,0.000000,0.000000,0.000000,0.389221,0.526821,0.293935,0.000000,0.000000,241.000000,215.000000,26.000000,0.000000,0.000000,0.000000:
00000000
00000000
00000000
00000000
,
00000000
00000000
00000000
00000000
,
00000000
00000000
00000000
00000000
,
00000000
00000000
00000000
00000000
,
00000000
00000000
00000000
00000000
,
00000000
00000000
00000000
00000000
,
00000000
00000000
00000000
00000000
,
00000000
00000000
00000000
00000000
,
00000000
00000000
00000000
00000000
,
00000010
00001000
00000100
00001000
,
01000000
10000000
00100000
00010000
,
00000100
00100000
01000000
00010000
,
00001000
00000001
00000110
00001000
,
00000100
00000100
00000011
00001100
,
00000001
00001000
01000000
00000100
,
01001000
10000000
00010000
10100000
,
11000000
00010000
10000000
00100000
,
00010000
01000000
00100000
10000000
,
00000000
00000000
00010000
01000000
10000000
00100000
00010000
00000000
,
10100000
01000000
00010000
00100000
,
10000000
01000000
00010000
01000000
00010000
00001000
00000100
00000001
,
00001000
00000100
00000010
00000001
,
00000000
00000000
00001000
00000100
00000001
00000010
00001000
00000000
,
00000011
00000100
00001000
00000010
,
00000001
00000100
00001000
00000100
00001000
00010000
01000000
10000000
,
00110000
01000000
01000000
00100000
,
00010000
00000000
00000000
00000000
00000000
00001000
00000001
00000000
,
00001000
00000010
00000001
00000100
,
00001100
00000000
00000101
00000000
00001000
00000001
00000100
00000000
,
00000010
00000010
00001100
00000001
,
00000100
01001000
00010000
10000000
,
10100000
00000000
00000000
01000000
00000000
10000000
00000000
00100000
,
00000000
10000000
01000000
00010000
00001000
00000000
00000100
00000000
,
00000010
00000010
00000001
00000001
,
00000100
00000000
00001000
00000000
00010000
01000000
10000000
00000000
,
00100000
00100000
10000000
10000000
,
01000000
00000000
00010000
00000000
00001000
00000100
00000001
00000000
,
00000010
00000010
00000001
00000001
,
00000100
00000000
00001000
00000000
00010000
01000000
10000000
00000000
,
00100000
00100000
10000000
10000000
,
01000000
00000000
00010000
00000000
00001000
00000100
00000001
00000000
,
00000100
00000000
00000000
00000000
,
00000100
00001000
00000010
00000001
,
00000000
00001000
00010000
00000000
01000000
00000000
00010000
00000000
,
01010000
00000000
10000000
01000000
00010000
00000000
11000000
00000000
,
01100000
10010000
00110000
11000000
,
01000000
00010000
00100000
00010000
,
00000000
00001000
00000100
00000000
00000001
00000000
00001000
00000000
,
00001100
00000000
00000001
00000100
00001000
00000000
00000101
00000000
,
00000010
00001000
00000010
00000001
,
00000100
00000000
00001001
00000000
00000000
00000010
00000000
00000010
,
00001000
00010000
01000000
10000000
,
00000000
00010000
00000000
00010000
00000000
00010000
00000000
00010000
,
01000000
10000000
00100000
00000000
01001000
00000000
10100000
00000000
,
01000000
00000000
10000000
00000000
00000000
00100000
00000000
00100000
,
00010000
00001000
00000100
00000001
,
00001000
01000000
00110000
01000000
,
10000000
01000000
00000000
00100000
00010000
00000000
00001000
00000100
,
00000000
00000010
00000001
00000000
00000000
00000000
00000000
00000000
,
00000000
00000000
00000000
00000000
;

//---------------dance-double - ----------------
#NOTES:
     dance-double:
     :
     Hard:
     10:
     0.460282,0.526821,0.237409,0.000000,0.000000,285.000000,264.000000,21.000000,0.000000,0.000000,0.000000,0.460282,0.526821,0.237409,0.000000,0.000000,285.000000,264.000000,21.000000,0.000000,0.000000,0.000000:
00000000
00000000
00000000
00000000
,
00000000
00000000
00000000
00000000
,
00000000
00000000
00000000
00000000
,
00000000
00000000
00000000
00000000
,
00000000
00000000
00000000
00000000
,
00000000
00000000
00000000
00000000
,
00000000
00000000
00000000
00000000
,
00000000
00000000
00000000
00000000
,
00000000
00000000
00000000
00000000
,
00000010
00001000
00000100
00000000
00010000
00001000
00100000
00000000
,
00010000
10000000
01000000
00000000
00100000
00010000
01000000
00000000
,
00001000
00010000
00000100
00000000
00001000
00000001
00000100
00000000
,
00000010
00010000
00001000
00000000
00100000
00010000
10000000
00000000
,
01000000
00100000
00010000
00000000
01000000
00001000
00010000
00000000
,
00000100
00000010
00000001
00000000
00001000
00000100
00010000
00000000
,
00001000
00100000
00010000
00000000
10000000
01000000
00100000
00000000
,
00010000
01000000
00000000
00001000
00010000
00000100
00010000
00000000
,
00001010
00000000
00000101
00000000
00001000
00000100
00010000
00001000
,
00000000
00100000
00100000
00100000
00010000
10000000
01000000
00000000
,
00110000
00000000
01001000
00000000
00010000
00010000
00010000
00000100
,
00000000
00000010
00000000
00000010
00000001
00000100
00000010
00000000
,
00001001
00000000
00010100
00000000
00001000
00100000
00010000
10000000
,
00000000
00100000
00100000
00100000
01000000
00010000
01000000
00000000
,
00011000
00000000
00001001
00000000
00000010
00000010
00000010
00000100
,
00000000
00001000
00000000
00010000
00001000
01000000
00100000
00000000
,
10010000
00000000
00000000
00000000
00000000
00000000
00000000
01000000
,
00100000
01000000
00000000
10000000
00100000
01000000
00001000
00010000
,
00000000
00000100
00000000
00000010
00000001
00000100
00000010
00001000
,
00000100
00010000
00000000
00001000
00100000
00010000
01000000
00100000
,
00000000
10000000
00000000
01000000
00100000
00010000
01000000
00001000
,
00100000
00010000
00000000
00000000
00000000
00000000
00000000
10000000
,
01000000
00100000
00000000
00001000
00010000
00000100
00000010
00000001
,
00000000
00001000
00001000
00001000
00000100
00000000
00000100
00000000
,
00010000
00001000
00010000
00000000
00100000
00010000
00100000
00000000
,
10000000
01000000
10000000
00000000
00100000
00100000
00100000
00000000
,
01000000
00001000
01000000
00000000
00010000
00000010
00010000
00000000
,
00001000
00000100
00001000
00000000
00000001
00000001
00000001
00000001
,
00000010
00000100
00001000
00000000
00000010
00010000
00001000
00000000
,
00100000
01000000
10000000
00000000
00010000
00010000
00010000
00000000
,
01000000
00001000
00010000
00000000
00000100
00000010
00000001
00000000
,
00001000
00000010
00010000
00000100
00001000
00000010
00010000
00001000
,
01000000
00000000
00000000
00000000
,
10010000
00000000
00000000
00011000
00000000
00000000
00000000
00000000
,
00001001
00000000
00000000
00000000
,
00011000
00000000
00000000
00010010
00000000
01010000
00000000
00000000
,
11000000
00000000
00000000
00000000
,
00101000
00000000
00000000
00010100
00000000
00000000
00000000
00000000
,
00001001
00000000
00000000
00000000
,
00000110
00000000
00000000
00011000
00000000
00000000
00000000
00000000
,
00100000
01000000
10000000
01000000
00100000
00010000
01000000
00001000
,
00010000
00000100
00001000
00000100
00000010
00000001
00000100
00000000
,
00010000
00001000
00100000
00010000
10000000
01000000
00100000
01000000
,
10000000
00010000
01000000
00001000
00010000
00000100
00000010
00000001
,
00000000
00001000
00000010
00000000
00010000
00001000
01000000
00000000
,
00010000
10000000
01000000
00000000
00100000
00010000
01000000
00000000
,
00001000
00010000
00000000
00000100
00000010
00000001
00000100
00000000
,
00000010
00001000
00000000
00001000
00000100
00010000
00001000
00100000
,
00010000
10000000
00000000
01000000
00100000
00000000
00001000
00010000
,
00000000
00000100
00000010
00000000
00000000
00000000
00000000
00000000
,
00000000
00000000
00000000
00000000
;

//---------------dance-couple - ----------------
#NOTES:
     dance-couple:
     :
     Easy:
     6:
     0.306855,0.395116,0.135662,0.000000,0.000000,190.000000,178.000000,12.000000,0.000000,0.000000,0.000000,0.306855,0.395116,0.135662,0.000000,0.000000,190.000000,178.000000,12.000000,0.000000,0.000000,0.000000:
00000000
00000000
00000000
00000000
,
00000000
00000000
00000000
00000000
,
00000000
00000000
00000000
00000000
,
00000000
00000000
00000000
00000000
,
00000000
00000000
00000000
00000000
,
00000000
00000000
00000000
00000000
,
00000000
00000000
00000000
00000000
,
00000000
00000000
00000000
00000000
,
00000000
00000000
00000000
00000000
,
10001000
00000000
00100010
00000000
,
00010001
00000000
00100010
00000000
,
10001000
00000000
00100010
00010001
,
00010001
00000000
00100010
10001000
,
10001000
00010001
00100010
00010001
,
00010001
10001000
00100010
10001000
,
10001000
00000000
00010001
00000000
00100010
01000100
00010001
00000000
,
00010001
00000000
10001000
00000000
00100010
01000100
10001000
00000000
,
00010000
01001000
10000000
01001000
,
00000000
00000000
00010001
01000000
10000000
00100000
00000001
00000000
,
00100000
10000100
01000000
00010100
,
00000000
00100010
00000000
00100010
,
00001000
10000100
00000001
10000100
,
00000000
00000000
00011000
00000100
00000001
00000010
00010000
00000000
,
00000010
01000001
00000100
01001000
,
00000000
00100010
00000000
00100010
,
00011000
01000100
00011000
10000001
,
00100010
00000000
00000000
00000000
00000000
00011000
01000100
00000000
,
00100010
00011000
01000100
10000001
,
00100010
01000100
00100010
10011001
,
00100010
01000100
10011001
01000100
,
00011000
00011000
10000001
00100010
,
01100110
00000000
00000000
00000000
00000000
10011001
00000000
00100010
,
00000000
10000001
00011000
00100010
01000100
00000000
01000100
00000000
,
00100000
00100000
00010000
00010001
,
01000000
00000000
01000000
00000000
10000000
00100000
00010001
00000000
,
01000100
01000100
10001000
10001000
,
00100010
00000000
00100010
00000000
00010001
01000100
10001000
00000000
,
00000010
00000010
00000001
00010001
,
00000100
00000000
00000100
00000000
00001000
00000010
00010001
00000000
,
01000100
01000100
10001000
10001000
,
00100010
00100010
00010001
00010001
,
00100010
00000000
00000000
00000000
,
10000001
00011000
01000100
00100010
,
00000000
00100010
10000001
00000000
01000100
00000000
00011000
00000000
,
01100110
10011001
00000000
00100010
,
10000001
01000100
00011000
00100010
,
00011000
10000001
01000100
00100010
,
00000000
00100010
00011000
00000000
01000100
00000000
10000001
00000000
,
01100110
10011001
01000100
00100010
,
00010001
01100110
10001000
01000100
,
00100010
00000000
10011001
00000000
00000000
01000100
00000000
10001000
,
00010001
01100110
10001000
01000100
,
00000000
00100010
00000000
10001000
00000000
00010001
00000000
01000100
,
00010001
01000100
10001000
00000000
00100010
00000000
10001000
00000000
,
01000100
00000000
00100010
00000000
00000000
00010001
00000000
01000100
,
00100010
00010001
10001000
01100110
,
00010001
00100010
01000100
10001000
,
00100010
00100010
00000000
00010001
00010001
00000000
10001000
10001000
,
00000000
01000100
01000100
00000000
00000000
00000000
00000000
00000000
,
00000000
00000000
00000000
00000000
;

//---------------dance-couple - ----------------
#NOTES:
     dance-couple:
     :
     Medium:
     7:
     0.339155,0.460969,0.260019,0.000000,0.000000,210.000000,187.000000,23.000000,0.000000,0.000000,0.000000,0.339155,0.460969,0.260019,0.000000,0.000000,210.000000,187.000000,23.000000,0.000000,0.000000,0.000000:
00000000
00000000
00000000
00000000
,
00000000
00000000
00000000
00000000
,
00000000
00000000
00000000
00000000
,
00000000
00000000
00000000
00000000
,
00000000
00000000
00000000
00000000
,
00000000
00000000
00000000
00000000
,
00000000
00000000
00000000
00000000
,
00000000
00000000
00000000
00000000
,
00000000
00000000
00000000
00000000
,
10001000
00000000
00100010
00010001
,
00010001
00000000
00100010
10001000
,
10001000
00010001
00100010
00010001
,
00010001
10001000
00100010
10001000
,
10001000
00000000
00010001
00000000
00100010
01000100
00010001
00000000
,
00010001
00000000
10001000
00000000
00100010
01000100
10001000
00000000
,
10001000
01000100
00010001
00000000
00100010
01000100
00010001
00000000
,
00010001
01000100
10001000
00000000
00100010
01000100
10001000
00000000
,
00010000
00000000
01001000
00000000
10000000
00100000
00011000
00000000
,
00000000
00000000
00010001
01000000
10000000
00100000
00010001
00000000
,
00100000
10000100
01000000
00010100
,
10000000
00010010
01000000
00100010
,
00001000
00000000
10000100
00000000
00000001
00000010
10001000
00000000
,
00000000
00000000
00011000
00000100
00000001
00000010
00011000
00000000
,
00000010
01000001
00000100
01001000
,
00000001
00101000
00000100
00100010
,
01011100
00100010
01000100
10100011
,
01000100
00000000
00000000
00000000
00000000
00011000
00011000
00000000
,
10011001
00011000
01011100
11000101
,
00100010
01000100
00100010
10011001
,
11000101
00111010
01000100
10000001
,
11000101
11000101
10000001
00100010
,
01100110
00000000
00000000
00000000
00000000
10011001
00000000
00100010
,
00000000
10000001
00011000
00100010
01000100
00000000
01000100
00000000
,
00100000
00010000
01000000
10001000
,
00100000
00000000
00010000
00000000
01000000
10000000
00100010
00000000
,
00010000
01000000
10000000
00100010
,
00010000
00000000
01000000
00000000
10000000
00100000
00010001
00000000
,
00000100
00001000
00000010
00010001
,
00000100
00000000
00001000
00000000
00000010
00000001
01000100
00000000
,
00001000
00000010
00000001
01000100
,
00001000
00000000
00000010
00000000
00000001
00000100
10001000
00000000
,
00100010
00000000
00000000
00000000
,
10000001
00011000
01000100
10000001
,
00000000
00100010
10000001
00000000
01000100
00000000
00011000
00000000
,
01011100
10100011
00000000
00100010
,
10000001
01000100
00011000
00000000
10000001
00100010
00011000
00000000
,
00011000
10000001
01000100
00011000
,
00000000
00100010
00011000
00000000
01000100
00000000
10000001
00000000
,
01011100
10100011
01000100
00100010
,
11001100
00100010
00010001
01000100
,
00100010
00000000
10011001
00000000
00000000
01000100
00000000
00010001
,
10001000
01100110
10001000
00010001
,
00000000
10001000
01000100
00010001
00000000
10001000
00000000
01000100
,
00010001
01000100
10001000
00000000
00100010
00000000
11001100
00000000
,
00100010
00000000
00010001
00000000
00000000
00010001
00000000
00010001
,
10001000
01000100
01010101
00010001
,
00110011
00100010
10101010
10001000
,
10001000
00100010
00000000
00100010
00010001
00000000
00010001
01000100
,
00000000
01000100
10001000
00000000
00000000
00000000
00000000
00000000
,
00000000
00000000
00000000
00000000
;

//---------------dance-couple - ----------------
#NOTES:
     dance-couple:
     :
     Hard:
     8:
     0.368226,0.493895,0.305240,0.000000,0.000000,228.000000,201.000000,27.000000,0.000000,0.000000,0.000000,0.368226,0.493895,0.305240,0.000000,0.000000,228.000000,201.000000,27.000000,0.000000,0.000000,0.000000:
00000000
00000000
00000000
00000000
,
00000000
00000000
00000000
00000000
,
00000000
00000000
00000000
00000000
,
00000000
00000000
00000000
00000000
,
00000000
00000000
00000000
00000000
,
00000000
00000000
00000000
00000000
,
00000000
00000000
00000000
00000000
,
00000000
00000000
00000000
00000000
,
00000000
00000000
00000000
00000000
,
10001000
00000000
00000000
00000000
00100010
01000100
00010001
00000000
,
00010001
00000000
00000000
00000000
00100010
01000100
10001000
00000000
,
10001000
00000000
00010001
00000000
00100010
01000100
00010001
00000000
,
00010001
00000000
10001000
00000000
00100010
01000100
10001000
00000000
,
10001000
01000100
00010001
00000000
00100010
01000100
00010001
00000000
,
00010001
01000100
10001000
00000000
00100010
01000100
10001000
00000000
,
10001000
00100010
00010001
00000000
00100010
01000100
00010001
00000000
,
00010001
00100010
10001000
00000000
00100010
01000100
10001000
00000000
,
00010000
00100000
01001000
00000000
10000000
00100000
00011000
00000000
,
00000000
00000000
00010001
01000000
10000000
00100000
00010001
00000000
,
00100000
10000100
01000000
00010100
,
00010000
01000000
10000010
00100000
00010000
00100000
10000010
00000000
,
00001000
00000010
10000100
00000000
00000001
00000010
10001000
00000000
,
00000000
00000000
00011000
00000100
00000001
00000010
00011000
00000000
,
00000010
01000001
00000100
01001000
,
00001000
00000100
00100001
00000010
00001000
00000010
00100001
00000000
,
01011100
00100010
01000100
10100011
,
01100110
00000000
00000000
00000000
00000000
00100010
01000100
00000000
,
10011001
00011000
00100010
11000101
,
00100010
01000100
00100010
10011001
,
11000101
00111010
01000100
10000001
,
10000001
00111010
10000001
00100010
,
01100110
00000000
00000000
00000000
00000000
10011001
00000000
00100010
,
00000000
10000001
00011000
00100010
01000100
00000000
01000100
00000000
,
00100000
00010000
01000000
10000100
,
00100000
00000000
00010000
00000000
01000000
00010000
00100010
00000000
,
00010000
01000000
10000000
00100001
,
00010000
00000000
01000000
00000000
10000000
01000000
00011000
00000000
,
00000100
00001000
00000010
01000001
,
00000100
00000000
00001000
00000000
00000010
00001000
00100100
00000000
,
00001000
00000010
00000001
00010100
,
00001000
00000000
00000010
00000000
00000001
00000010
10001000
00000000
,
00100010
00000000
00000000
00000000
,
10100011
00011000
01000100
01000100
,
00000000
00111010
00011000
00000000
01000100
00000000
00011000
00000000
,
01011100
10100011
00000000
00100010
,
10000001
01000100
00011000
00000000
10000001
00100010
00011000
00000000
,
00111010
00011000
10000001
00100010
01000100
10000001
01000100
00000000
,
00000000
10100011
10000001
00000000
01000100
00000000
10000001
00000000
,
01011100
10100011
01000100
00100010
,
01100110
00010001
11001100
00010001
,
00100010
00000000
00010001
00000000
00000000
01000100
00000000
00010001
,
10001000
10001000
00010001
00100010
,
00000000
10001000
01000100
00010001
00100010
10001000
00000000
00010001
,
01000100
00010001
00100010
00000000
01000100
00000000
10011001
00000000
,
00110011
00000000
10101010
00000000
00000000
00010001
00000000
00100010
,
10001000
00010001
01010101
00100010
,
00110011
10001000
10101010
01000100
,
10001000
00100010
00000000
01000100
10001000
00000000
00010001
01000100
,
00000000
00100010
00010001
00000000
00000000
00000000
00000000
00000000
,
00000000
00000000
00000000
00000000
;

//---------------dance-solo - ----------------
#NOTES:
     dance-solo:
     :
     Easy:
     8:
     0.327850,0.395116,0.135662,0.000000,0.000000,203.000000,191.000000,12.000000,0.000000,0.000000,0.000000,0.327850,0.395116,0.135662,0.000000,0.000000,203.000000,191.000000,12.000000,0.000000,0.000000,0.000000:
000000
000000
000000
000000
,
000000
000000
000000
000000
,
000000
000000
000000
000000
,
000000
000000
000000
000000
,
000000
000000
000000
000000
,
000000
000000
000000
000000
,
000000
000000
000000
000000
,
000000
000000
000000
000000
,
000000
000000
000000
000000
,
010000
000000
000100
000000
,
000010
000000
000100
000000
,
100000
000000
001000
000001
,
000001
000000
000100
100000
,
100000
000010
000100
000001
,
000001
010000
000100
100000
,
100000
000000
000001
000000
000100
001000
000001
000000
,
000010
000000
100000
000000
000100
001000
100000
000000
,
000010
001000
100000
001000
,
000000
000000
000001
001000
100000
000010
000000
000000
,
010000
100000
000001
000010
,
000000
000100
000000
000100
,
100000
001000
000001
001000
,
000000
000000
100000
001000
000001
010000
000000
000000
,
000010
000001
100000
010000
,
000000
000100
000000
000100
,
000001
001000
000001
100000
,
000010
000000
000000
000000
000000
000001
001000
000000
,
000100
000001
001000
100000
,
000010
001000
000100
100001
,
000100
001000
100001
001000
,
000001
000001
010000
000100
,
000110
000000
000000
000000
000000
100001
000000
000100
,
000000
100000
000001
010000
001000
000000
001000
000000
,
000100
000100
000001
000001
,
001000
000000
001000
000000
100000
000100
000001
000000
,
001000
001000
100000
100000
,
000010
000000
000010
000000
000001
001000
100000
000000
,
000100
000100
000001
000001
,
001000
000000
001000
000000
100000
000100
000010
000000
,
001000
001000
100000
100000
,
000010
000010
000001
000001
,
010000
000000
000000
000000
,
000010
100000
001000
000100
,
000000
010000
000001
000000
001000
000000
100000
000000
,
001100
100001
000000
000100
,
000010
001000
100000
000100
,
010000
000001
001000
000100
,
000000
000100
100000
000000
001000
000000
000001
000000
,
001100
100001
001000
000100
,
000001
001100
010000
000001
,
000100
000000
100010
000000
000000
001000
000000
100000
,
000001
001100
010000
001000
,
000000
000100
000000
010000
000000
000001
000000
001000
,
000010
001000
010000
000000
000100
000000
100000
000000
,
001000
000000
000100
000000
000000
000001
000000
001000
,
000100
000010
100000
001100
,
000001
010000
001000
100000
,
000100
000100
000000
000010
000010
000000
100000
100000
,
000000
001000
001000
000000
000000
000000
000000
000000
;

//---------------dance-solo - ----------------
#NOTES:
     dance-solo:
     :
     Medium:
     8:
     0.377916,0.460969,0.260019,0.000000,0.000000,234.000000,211.000000,23.000000,0.000000,0.000000,0.000000,0.377916,0.460969,0.260019,0.000000,0.000000,234.000000,211.000000,23.000000,0.000000,0.000000,0.000000:
000000
000000
000000
000000
,
000000
000000
000000
000000
,
000000
000000
000000
000000
,
000000
000000
000000
000000
,
000000
000000
000000
000000
,
000000
000000
000000
000000
,
000000
000000
000000
000000
,
000000
000000
000000
000000
,
000000
000000
000000
000000
,
100000
000000
000100
000010
,
000010
000000
000100
010000
,
010000
000001
000100
000010
,
000010
010000
000100
100000
,
100000
000000
000001
000000
000100
001000
000001
000000
,
000001
000000
010000
000000
000100
001000
100000
000000
,
100000
001000
000010
000000
000100
001000
000001
000000
,
000001
001000
010000
000000
000100
001000
100000
000000
,
000001
000000
001000
000000
100000
000100
000010
000000
,
000000
000000
000001
001000
100000
000100
000001
000000
,
010000
100000
001000
000001
,
010000
000010
001000
000100
,
100000
000000
001000
000000
000001
000100
010000
000000
,
000000
000000
100000
001000
000010
000100
100000
000000
,
000100
000001
001000
100000
,
000010
010000
001000
000100
,
001001
000100
001000
100010
,
001000
000000
000000
000000
000000
000001
000001
000000
,
010010
000001
001010
011000
,
000100
001000
000100
100001
,
011000
000101
001000
100000
,
011000
011000
000001
000100
,
010010
000000
000000
000000
000000
100001
000000
000100
,
000000
100000
000001
000100
001000
000000
001000
000000
,
010000
000001
001000
100000
,
000100
000000
000010
000000
001000
100000
000100
000000
,
000001
001000
100000
000010
,
000001
000000
010000
000000
100000
000100
000010
000000
,
001000
100000
000100
000001
,
001000
000000
100000
000000
000010
000001
001000
000000
,
100000
000100
000001
001000
,
100000
000000
000100
000000
000010
001000
100000
000000
,
000100
000000
000000
000000
,
000001
010000
001000
000001
,
000000
000100
000010
000000
001000
000000
100000
000000
,
011000
000101
000000
010000
,
000010
001000
100000
000000
000001
000100
100000
000000
,
100000
000001
001000
100000
,
000000
000100
100000
000000
001000
000000
000001
000000
,
011000
000101
001000
000100
,
101000
010000
000001
001000
,
000010
000000
100001
000000
000000
001000
000000
000001
,
100000
001100
100000
000010
,
000000
010000
001000
000001
000000
100000
000000
001000
,
000001
001000
100000
000000
000100
000000
011000
000000
,
000100
000000
000001
000000
000000
000010
000000
000010
,
100000
001000
001001
000010
,
000101
000100
010100
100000
,
100000
000100
000000
000010
000001
000000
000010
001000
,
000000
100000
010000
000000
000000
000000
000000
000000
;

//---------------dance-solo - ----------------
#NOTES:
     dance-solo:
     :
     Hard:
     10:
     0.415062,0.526821,0.305240,0.000000,0.000000,257.000000,230.000000,27.000000,0.000000,0.000000,0.000000,0.415062,0.526821,0.305240,0.000000,0.000000,257.000000,230.000000,27.000000,0.000000,0.000000,0.000000:
000000
000000
000000
000000
,
000000
000000
000000
000000
,
000000
000000
000000
000000
,
000000
000000
000000
000000
,
000000
000000
000000
000000
,
000000
000000
000000
000000
,
000000
000000
000000
000000
,
000000
000000
000000
000000
,
000000
000000
000000
000000
,
010000
000000
000000
000000
000100
001000
000010
000000
,
000001
000000
000000
000000
000100
001000
010000
000000
,
100000
000000
000001
000000
000100
001000
000001
000000
,
000010
000000
010000
000000
000100
001000
100000
000000
,
010000
001000
000010
000000
000100
001000
000001
000000
,
000010
001000
010000
000000
000100
001000
100000
000000
,
100000
000100
000010
000000
000100
001000
000001
000000
,
000001
000100
010000
000000
000100
001000
100000
000000
,
000010
000100
001000
000000
100000
000100
000001
000000
,
000000
000000
000001
001000
100000
000100
000010
000000
,
000100
100000
001000
000001
,
000001
001000
100000
000100
000010
000100
010000
000000
,
100000
000100
001000
000000
000001
000100
010000
000000
,
000000
000000
100000
001000
000001
000100
010000
000000
,
000100
000010
001000
100000
,
100000
001000
000001
000100
010000
000100
000010
000000
,
001001
000100
001000
100010
,
010001
000000
000000
000000
000000
000100
001000
000000
,
100001
000010
010000
101000
,
000100
000001
010000
100010
,
010100
100001
001000
100000
,
100000
000110
010000
000100
,
001100
000000
000000
000000
000000
100001
000000
000100
,
000000
010000
000001
000100
001000
000000
001000
000000
,
000100
000001
001000
100000
,
000100
000000
000001
000000
001000
000010
000100
000000
,
000001
001000
100000
000100
,
000010
000000
010000
000000
100000
001000
000001
000000
,
001000
100000
000100
000001
,
001000
000000
100000
000000
000100
010000
001000
000000
,
100000
000100
000010
001000
,
100000
000000
000100
000000
000001
000100
010000
000000
,
000100
000000
000000
000000
,
001001
100000
001000
001000
,
000000
010100
000010
000000
001000
000000
100000
000000
,
011000
000101
000000
010000
,
000001
001000
100000
000000
000001
000100
010000
000000
,
100100
010000
000001
000100
001000
000001
001000
100000
,
000000
000110
100000
000000
001000
000000
000001
000000
,
010100
000110
001000
000100
,
001100
000010
011000
000001
,
000100
000000
000010
000000
000000
001000
000000
000001
,
100000
100000
000010
000100
,
000000
100000
001000
000001
000100
010000
000000
000010
,
001000
000001
000100
000000
001000
000000
100001
000000
,
000101
000000
100100
000000
000000
000001
000000
000100
,
010000
000010
001001
000100
,
010010
100000
001100
000010
,
100000
000100
000000
010000
001000
000000
000001
001000
,
000000
000010
000100
000000
000000
000000
000000
000000
;

//---------------dance-single - ----------------
#NOTES:
     dance-single:
     :
     Challenge:
     15:
     0.752602,0.856085,0.768752,0.452207,0.418292,466.000000,398.000000,68.000000,40.000000,0.000000,0.000000,0.752602,0.856085,0.768752,0.452207,0.418292,466.000000,398.000000,68.000000,40.000000,0.000000,0.000000:
0000
0000
0000
0000
,
0000
0000
0000
0000
,
0000
0000
0000
0000
,
0000
0000
0000
0000
,
0000
0000
0000
0000
,
0000
0000
0000
0000
,
0010
0000
0010
0000
,
0010
0000
0010
0000
,
0010
0000
0000
1010
,
1001
0000
0100
0010
0100
0000
1001
0000
0000
0000
1000
0000
0001
0000
0100
0000
,
0110
0000
0010
1000
0010
0000
0110
0000
0000
0000
0100
0000
0001
0000
1000
0000
,
0001
0000
1000
0100
1000
0000
0001
0100
0001
0000
0010
0000
0100
0000
1000
0000
,
0010
0000
1000
0100
1000
0000
0001
0100
0001
0000
0010
0000
0100
0000
1000
0000
,
0001
0000
0100
0010
1000
0000
0100
0010
0001
0000
1000
0000
0010
0000
0100
0000
,
0010
0000
0100
0001
1000
0000
0100
0010
0001
0000
1000
0000
0010
0000
0100
0000
,
0001
0000
1000
0100
1000
0000
0010
0100
0010
0000
1000
0000
0001
0000
0100
0000
,
0101
1010
0000
0100
0110
0110
1001
1001
,
1010
0000
1000
0100
1000
0000
0001
0100
0001
0000
0010
0100
0010
0000
0100
0000
,
0000
0002
0203
0320
2030
0100
3001
0000
,
0010
0000
1000
0001
1000
0000
0100
0001
0100
0000
0010
0001
0010
0000
0100
0000
,
0000
0002
2003
3020
0230
0010
0301
0000
,
0011
0000
0001
1000
0100
0000
1000
0010
0100
0000
0010
0100
0001
0000
1000
0000
,
0000
2000
3020
0230
0302
0010
0103
0000
,
0010
0000
1000
0100
1000
0000
0001
0100
0001
0000
0100
0010
0100
0000
0001
0000
,
1000
0100
0010
0001
1000
0010
0100
0001
,
1010
0000
0101
0000
1100
0000
0011
0100
,
1001
0100
0010
2010
0000
0001
3001
0000
,
0101
0000
0100
0010
1000
0000
0000
0000
0001
0000
1001
0000
0000
0000
1010
0000
,
2100
3001
1000
0102
0000
0023
0032
0203
,
0320
0000
1030
0010
0100
0000
0000
0000
0000
0000
1100
0000
1001
0000
0201
0000
,
0000
0010
0310
0000
1000
0100
0001
0000
,
1100
0000
1000
0001
0100
0000
0000
0000
0010
0000
1010
0000
0000
0000
0110
0000
,
1000
0100
0010
0001
1000
0010
0100
0002
2000
0000
0003
0000
3001
0000
0000
0000
,
1001
0000
0000
1000
0100
0000
0000
0100
0001
0000
0000
0001
0010
0000
0000
0010
,
1000
0000
0000
1000
0100
0000
0000
0100
0010
0000
0010
0000
0010
0000
0000
0000
,
1001
0000
0000
0001
0100
0000
0000
0100
1000
0000
0000
1000
0010
0000
0000
0010
,
0001
0000
0000
0001
0010
0000
0000
0010
0100
0000
0100
0000
1000
0000
1000
0000
,
1100
0000
0000
0100
1000
0000
0000
1000
0010
0000
0000
0010
0001
0000
0000
0001
,
0100
0000
0000
0100
0010
0000
0000
0010
1000
0000
1000
0000
1000
0000
0000
0000
,
0011
0000
0000
0010
1000
0000
0000
1000
0100
0000
0000
0100
0001
0000
0000
0001
,
0010
0000
0000
0010
0001
0000
0000
0001
0100
0000
0010
0000
1000
0000
0000
0000
,
0020
0000
0200
0330
,
1020
0100
0030
2001
0001
3100
1000
0000
,
0010
0210
0302
0000
0103
0010
1000
0001
,
1020
1000
0030
0210
0300
0102
1003
0000
,
0010
2001
3100
0000
1000
0100
0010
0001
,
0012
1000
0103
2001
3000
1200
1300
0000
,
0010
1020
0130
0000
0010
1000
0001
0100
,
0001
0010
0100
1000
0011
0000
0101
0000
,
1001
0000
1000
0100
0010
0000
0100
0010
0001
0000
0010
0001
1000
0000
0001
1000
,
0100
0000
1000
0001
0010
0000
0100
0010
1000
0000
1100
0000
0000
0000
0011
0000
,
1001
0000
0010
1000
0100
0000
0010
0001
0100
0000
0010
1000
0001
0000
0100
0001
,
1000
1100
1000
1010
0010
0110
0100
0001
,
1000
0000
1100
0000
0101
0000
0100
0010
1000
0000
0100
0010
0001
0000
1000
0001
,
0100
0000
0010
1000
0001
0000
0010
0100
1000
0000
0011
0000
0000
0000
1010
0000
,
0110
0000
0100
0001
0010
0000
0100
1000
0001
0000
0100
0010
1000
0000
0010
1000
,
0001
2000
3200
0320
0031
1002
1003
0000
,
1100
0101
0000
0011
1010
0000
0011
1010
,
0000
1100
0101
0000
0000
0000
0000
0000
;

//---------------dance-double - ----------------
#NOTES:
     dance-double:
     :
     Challenge:
     15:
     0.797823,0.921938,0.859194,0.384376,0.503081,494.000000,418.000000,76.000000,34.000000,0.000000,0.000000,0.797823,0.921938,0.859194,0.384376,0.503081,494.000000,418.000000,76.000000,34.000000,0.000000,0.000000:
00000000
00000000
00000000
00000000
,
00000000
00000000
00000000
00000000
,
00000000
00000000
00000000
00000000
,
00000000
00000000
00000000
00000000
,
00000000
00000000
00000000
00000000
,
00000000
00000000
00000000
00000000
,
00100000
00000000
00000010
00000000
,
00100000
00000000
00000010
00000000
,
00100000
00000000
00000000
00000010
,
00100010
00000000
00010000
00000000
00001000
00000000
00101000
00000000
00000000
00000000
00100000
01000000
10000000
00000000
00010000
00000000
,
01010000
00000000
01000000
00000000
00010000
00000000
00001100
00000000
00000000
00000000
00001000
00000010
00000100
00000000
00000001
00000000
,
00000100
00000000
00000010
00001000
00000010
00000000
00010000
00000100
00010000
00000000
00001000
00000000
00000100
00000010
00000001
00000000
,
00000110
00000000
00000010
00000100
00001000
00000000
00110000
00000000
01000000
00100000
20000000
00000000
30020000
00000000
02030000
00000000
,
03001000
00000000
01000000
00100000
00010000
00000000
00100000
00001000
00010000
00000000
00100000
00000000
01000000
00000000
10000000
00000000
,
01000000
00000000
00100000
01000000
00100000
00000000
01000000
00010000
00100000
00000000
00010000
00000100
00000010
00000000
00001000
00000000
,
00000001
00000000
00000100
00000001
00001000
00000000
00000010
00001000
00000100
00000000
00010000
00001000
00010000
00000000
01000000
00000000
,
00110000
00001100
00000010
00001002
00000000
00000203
00002300
00003001
,
00010010
00000000
00000100
00001000
00000001
00000000
00000010
00000100
00001000
00000000
01000000
00100000
01000000
00000000
00010000
00000000
,
00000000
11000000
01100000
00110000
00001100
00000110
00000011
00000000
,
00000100
00000000
00000001
00001000
00000100
00000000
00010000
00001000
00000100
00000000
00000001
00001000
00000100
00000000
00101000
00000000
,
00000000
00000000
00010000
00100000
00001000
00000000
00010000
10000000
00100000
00000000
10000000
00100000
00010000
00000000
01000000
00000000
,
01100000
00000000
00001000
01000000
00100000
00000000
01000000
00100000
10000000
00000000
00010000
00100000
00000100
00000000
00001000
00000000
,
00000000
00000011
00000110
00001100
00110000
01100000
11000000
00000000
,
00010000
00000000
01000000
00100000
10000000
00000000
01000000
00100000
00010000
00000000
01000000
00100000
10000000
00000000
00010000
00000000
,
10000000
01000000
10000000
01000000
00100000
00010000
00100000
00010000
00100000
00001000
00100000
00001000
00010000
00000100
00010000
00000100
,
00002000
00000000
00023000
00000000
00032000
00000000
00023000
00030100
,
00011000
01000000
00100000
20100000
00000000
30010000
01001000
00100000
,
10000000
00000000
00010000
00000000
00100000
01100000
00000000
00010000
,
00110000
00100000
00001000
00000120
00000000
00000230
00000320
00002030
,
00003002
00000000
00000100
00000000
00001003
00000110
00001100
01010000
,
00000000
00000000
00012000
00000000
00103000
00000000
00000000
00000000
00010000
00100000
01000000
00000000
10000000
00000000
11000000
00000000
,
10020000
00000000
00130000
00000000
00010000
02000000
03200000
20300000
,
31000000
00100000
01000000
00100000
00010000
00001000
00010000
00001000
00000100
00000000
00000000
00000000
00000100
00000000
00000000
00000000
,
00001001
00000000
00000000
00001000
00000100
00000000
00000000
00000100
00010000
00000000
00000000
00010000
00000100
00000000
00000000
00000100
,
00010000
00000000
00000000
00010000
00001000
00000000
01000000
00000000
00100000
01000000
00100000
00000000
10000000
00000000
00000000
00000000
,
10010000
00000000
00000000
00010000
00100000
00000000
00000000
00100000
00001000
00000000
00000000
00001000
00100000
00000000
00000000
00100000
,
00010000
00000000
00000000
00010000
00100000
00000000
01000000
00000000
10000000
01000000
00100000
00000000
00010000
00001000
00000010
00000000
,
00001001
00000000
00000000
00000010
00000100
00000000
00000000
00000100
00001000
00000000
00000000
00001000
00000010
00000000
00000000
00000010
,
00010000
00000000
00000000
00010000
00000100
00000000
00000010
00000000
00000001
00001000
00000001
00000000
00000100
00000000
00000000
00000000
,
00011000
00000000
00000000
00100000
01000000
00000000
00000000
01000000
10000000
00000000
00000000
10000000
00100000
00000000
00000000
00100000
,
10000000
01000000
00100000
00010000
01000000
00100000
10000000
00000000
,
00220000
00030000
00000200
00300300
,
00011000
00010000
00001000
00001100
00000000
00000001
00001000
00000100
,
00000000
00000000
00102000
00000000
00013000
00000000
00000000
00000000
00100000
01000000
00100000
00000000
01000000
00100000
00010000
00000000
,
00012000
00103000
00000000
00110000
00000000
00001200
00000310
00000000
,
00000100
00000000
00000120
00000000
00001030
00000000
00000000
00000000
00000100
00010000
00001000
00000000
00010000
00000000
00000000
00000000
,
01010000
01000000
00100000
10100000
00000000
21000000
30010000
00000000
,
00100000
00000000
00102000
00000000
00013000
00000000
00000000
00000000
00010000
00001000
00100000
00000000
00001000
00000000
00000000
00000000
,
00011000
00100000
01000000
11000000
00010000
00000000
00010000
00000000
,
00000110
00000000
00000010
00000100
00000001
00000000
00000010
00000100
00001000
00000000
00100000
00001000
00100000
00000000
00010000
01000000
,
00010000
00000000
00100000
01000000
10000000
00000000
00100000
01000000
00100000
00000000
10010000
00000000
00000000
00000000
11000000
00000000
,
01010000
00000000
00100000
00010000
00001000
00000000
00010000
00001000
00000100
00000000
00000010
00000100
00001000
00000000
00000100
00001000
,
00010000
00110000
00100000
01100000
10000000
11000000
00010000
01010000
,
00100000
00000000
01100000
00000000
00011000
00000000
00000100
00000010
00000001
00000000
00001000
00000100
00100000
00000000
00010000
00100000
,
01000000
00000000
10000000
00100000
01000000
00000000
00010000
10000000
01000000
00000000
10010000
00000000
00000000
00000000
00110000
00000000
,
00001100
00000000
00010000
00100000
01000000
00000000
10000000
00100000
10000000
00000000
00010000
00100000
01000000
00000000
10000000
00100000
,
01000000
00200000
20300000
30020000
01030000
00210000
00301000
00000000
,
00011000
10100000
00000000
00011000
00000011
00000000
00011000
00000101
,
00000000
00011000
11000000
00000000
00000000
00000000
00000000
00000000
;

//---------------dance-solo - ----------------
#NOTES:
     dance-solo:
     :
     Challenge:
     16:
     0.875344,0.954864,0.881804,0.384376,0.638743,542.000000,464.000000,78.000000,34.000000,0.000000,0.000000,0.875344,0.954864,0.881804,0.384376,0.638743,542.000000,464.000000,78.000000,34.000000,0.000000,0.000000:
000000
000000
000000
000000
,
000000
000000
000000
000000
,
000000
000000
000000
000000
,
000000
000000
000000
000000
,
000000
000000
000000
000000
,
000000
000000
000000
000000
,
100000
000000
010000
000000
,
001000
000000
000100
000000
,
000010
000000
000000
000001
,
010010
000000
000100
000000
100000
000000
000100
001000
000001
001000
000010
000000
010000
000100
001000
000000
,
001010
000000
000001
000000
100000
000000
001000
100000
000001
000100
000001
000000
001000
000010
010000
000000
,
011000
000000
001000
100000
000001
000000
000100
000010
100000
000100
010000
000000
000001
001000
000100
000000
,
010100
000010
100000
200001
000000
300200
002300
003002
,
000103
000000
000010
100000
010000
000000
100000
000100
001000
000000
000001
000100
000010
010000
001000
000000
,
200000
300100
001000
001010
000001
000011
010000
011000
,
100100
000000
000100
100000
001000
000000
000100
000001
100000
000001
000100
000000
000010
010000
000010
010000
,
000200
002300
003000
000002
000023
000032
200003
320000
,
130000
000000
000010
010000
001000
000000
010000
000010
001000
000000
000001
000100
000001
000000
010000
000000
,
000000
110000
011000
001100
000110
000011
100000
000001
,
000100
000001
000010
000000
000100
000010
100000
000000
010000
100000
000100
000000
010000
001000
100000
000000
,
000000
000000
000010
010000
000010
000000
000100
001000
100000
000000
000001
010000
000010
000000
001000
000000
,
000001
000000
100000
000100
010000
000000
000010
001000
000100
000000
100000
000001
100000
000000
001000
000000
,
000000
110000
011000
001100
000110
000011
001000
000100
,
100000
000010
100000
000000
000100
001000
000100
000000
010000
000001
010000
000000
000010
001000
000001
000000
,
000100
000001
000100
000001
010000
000010
010000
000010
100000
001000
100000
001000
010000
000100
010000
000100
,
001000
000000
001100
000000
100001
000000
001100
000010
,
100100
000000
000001
000000
100000
000000
020100
000000
000000
000000
030010
000000
010000
001000
000100
000000
,
000101
000000
000001
100000
001000
000000
100000
000100
001000
000000
001010
000000
000001
000000
100000
000000
,
101000
100000
000100
002100
000000
003002
200003
300010
,
000110
000000
000100
000001
100000
000000
001000
010000
000010
000000
000200
000000
000302
000000
200003
000000
,
300100
000000
020010
000000
030001
000000
100000
001000
010000
000000
000010
000000
001000
000001
000100
000000
,
000110
000000
000001
100000
000010
000000
000100
001000
010000
000000
011000
000000
000010
001000
000100
000000
,
100000
001000
100000
001000
000100
000001
000100
000001
010000
000000
000000
000000
000010
000000
000000
000000
,
100001
000000
000000
100000
010000
000000
000000
010000
001000
000000
000000
001000
000001
000000
000000
000001
,
000010
000000
000000
000010
000100
000000
010000
000000
011000
000000
011000
000000
011000
000000
000000
000000
,
100001
000000
000000
000001
000010
000000
000000
000010
000100
000000
000000
000100
100000
000000
000000
100000
,
010000
000000
000000
010000
001000
000000
000010
000000
000110
000000
000110
000000
001010
000000
001010
000000
,
100001
000000
000000
100000
010000
000000
000000
010000
000100
000000
000000
000100
000001
000000
000000
000001
,
000010
000000
000000
000010
001000
000000
000001
000000
000011
000000
000011
000000
000011
000000
000000
000000
,
100001
000000
000000
000001
000010
000000
000000
000010
001000
000000
000000
001000
100000
000000
000000
100000
,
010000
000000
000100
001000
000100
000000
001000
000100
001000
000000
000001
100000
000001
000100
000010
010000
,
000020
000000
020000
030030
,
100100
000100
100000
001002
000000
000010
000010
000013
,
100000
000000
000210
000000
001300
000000
000100
000001
100000
000000
000010
000000
010000
001000
100000
000000
,
201000
000100
300100
020100
030010
000210
000301
000000
,
010001
000000
000100
100000
000100
000000
100000
000100
100000
000000
000100
100000
000100
000000
001000
000000
,
001100
000100
100000
201000
000000
000001
000001
300001
,
100000
000000
002010
000000
013000
000000
000001
000100
000001
000000
010000
000010
010000
000000
001000
000000
,
100000
000100
001000
000001
100000
001000
000100
000001
020000
000000
000000
000000
030010
000000
000000
000000
,
001100
000000
000100
100000
001000
000000
000100
000010
010000
000000
000100
001000
000001
000000
000010
000001
,
001000
000000
000010
010000
001000
000000
100000
000100
001000
000000
001001
000000
000000
000000
100100
000000
,
011000
000000
100000
000100
001000
000000
000010
010000
001000
000000
000100
000010
100000
000001
001000
000100
,
100000
110000
000100
010100
000010
001010
000001
000011
,
010000
000000
001100
000000
010010
000000
001000
100000
000010
000000
000100
001000
010000
000000
000001
001000
,
000010
000000
000100
001000
100000
000000
000010
100000
001000
000000
011000
000000
000000
000000
000101
000000
,
100010
000000
100000
010000
001000
000000
010000
000001
000100
000000
000010
001000
000100
000000
100000
000001
,
000100
000002
200003
300200
001300
001020
010030
000000
,
011000
001010
000000
101000
001001
000000
010100
000110
,
000000
100100
000101
000000
000000
000000
000000
000000
;

//---------------dance-solo - ----------------
#NOTES:
     dance-solo:
     :
     Beginner:
     3:
     0.159888,0.230484,0.124357,0.169578,0.000000,99.000000,88.000000,11.000000,15.000000,0.000000,0.000000,0.159888,0.230484,0.124357,0.169578,0.000000,99.000000,88.000000,11.000000,15.000000,0.000000,0.000000:
// measure 0
000000
000000
000000
000000
,  // measure 1
000000
000000
000000
000000
,  // measure 2
000000
000000
000000
000000
,  // measure 3
000000
000000
000000
000000
,  // measure 4
000000
000000
000000
000000
,  // measure 5
000000
000000
000000
000000
,  // measure 6
010000
000000
010000
000000
,  // measure 7
000010
000000
000010
000000
,  // measure 8
001000
000000
000000
000000
,  // measure 9
010010
000000
000000
000000
,  // measure 10
010000
000000
000000
000000
,  // measure 11
000010
000000
000010
000000
,  // measure 12
001000
000000
001000
000000
,  // measure 13
000010
000010
000010
000000
,  // measure 14
010000
010000
010000
000000
,  // measure 15
001000
001000
001000
000000
,  // measure 16
010000
000000
010010
000000
,  // measure 17
000010
000010
000000
000000
,  // measure 18
001000
001000
001000
000000
,  // measure 19
000010
000000
010000
000000
,  // measure 20
000010
000000
010000
000000
,  // measure 21
001000
001000
000000
000000
,  // measure 22
010000
010000
010000
000000
,  // measure 23
000010
000000
010000
000000
,  // measure 24
000010
000000
010000
000000
,  // measure 25
001000
001000
001000
001000
,  // measure 26
001000
000000
000000
000000
,  // measure 27
010010
000000
000000
000000
,  // measure 28
010000
000000
000010
000000
,  // measure 29
010010
000000
000000
000000
,  // measure 30
000010
000010
000000
000000
,  // measure 31
010010
000000
000000
000000
,  // measure 32
001000
001000
001000
000000
,  // measure 33
020020
000000
000000
030030
,  // measure 34
000000
000000
010000
000000
,  // measure 35
020020
000000
000000
030030
,  // measure 36
000000
000000
000010
000000
,  // measure 37
020020
000000
000000
030030
,  // measure 38
000000
000000
010000
000000
,  // measure 39
020020
000000
000000
030030
,  // measure 40
000000
000000
000000
000000
,  // measure 41
002000
000000
003000
000000
,  // measure 42
010000
000000
000010
000000
,  // measure 43
010000
000000
000000
000000
,  // measure 44
001000
000000
010000
000000
,  // measure 45
000010
000000
000000
000000
,  // measure 46
001000
000000
000010
000000
,  // measure 47
010000
000000
000000
000000
,  // measure 48
000010
000000
001000
000000
,  // measure 49
020020
000000
000000
000000
,  // measure 50
000000
030030
000000
000010
,  // measure 51
000020
000000
000000
000030
,  // measure 52
000000
010000
000000
000010
,  // measure 53
000000
020020
000000
000000
,  // measure 54
000000
030030
000000
010000
,  // measure 55
020000
000000
000000
030000
,  // measure 56
000000
001000
000000
000000
,  // measure 57
010000
010000
010000
000000
,  // measure 58
000010
000010
000000
000000
;
