#TITLE:TRIP MACHINE EVOLUTION;
#SUBTITLE:;
#ARTIST:DE-JAVU;
#TITLETRANSLIT:;
#SUBTITLETRANSLIT:;
#ARTISTTRANSLIT:;
#GENRE:;
#CREDIT:;
#BANNER:TRIP MACHINE EVOLUTION-bn.png;
#BACKGROUND:TRIP MACHINE EVOLUTION-bg.png;
#LYRICSPATH:;
#CDTITLE:;
#MUSIC:TRIP MACHINE EVOLUTION.ogg;
#OFFSET:0.000000;
#SAMPLESTART:43.599998;
#SAMPLELENGTH:20.000000;
#SELECTABLE:YES;
#DISPLAYBPM:95.000000:380.000000;
#BPMS:0.000000=95.000000
,19.000000=190.000000
,84.000000=95.000000
,100.000000=380.000000
,292.000000=95.000000
,294.000000=380.000000
;
#STOPS:19.000000=0.950000
;
#BGCHANGES:0.000=TRIP MACHINE EVOLUTION.avi=1.000=0=0=0=StretchNoLoop====,
99999=-nosongbg-=1.000=0=0=0 // don't automatically add -songbackground-
;
#KEYSOUNDS:;
#ATTACKS:;

//---------------dance-single - ----------------
#NOTES:
     dance-single:
     :
     Hard:
     15:
     0.921731,1.844688,1.039399,0.039223,0.269655,658.000000,552.000000,106.000000,4.000000,0.000000,0.000000,0.921731,1.844688,1.039399,0.039223,0.269655,658.000000,552.000000,106.000000,4.000000,0.000000,0.000000:
0000
0000
0000
0000
,
0000
0000
0000
0000
,
0000
0000
0000
0000
,
0000
0000
0000
0000
0010
1000
0100
1000
0010
1000
0001
0000
0100
0010
0100
0001
,
1000
0010
0100
0000
0001
0010
0001
0100
0010
1000
0100
2000
0002
0000
3000
0000
,
1003
0010
1000
0100
1000
0010
0100
0001
,
0010
0000
0101
0000
1000
0010
1100
0000
,
0001
0010
0001
0100
1000
0010
1000
0001
,
0100
0000
0000
0000
0010
0000
1000
0000
0001
0010
0001
0010
0001
0000
0100
0000
,
1001
0000
0010
1000
0001
0010
0100
1000
,
0001
0000
0110
1000
0010
1000
0100
0001
,
0010
0000
0100
0000
1000
0000
0010
0000
1000
0001
1000
0001
1000
0000
0100
0000
,
0010
0000
0000
0000
0001
0000
0100
0000
1000
0001
1000
0001
1000
0000
0010
0000
,
0101
0000
1000
0001
0010
0100
1000
0010
,
0001
0000
0000
0000
0100
0000
0010
0000
1000
0000
0001
0100
0001
0000
1000
0000
,
0010
0000
0100
0000
0001
0000
0010
0000
1000
0100
1000
0100
1000
0000
0001
0000
,
0100
0000
0000
0000
0001
0000
0010
0000
1000
0001
1000
0001
1000
0000
0100
0000
,
1010
0000
0000
0000
0001
0000
1000
0000
0010
0100
0010
0100
0010
0000
1000
0000
,
0001
0000
0000
0000
0010
0000
0001
0000
1000
0010
1000
0010
1000
0000
0100
0000
,
0010
0000
0001
0000
0100
0000
0001
0000
1000
0100
1000
0100
1000
0000
0010
0000
,
0100
0000
0001
0000
0010
0000
0100
1000
0100
0000
1000
0001
1000
0000
0010
0000
,
0110
0001
0000
0101
0010
0000
1010
0100
0000
0011
1000
0100
0010
1000
0010
0001
,
1100
0010
0000
0101
1000
0000
0110
0001
2000
0000
3010
0100
0001
1000
1000
1000
,
0011
0100
0000
1001
0010
0000
0101
1000
0000
1100
0001
0010
1000
0010
0001
0100
,
1001
0010
0000
1010
0001
0000
1100
0010
0002
0000
0000
0000
1003
0000
0100
0000
,
1001
0000
0110
0000
,
1000
0010
1000
0100
,
0001
0010
1000
0001
,
1000
0010
0100
0001
,
0010
0011
0011
0000
,
1000
0001
0100
0000
0010
0000
0100
0000
,
0001
0010
1000
0001
,
1000
0100
0010
0000
0001
0000
1000
0000
,
1100
0000
0101
0000
,
0010
0100
0001
0010
,
1000
0001
0010
0100
,
1000
0010
0100
0001
,
1000
1100
1100
0000
,
0010
0001
0100
0000
0001
0000
1000
0000
,
0010
0100
0010
1000
,
0001
0010
0100
0010
0001
0000
1000
0000
,
0101
0000
1010
0000
,
0001
0010
1000
0100
,
0010
0001
0100
0001
,
1000
0001
0010
0000
0100
0000
1000
0000
,
0001
0101
0101
0000
,
0010
1000
0001
0000
0010
0100
1000
0000
,
0001
0100
0010
1000
,
0100
0010
0100
0000
1000
0001
0100
0000
,
0110
0000
1001
0000
,
0010
1000
0100
0001
,
0010
0001
1000
0100
,
1000
0010
1000
0000
0001
0100
0001
0000
,
1000
1010
1010
0000
,
0100
0001
0010
0000
0001
1000
0100
0000
,
0010
0001
1000
0010
,
1000
0100
0010
0100
1000
0000
0001
0000
,
0011
0110
1100
0110
,
0011
0000
1100
0110
,
0011
0110
1100
0000
,
0001
0100
0001
0000
1000
0000
0010
0000
,
1010
1001
0101
1001
,
1010
0000
0101
1001
,
1010
1001
0101
0000
,
0001
0010
0100
0010
0001
0100
0010
0000
,
1010
1001
0011
1001
,
1010
0000
0101
1001
,
1100
1001
0101
0000
,
0010
0000
1000
0000
0100
0010
0001
0000
,
0011
0110
1010
0110
,
0011
0000
1100
0110
,
0101
0110
1100
0000
,
0001
0010
0100
1000
0010
0100
0001
1000
,
0000
1100
0000
0101
0000
1100
1001
0000
0010
0000
0000
0000
0000
0000
0000
0000
,
0110
0000
0000
0000
1000
0001
1000
0100
,
0010
0001
0100
0000
,
0010
1000
0100
0001
,
0010
0001
1000
0010
,
0001
1000
0100
0001
,
0010
0000
1000
1100
,
0001
0101
0010
1010
,
0100
0101
1001
0010
,
1000
0100
0010
0001
,
0100
0010
1000
0001
0100
0000
0110
0000
,
0000
0010
1000
0001
,
1000
0100
0010
0001
,
0100
1000
0001
0010
,
0100
0000
1000
1010
,
0100
0000
0101
0000
0001
0010
0100
0000
,
1000
0010
1000
0001
0100
0000
0010
0000
,
1001
0000
0100
0000
0001
0010
0100
0000
,
1000
0010
1000
0001
0100
0000
0110
0000
,
0000
0000
0010
0000
1000
0000
0001
0010
,
0001
0100
0010
1000
,
0101
0001
0010
1100
,
0001
0000
0100
0010
0100
0000
1010
0000
,
0001
0000
0011
0000
0100
0000
1000
0001
,
1000
0010
0101
0000
,
0001
0000
0010
0000
1000
0000
0001
0100
,
0010
1000
1100
0010
,
0001
0000
0010
0000
0100
0000
1000
0001
,
1000
0100
0110
0001
,
1000
0010
1001
1001
,
0100
0001
1000
0010
,
1000
0000
0001
0000
1000
0100
1000
0100
,
1000
0000
0001
0100
0010
0000
1010
0000
,
0101
0000
0011
0110
,
1100
0000
1001
0000
;

//---------------dance-single - ----------------
#NOTES:
     dance-single:
     :
     Medium:
     12:
     0.630363,1.264929,0.353003,0.039223,0.132376,450.000000,414.000000,36.000000,4.000000,0.000000,0.000000,0.630363,1.264929,0.353003,0.039223,0.132376,450.000000,414.000000,36.000000,4.000000,0.000000,0.000000:
0000
0000
0000
0000
,
0000
0000
0000
0000
,
0000
0000
0000
0000
,
0000
0000
0000
0000
0010
0000
1000
0100
0010
0000
0001
1000
0100
0000
0100
0000
,
1001
0000
0110
0000
1000
0000
0010
1000
0100
0000
0010
0002
2000
0000
0003
0000
,
3001
0000
0011
0000
0000
1000
0010
1000
,
0100
0000
1100
0000
0001
0010
1000
0000
,
0010
0000
0101
0000
1000
0010
1000
0001
,
0100
0000
0010
1000
0000
0100
1000
0001
,
0100
0000
0001
1000
0010
0000
1010
0000
,
0011
0000
0100
1000
0010
1000
0001
0000
,
0100
0001
0000
0010
0001
0000
1000
0100
,
0010
0000
1001
0000
0001
0100
0010
1000
,
0100
0000
0010
0001
1000
0001
0100
0000
,
0001
0000
1010
0000
0001
1000
0010
0100
,
0010
0000
1000
0100
0001
0010
0001
1000
,
0100
0000
1100
0000
0001
1000
0010
0100
,
0001
0000
0010
0001
1000
0010
0100
0000
,
0110
0000
0101
0000
0001
0010
1000
0100
,
0010
0001
0000
1000
0001
0000
0100
0010
,
1000
0100
0001
0000
1010
0000
0010
0001
,
1000
0100
0000
0100
0001
0000
1000
0010
0000
0100
0000
0001
0010
0100
1000
0000
,
0001
0100
0000
0010
1000
0000
0100
0010
0002
0000
1000
0000
0103
0010
0100
0010
,
1000
0100
0000
0100
0001
0000
0010
0100
0000
1000
0000
0001
1000
0010
0100
0000
,
0001
0010
0000
0100
1000
0000
0001
1000
0020
0000
0000
0000
1030
0000
0100
0000
,
1001
0000
0110
0000
,
0001
1000
0000
0010
,
0000
1000
0000
0100
,
0010
0001
0100
0001
,
0000
1000
1000
0000
,
0001
0100
0000
0010
,
0000
0100
0000
0001
,
0010
0100
1000
0001
,
0101
0000
1100
0000
,
1000
0001
0000
0010
,
0000
0100
0000
0010
,
0001
0100
0001
1000
,
0000
0010
0010
0000
,
1000
0100
0000
1000
,
0000
0010
0000
0100
,
0000
0001
0010
1000
,
1010
0000
0101
0000
,
0001
0010
0001
1000
,
0000
0010
0000
1000
,
0100
0010
0001
0100
,
0000
0001
0001
0000
,
0010
0100
0010
0001
,
0000
1000
0000
0010
,
1000
0100
0010
0001
,
0011
0000
1100
0000
,
0100
1000
0010
0100
,
0000
0001
0000
0010
,
0001
0100
0001
1000
,
0000
0100
0100
0000
,
0010
0001
1000
0001
,
0000
0100
0000
0010
,
0000
1000
0100
0001
,
1000
1000
1000
1000
,
1000
0000
0001
0001
,
0001
0001
0001
0000
,
1000
0010
0100
0001
,
0010
0010
0010
0010
,
0010
0000
0100
0100
,
0100
0100
0100
0000
,
1000
0001
1000
0100
,
0010
0010
0010
0010
,
0010
0000
0001
0001
,
0001
0001
0001
0000
,
0100
0001
0010
0001
,
1000
1000
1000
1000
,
1000
0000
0100
0100
,
0100
0100
0100
0000
,
1000
0010
1000
0001
,
0000
1100
0000
0101
0000
1000
0001
0000
0011
0000
0000
0000
0000
0000
0000
0000
,
1100
0000
0001
0010
,
1000
0001
0100
0000
,
0000
0010
1000
0001
,
1000
0100
0010
0001
,
0100
0010
0000
1000
,
0001
0000
0000
0011
,
0000
1100
0000
0101
,
0000
1000
0001
0000
,
1001
0000
0010
1000
,
0100
0010
0001
1000
,
0000
0001
0010
0100
,
0010
0001
1000
0010
,
1000
0001
0000
1000
,
0100
0000
0000
0110
,
0000
0001
1000
0010
,
1000
0001
0100
0000
,
1010
0001
1000
0100
,
0010
0001
0100
0010
,
0000
1000
0100
0010
,
0100
1000
0001
0100
,
0001
0010
0001
0100
,
1000
0000
0000
1100
,
0000
0001
0010
0100
,
0010
0001
1001
0000
,
0000
1000
0010
0100
,
0010
1000
0000
0001
,
0010
0001
1000
0100
,
0010
0001
0100
0010
,
1000
0001
1000
0100
,
0010
0001
0100
0010
,
0100
0010
0100
0010
,
1000
0001
0010
0001
,
0110
0000
1000
0001
,
0101
0000
1001
0000
;

//---------------dance-single - ----------------
#NOTES:
     dance-single:
     :
     Easy:
     9:
     0.491683,0.895991,0.431449,0.039223,0.063737,351.000000,307.000000,44.000000,4.000000,0.000000,0.000000,0.491683,0.895991,0.431449,0.039223,0.063737,351.000000,307.000000,44.000000,4.000000,0.000000,0.000000:
0000
0000
0000
0000
,
0000
0000
0000
0000
,
0000
0000
0000
0000
,
0000
0000
0010
0000
1000
0001
1000
0010
,
0100
0001
0010
0000
0001
0100
1000
0000
,
0010
1000
0010
0100
,
0001
0000
0010
0000
0000
0001
1000
0000
,
0001
0000
0010
0001
,
1000
0000
0010
0000
1000
0100
1000
0000
,
1001
0000
0010
0100
,
0001
0000
0010
0000
0001
1000
0001
0000
,
1000
0000
0100
0001
,
1000
0000
0010
0000
1000
0001
1000
0000
,
0110
0000
1000
0000
0010
0100
0010
0000
,
1000
0000
0100
0000
0000
0010
0001
0000
,
0100
0000
0001
0000
1000
0010
1000
0000
,
0001
0000
0010
0000
0001
0100
0001
0000
,
1001
0000
0000
0000
0010
1000
0010
0000
,
0100
0000
0001
0000
0010
0001
0010
0000
,
1000
0000
0100
0000
1000
0001
1000
0000
,
0010
0100
0010
0000
0110
0000
1000
0001
,
1000
0000
0000
0010
0000
0000
1000
0000
0000
0001
0000
0010
0001
0000
0100
0000
,
0001
0000
0000
0010
0000
0000
1000
0000
0202
0000
0000
0300
0000
1003
0001
1000
,
0001
0000
0000
0010
0000
0000
0001
0000
0000
0100
0000
0010
1000
0000
0001
0000
,
1000
0000
0000
0100
0000
0000
0001
0000
2020
0000
0030
0000
0001
0000
3001
0000
,
1001
0000
0110
0000
,
0000
1000
0000
0001
,
0000
0010
0000
0001
,
0100
0001
0010
0100
,
0000
1000
0001
0000
,
0000
0001
0000
1000
,
0000
0010
0000
1000
,
0000
0100
0000
0010
,
0001
0000
1000
0000
,
0000
0001
0000
0100
,
0000
0001
0000
1000
,
0100
1000
0001
0100
,
0000
0010
0100
0000
,
0000
0001
0000
1000
,
0000
0010
0000
0100
,
0000
0001
0000
1000
,
0100
0000
0100
0000
,
0000
0010
0000
0010
,
0000
0001
0000
1000
,
0001
0100
0010
0100
,
0000
0001
1000
0000
,
0000
0100
0000
1000
,
0000
0010
0000
1000
,
0000
0001
0000
0100
,
0010
0000
1000
0000
,
0000
0100
0000
0100
,
0000
0010
0000
0001
,
1000
0010
1000
0100
,
0000
0010
0001
0000
,
0000
1000
0000
0010
,
0000
1000
0000
0100
,
0000
0010
0001
0000
,
0101
0000
0101
0000
,
0101
0000
1010
0000
,
1010
0000
1010
0000
,
1000
0000
0100
0000
,
0011
0000
0011
0000
,
0011
0000
1100
0000
,
1100
0000
1100
0000
,
0001
1000
0001
0000
,
0101
0000
0101
0000
,
0101
0000
1100
0000
,
1100
0000
1100
0000
,
0010
0000
0001
0000
,
0011
0000
0011
0000
,
0011
0000
1010
0000
,
1010
0000
1010
0000
,
1000
0001
1000
0001
,
0000
0100
0000
0010
0000
0100
0001
0000
1000
0000
0000
0000
0000
0000
0000
0000
,
1001
0000
0010
0100
,
0010
0000
1000
0000
,
0000
0001
0100
0001
,
0100
0001
0010
0000
,
0100
1000
0000
0001
,
0000
0000
0000
1000
,
0000
0010
0000
1000
,
0000
0001
1000
0000
,
0110
0000
0001
0100
,
0001
0000
0000
0010
,
0000
0001
1000
0001
,
1000
0010
0100
0000
,
0001
1000
0000
0100
,
0000
0000
0000
1000
,
0000
0010
0100
0010
,
1000
0001
1000
0000
,
0101
0000
0001
0010
,
0100
0000
0000
1000
,
0000
0010
0100
0010
,
0100
0001
1000
0000
,
0001
0010
0000
0100
,
0000
0000
0000
1000
,
0000
0001
0100
0001
,
0100
0001
0010
0000
,
0001
0000
1000
0100
,
1000
0000
0001
0100
,
0001
0000
1000
0100
,
0010
0000
1001
0000
,
1001
0000
0110
0000
,
0110
0000
1000
0100
,
1000
0000
0001
0100
,
0001
0000
0011
0000
,
0011
0000
1100
0000
,
1100
0000
1001
0000
;

//---------------dance-single - ----------------
#NOTES:
     dance-single:
     :
     Beginner:
     6:
     0.282963,0.527054,0.176502,0.039223,0.000000,202.000000,184.000000,18.000000,4.000000,0.000000,0.000000,0.282963,0.527054,0.176502,0.039223,0.000000,202.000000,184.000000,18.000000,4.000000,0.000000,0.000000:
0000
0000
0000
0000
,
0000
0000
0000
0000
,
0000
0000
0000
0000
,
0000
0010
0000
1000
,
0000
0100
0000
0001
,
1000
0000
0001
0000
,
0100
0000
0000
0010
,
0010
0000
1000
0000
,
0100
0000
1000
0001
,
1000
0000
0001
0000
,
0010
0000
0001
1000
,
0001
0000
0100
0000
,
1000
0000
0000
0010
,
0010
0000
0100
0000
,
0001
0000
1000
0100
,
1000
0000
0001
0010
,
0001
0000
0100
0010
,
0100
0000
0001
0000
,
1000
0000
0001
0010
,
0001
0000
0100
0000
,
1000
0010
0100
0001
,
0010
0010
0001
0100
,
1000
0001
2020
0030
,
3001
0001
1000
0100
,
1000
0010
0202
0300
,
1003
0000
1000
0000
,
0000
0000
0001
0000
,
0001
0000
0100
0000
,
0010
0000
1000
0000
,
0000
0000
0110
0000
,
0000
0000
1000
0000
,
0001
0000
0010
0000
,
0001
0000
0100
0000
,
0010
0000
0010
0000
,
0000
0000
1000
0000
,
0001
0000
1000
0000
,
0100
0000
0010
0000
,
0000
0000
0110
0000
,
0000
0000
0001
0000
,
0010
0000
0001
0000
,
0100
0000
1000
0000
,
0001
0000
0001
0000
,
0000
0000
0100
0000
,
0010
0000
1000
0000
,
0010
0000
0100
0000
,
0000
0000
1001
0000
,
0000
0000
1000
0000
,
0001
0000
1000
0000
,
0100
0000
0010
0000
,
0100
0000
0100
0000
,
0000
0000
1000
0000
,
0010
0000
0100
0000
,
0001
0000
0010
0000
,
0000
0000
1001
0000
,
0000
0000
0001
0000
,
0010
0000
0001
0000
,
0100
0000
1000
0000
,
1001
0000
0000
0000
,
0000
0000
0110
0000
,
0000
0000
0000
0000
,
1000
0000
0001
0000
,
1001
0000
0000
0000
,
0000
0000
0110
0000
,
0000
0000
0000
0000
,
0100
0000
0010
0000
,
0110
0000
0000
0000
,
0000
0000
1001
0000
,
0000
0000
0000
0000
,
0010
0000
0100
0000
,
0110
0000
0000
0000
,
0000
0000
1001
0000
,
0000
0000
0000
0000
,
0001
0000
1000
0000
,
0110
0000
0010
0000
,
0100
0000
0001
0000
,
0000
0000
1000
0000
,
0000
0000
0001
0000
,
0100
0000
0001
0000
,
0010
0000
0001
0000
,
0100
0000
0000
0000
,
1000
0000
1000
0000
,
0001
0000
1000
0000
,
0100
0000
0010
0000
,
0000
0000
0001
0000
,
0000
0000
1000
0000
,
1000
0000
0010
0000
,
1000
0000
0100
0000
,
0010
0000
0000
0000
,
0001
0000
0001
0000
,
0100
0000
0001
0000
,
0010
0000
0001
0000
,
0100
0000
1000
0000
,
0000
0000
0010
0000
,
0010
0000
1000
0000
,
0001
0000
1000
0000
,
0100
0000
0010
0000
,
0000
0000
0001
0000
,
1000
0000
1001
0000
,
0000
0000
0010
0000
,
0100
0000
0110
0000
,
0000
0000
1000
0000
,
0001
0000
0010
0000
,
0010
0000
0001
0000
,
0001
0000
1000
0000
,
0001
0000
1000
0000
,
0001
0000
0100
0000
,
0000
0000
0010
0000
,
0000
0000
1001
0000
;

//---------------dance-single - ----------------
#NOTES:
     dance-single:
     :
     Challenge:
     18:
     1.224306,2.635269,1.412014,0.019611,0.563825,874.000000,730.000000,144.000000,2.000000,0.000000,0.000000,1.224306,2.635269,1.412014,0.019611,0.563825,874.000000,730.000000,144.000000,2.000000,0.000000,0.000000:
// measure 0
0000
0000
0000
0000
,  // measure 1
0000
0000
0000
0000
,  // measure 2
0000
0000
0000
0000
,  // measure 3
0000
0000
0000
0000
0000
0000
0000
0000
0010
0000
1000
0000
0100
0000
0010
0000
0001
0100
0000
0001
0100
0000
0010
0000
1000
0000
0001
0000
0010
0000
0000
0000
,  // measure 4
0001
0000
0100
0000
1000
0000
0000
0000
0010
0000
0100
0000
0001
0000
0100
0000
0010
1000
0010
1000
0010
0000
0100
0002
2000
0000
0000
0000
3003
0000
0000
0000
,  // measure 5
1001
0000
0010
0000
1000
0000
0100
0000
0010
0001
1000
0001
0100
0000
0010
0000
,  // measure 6
1000
0000
0100
0000
1000
0000
0001
0000
0010
0001
0100
0001
1000
0100
0010
0000
,  // measure 7
0001
0000
0100
0000
0001
0000
1000
0000
0010
0100
0010
1000
0001
0000
1000
0100
,  // measure 8
0010
0000
0001
0000
1000
0000
0001
0000
1000
0100
0010
0001
0100
1000
0100
0010
,  // measure 9
0100
0000
0001
0000
0010
0100
1000
0000
0001
0100
0010
0100
0001
0000
1000
0001
,  // measure 10
0010
0000
0000
0000
0110
0000
1000
0000
0001
0100
0001
0010
0100
1000
0001
0000
,  // measure 11
1000
0010
1000
0000
0001
0000
0100
0000
0001
0010
0100
0010
0001
0000
1000
0010
,  // measure 12
0100
0000
0000
0000
0001
0000
0010
0000
0100
1000
0010
1000
0001
1000
0010
0100
,  // measure 13
0001
0000
0010
0000
0100
0000
1000
0000
0001
0010
1000
0010
0100
1000
0010
0100
,  // measure 14
0010
0000
0000
0000
0101
0000
0000
0000
1000
0001
0010
0001
0100
0010
1000
0000
,  // measure 15
0001
0010
0100
0000
1000
0000
0001
0000
0100
0010
0100
0001
1000
0100
0010
0001
,  // measure 16
0100
0000
0010
0000
1000
0000
0001
0000
0010
0001
0010
0100
1000
0001
1000
0100
,  // measure 17
0010
0000
0001
0000
0100
0000
0010
0000
1000
0001
1000
0010
0100
1000
0100
0001
,  // measure 18
0010
0000
0001
0000
1000
0000
0001
0000
0100
0010
0100
1000
0100
0001
0010
1000
,  // measure 19
0010
0000
0001
0000
0100
0000
1000
0001
1000
0001
0010
0100
1000
0010
0100
0001
,  // measure 20
1000
0000
1100
0000
0011
0000
0100
0001
0010
0000
0100
1000
0010
1000
0001
1000
,  // measure 21
0100
0010
0001
1001
0010
1000
0101
0010
1000
1010
0001
0010
1100
0010
0101
0010
,  // measure 22
1001
0000
0001
0000
0010
0000
1100
0000
0010
0000
1000
0000
1010
0000
0001
0000
0100
0010
1000
0001
0100
0010
1000
0001
0100
0000
0110
0000
1001
0000
0110
0000
,  // measure 23
1001
0010
1000
0101
0001
0010
1100
0010
0100
1010
0001
0010
0011
1000
1100
0010
,  // measure 24
0101
0000
0010
0000
1000
0000
0110
0000
0001
0000
0010
0000
1001
0000
0100
0000
1000
0010
0100
0001
1000
0010
0100
0001
0010
0000
0000
0000
0010
0000
0000
0000
,  // measure 25
1001
0000
0001
0100
1000
0000
0010
1000
,  // measure 26
0100
0010
0001
0000
1000
0001
0010
0000
,  // measure 27
0100
1000
0010
0001
,  // measure 28
1000
0010
1000
0001
0010
0100
1000
0001
,  // measure 29
0100
0000
0010
1000
0001
0000
0010
0100
,  // measure 30
1000
0010
1000
0010
0100
0001
1000
0100
,  // measure 31
0010
0001
0100
1000
,  // measure 32
0001
0010
0100
1000
0010
0100
0001
0000
,  // measure 33
0110
0000
1000
0001
0010
0000
0001
0100
,  // measure 34
0001
0010
0100
1000
0001
0000
0100
0000
,  // measure 35
0010
1000
0001
0000
1000
0100
0010
0000
,  // measure 36
0001
1000
0010
1000
0100
0010
0001
0100
,  // measure 37
0010
0000
1000
0001
0010
0000
0100
1000
,  // measure 38
0010
1000
0001
1000
0100
0010
0001
0000
,  // measure 39
1000
0001
0100
0000
0001
0010
1000
0000
,  // measure 40
0001
0100
0010
1000
0100
0010
0001
1000
,  // measure 41
0001
0000
1000
0100
0001
0000
0010
0001
,  // measure 42
1000
0001
0100
0000
0010
1000
0010
0100
,  // measure 43
0001
0000
0010
0100
1000
0000
0001
0000
,  // measure 44
1000
0010
1000
0001
1000
0100
0010
0001
,  // measure 45
0100
0000
0001
0010
0100
0000
1000
0000
,  // measure 46
0010
1000
0001
1000
0100
0010
0001
0100
,  // measure 47
0010
1010
0100
0101
,  // measure 48
1000
0001
0010
1000
0001
1000
0100
0010
,  // measure 49
0001
0100
1001
0010
,  // measure 50
1000
0001
0010
1000
0100
0010
0001
0000
,  // measure 51
1000
0010
0100
0001
,  // measure 52
0010
0000
0100
1000
0010
1000
0001
0000
,  // measure 53
1000
0100
0010
0100
1000
0000
0001
0100
,  // measure 54
0001
0010
0001
0100
1000
0010
0001
0000
,  // measure 55
1000
0000
0001
0010
0100
0000
1000
0010
,  // measure 56
1000
0001
0010
0001
0100
1000
0010
0000
,  // measure 57
0101
0011
1001
0110
,  // measure 58
1010
0000
1100
0011
,  // measure 59
1001
0110
1010
0000
,  // measure 60
1000
0100
0010
0000
0001
0100
0001
0000
,  // measure 61
0011
1001
0110
0101
,  // measure 62
1010
0000
1100
1001
,  // measure 63
0011
1010
0101
0000
,  // measure 64
0001
0010
1000
0100
0001
0010
1000
0100
,  // measure 65
1001
0011
0110
1100
,  // measure 66
0101
0000
1010
0011
,  // measure 67
1001
0110
1100
0000
,  // measure 68
0001
0010
0100
0000
1000
0001
1000
0000
,  // measure 69
0110
1010
0011
0101
,  // measure 70
1100
0000
0011
1001
,  // measure 71
1010
1100
0110
0000
,  // measure 72
0001
0010
1000
0100
0001
0010
1000
0100
,  // measure 73
0000
0011
0000
1100
0000
0101
1100
0000
0010
0000
0000
0000
0000
0000
0000
0000
,  // measure 74
0110
0000
0001
0000
1000
0010
0100
0010
,  // measure 75
1000
0100
0010
0001
0100
0000
0001
0010
,  // measure 76
0001
0011
0110
1001
,  // measure 77
1010
0000
0101
0000
1100
0000
0010
0001
,  // measure 78
0100
0000
0010
0000
1000
0100
0001
0000
,  // measure 79
1000
0010
0100
0000
0001
0000
0011
1000
,  // measure 80
0001
0000
1010
1000
0100
0000
0110
0001
,  // measure 81
0100
1001
1100
0010
,  // measure 82
0001
0000
0100
0000
1000
0010
1000
0100
,  // measure 83
0001
0010
0001
0100
1000
0000
0110
0000
,  // measure 84
0001
0011
1100
0110
,  // measure 85
1001
0000
1010
0000
0101
0000
1000
0010
,  // measure 86
0001
0000
1000
0100
0010
0001
0100
0001
,  // measure 87
0010
1000
0100
0000
0010
0000
0011
1000
,  // measure 88
0001
0101
0011
1001
,  // measure 89
1100
0000
0110
0000
0011
0000
1000
0001
,  // measure 90
0100
0000
0001
0010
1000
0010
0001
0100
,  // measure 91
0010
0100
1000
0100
0001
0000
1010
0000
,  // measure 92
0100
0110
0101
0011
,  // measure 93
1100
0000
1010
0000
1001
0000
0100
0001
,  // measure 94
0010
0100
1000
0000
0001
0100
0001
0010
,  // measure 95
1000
0100
0001
0000
0010
0000
1100
0000
,  // measure 96
0001
1001
0011
0110
,  // measure 97
1100
0101
1001
1100
,  // measure 98
0110
1100
1001
0011
,  // measure 99
1010
0101
0110
1001
,  // measure 100
0011
0110
1100
1001
,  // measure 101
0011
0110
1100
0101
,  // measure 102
1000
0010
0001
0000
0011
0000
1100
0000
,  // measure 103
0001
0010
1000
0000
0110
0000
1001
0000
,  // measure 104
0110
0000
1001
0000
0001
0010
1000
0100
,  // measure 105
0001
0010
1000
0100
0011
0000
0110
0000
,  // measure 106
1100
0000
0001
1000
1010
0000
0110
0000
,  // measure 107
0101
0000
1000
0001
1001
0000
0000
0000
;
