#VERSION:0.83;
#TITLE:TRIP MACHINE (SHOCK ARROW Special);
#SUBTITLE:;
#ARTIST:DE-SIRE;
#TITLETRANSLIT:;
#SUBTITLETRANSLIT:;
#ARTISTTRANSLIT:;
#GENRE:;
#ORIGIN:;
#CREDIT:;
#BANNER:TRIP MACHINE (SHOCK ARROW Special)-bn.png;
#BACKGROUND:TRIP MACHINE (SHOCK ARROW Special)-bg.png;
#PREVIEWVID:;
#JACKET:TRIP MACHINE (SHOCK ARROW Special)-jacket.png;
#CDIMAGE:;
#DISCIMAGE:;
#LYRICSPATH:;
#CDTITLE:;
#MUSIC:TRIP MACHINE (SHOCK ARROW Special).ogg;
#OFFSET:0.000000;
#SAMPLESTART:13.499000;
#SAMPLELENGTH:20.000000;
#SELECTABLE:YES;
#DISPLAYBPM:160.000000;
#BPMS:0.000=160.142,
20.000=160.089;
#STOPS:;
#DELAYS:;
#WARPS:;
#TIMESIGNATURES:0.000=4=4;
#TICKCOUNTS:0.000=4;
#COMBOS:0.000=1;
#SPEEDS:0.000=1.000=0.000=0;
#SCROLLS:0.000=1.000;
#FAKES:;
#LABELS:0.000=Song Start;
#BGCHANGES:;
#KEYSOUNDS:;
#ATTACKS:
;

//---------------dance-single - ----------------
#NOTEDATA:;
#CHARTNAME:;
#STEPSTYPE:dance-single;
#DESCRIPTION:;
#CHARTSTYLE:;
#DIFFICULTY:Challenge;
#METER:15;
#RADARVALUES:0.644395,0.724380,0.949635,0.067831,0.582217,399.000000,315.000000,84.000000,6.000000,708.000000,0.000000,0.000000,0.000000,0.000000,0.644395,0.724380,0.949635,0.067831,0.582217,399.000000,315.000000,84.000000,6.000000,708.000000,0.000000,0.000000,0.000000,0.000000;
#CREDIT:;
#DISPLAYBPM:160.000000;
#NOTES:
// measure 0
0000
0000
0000
0000
,  // measure 1
0000
0000
0000
0000
,  // measure 2
0000
0000
0000
0000
,  // measure 3
0000
0000
0000
0000
,  // measure 4
0000
0000
0000
0000
,  // measure 5
0000
0000
0000
0000
,  // measure 6
0010
MMMM
0010
MMMM
,  // measure 7
0010
MMMM
0010
MMMM
,  // measure 8
0010
0000
0000
0110
,  // measure 9
1001
0100
MMMM
1001
MMMM
1000
0001
0100
,  // measure 10
0101
1000
MMMM
1100
MMMM
0010
0001
0100
,  // measure 11
0110
MMMM
1001
MMMM
0010
0001
1000
0100
,  // measure 12
1100
0001
0100
0101
MMMM
0010
1000
0100
,  // measure 13
0001
MMMM
0101
MMMM
1100
0010
0100
MMMM
,  // measure 14
0110
0010
1000
1010
MMMM
0101
MMMM
1100
,  // measure 15
1001
MMMM
0100
0000
0001
0000
0010
0000
1000
0000
0001
0000
0100
0000
0010
0000
,  // measure 16
1010
MMMM
1010
0000
MMMM
0000
0110
0000
MMMM
0000
0101
MMMM
0101
MMMM
1000
MMMM
,  // measure 17
0011
0000
0001
MMMM
0001
0000
0100
MMMM
0100
0000
0001
MMMM
0001
0000
1000
0000
,  // measure 18
MMMM
0000
1100
0000
0001
0000
0101
0000
MMMM
0000
0100
0000
0100
MMMM
0001
MMMM
,  // measure 19
0010
0000
0010
0000
0100
0000
0100
0000
1000
MMMM
0001
0000
1000
MMMM
0001
0000
,  // measure 20
MMMM
0000
0100
0000
0100
0000
0100
0000
0010
MMMM
1000
0000
0001
MMMM
1000
0000
,  // measure 21
1100
0000
1000
MMMM
1000
0000
0010
MMMM
0010
0000
1000
MMMM
1000
0000
0001
0000
,  // measure 22
MMMM
0011
0001
1010
MMMM
0100
0100
1000
,  // measure 23
0010
0000
0010
0000
0100
0000
0100
0000
1000
MMMM
0001
0000
1000
MMMM
0001
0000
,  // measure 24
0110
MMMM
0010
MMMM
0100
MMMM
0010
MMMM
0100
MMMM
0010
MMMM
0100
MMMM
0010
MMMM
,  // measure 25
1000
0000
MMMM
0000
1000
0000
MMMM
0000
1000
0000
MMMM
0000
1000
MMMM
0010
MMMM
,  // measure 26
0110
0000
0010
0000
1000
0000
1100
0000
MMMM
0000
0001
MMMM
0001
0000
1000
0000
,  // measure 27
1100
MMMM
0101
0000
MMMM
0010
MMMM
0010
,  // measure 28
1001
MMMM
1001
0000
MMMM
0000
1100
0000
MMMM
0000
0001
0000
0110
MMMM
1000
0000
,  // measure 29
0100
0000
1000
MMMM
0001
0000
0000
0000
MMMM
0000
0200
0000
0320
0000
1030
0000
,  // measure 30
MMMM
0000
1100
0000
0010
0000
0000
0000
MMMM
0000
1000
MMMM
0001
MMMM
0100
MMMM
,  // measure 31
1010
MMMM
0011
0000
MMMM
1100
MMMM
0101
,  // measure 32
MMMM
0000
1000
MMMM
1000
MMMM
0001
MMMM
0110
0000
MMMM
0000
1001
0000
MMMM
0000
,  // measure 33
0110
0000
MMMM
0010
1000
0000
MMMM
1000
0001
0000
MMMM
0001
0100
0000
MMMM
0100
,  // measure 34
0001
0000
MMMM
0001
0010
0000
0100
0000
1000
MMMM
1000
MMMM
1000
0000
MMMM
0000
,  // measure 35
1100
0000
MMMM
1000
0001
0000
MMMM
0001
0010
0000
MMMM
0010
0100
0000
MMMM
0100
,  // measure 36
1000
0000
MMMM
1000
0010
0000
0100
0000
0001
MMMM
0001
MMMM
0001
MMMM
0001
MMMM
,  // measure 37
0011
0000
MMMM
0001
0100
0000
MMMM
0100
0010
0000
MMMM
0010
1000
0000
MMMM
1000
,  // measure 38
0100
0000
MMMM
0100
0010
0000
MMMM
0010
0100
MMMM
0100
MMMM
0100
0000
MMMM
0000
,  // measure 39
1001
0000
MMMM
1000
0001
0000
MMMM
0001
0100
0000
MMMM
0100
0010
0000
MMMM
0010
,  // measure 40
1000
MMMM
0100
MMMM
0010
MMMM
0001
MMMM
0100
MMMM
0010
MMMM
1000
MMMM
0001
MMMM
,  // measure 41
2002
0000
0003
0000
3010
MMMM
0000
0000
,  // measure 42
1010
MMMM
0000
0101
MMMM
0110
MMMM
0000
,  // measure 43
1000
0000
0101
MMMM
0001
0000
MMMM
0000
0100
0000
MMMM
0000
0100
0000
0000
0000
,  // measure 44
1010
0000
MMMM
1100
MMMM
0011
MMMM
0000
,  // measure 45
1001
MMMM
0100
MMMM
0010
0100
1000
MMMM
,  // measure 46
0011
MMMM
0000
0101
MMMM
1001
MMMM
0000
,  // measure 47
0010
0000
1100
MMMM
0100
0000
MMMM
0000
0001
0000
MMMM
0000
1000
0000
MMMM
0000
,  // measure 48
1000
MMMM
0001
0000
0100
MMMM
0010
0000
1010
0000
MMMM
0000
0101
0000
MMMM
0000
,  // measure 49
0110
0000
MMMM
0010
1000
0000
MMMM
0001
0100
0000
MMMM
0010
0100
0000
MMMM
0001
,  // measure 50
1000
0000
MMMM
0100
0010
0000
MMMM
0001
0100
0000
1001
0000
MMMM
0000
0101
0000
,  // measure 51
0101
0000
MMMM
0010
0100
0000
MMMM
0001
0010
0000
MMMM
0001
1000
0000
MMMM
0100
,  // measure 52
0010
0011
MMMM
1100
MMMM
0101
MMMM
1010
,  // measure 53
MMMM
0000
0110
MMMM
1001
0000
MMMM
1000
0100
0000
MMMM
0001
0010
0000
MMMM
0001
,  // measure 54
0100
0000
MMMM
0010
1000
0000
MMMM
0100
0010
0000
0011
0000
MMMM
0000
1100
0000
,  // measure 55
1100
0000
MMMM
0001
1000
0000
MMMM
0010
1000
0000
MMMM
0100
0010
0000
MMMM
0001
,  // measure 56
0100
0020
2030
3001
MMMM
0101
0010
MMMM
,  // measure 57
1100
MMMM
0101
0000
MMMM
0000
1100
MMMM
0101
0000
MMMM
0000
1010
MMMM
0011
0000
,  // measure 58
MMMM
0000
1010
MMMM
0011
0000
0000
0000
0000
0000
0000
0000
0000
0000
0000
0000
;
