#VERSION:0.83;
#TITLE:TOE JAM;
#SUBTITLE:;
#ARTIST:Big Idea;
#TITLETRANSLIT:;
#SUBTITLETRANSLIT:;
#ARTISTTRANSLIT:;
#GENRE:;
#ORIGIN:;
#CREDIT:;
#BANNER:TOE JAM.png;
#BACKGROUND:TOE JAM-bg.png;
#PREVIEWVID:;
#JACKET:TOE JAM-jacket.png;
#CDIMAGE:;
#DISCIMAGE:;
#LYRICSPATH:;
#CDTITLE:;
#MUSIC:TOE JAM.ogg;
#OFFSET:0.000000;
#SAMPLESTART:29.680000;
#SAMPLELENGTH:20.000000;
#SELECTABLE:YES;
#DISPLAYBPM:112.000000:172.000000;
#BPMS:0.000=111.970,
52.000=132.040,
152.000=159.950,
250.000=160.710,
258.000=146.730,
259.500=171.610,
264.000=151.440,
267.500=152.910,
271.000=162.820;
#STOPS:;
#DELAYS:;
#WARPS:;
#TIMESIGNATURES:0.000=4=4;
#TICKCOUNTS:0.000=4;
#COMBOS:0.000=1;
#SPEEDS:0.000=1.000=0.000=0;
#SCROLLS:0.000=1.000;
#FAKES:;
#LABELS:0.000=Song Start;
#BGCHANGES:4.500=TOE JAM.avi=1.000=1=0=0=StretchNoLoop==CrossFade==,
270.750=TOE JAM-bg.png=1.000=0=0=1=====,
99999=-nosongbg-=1.000=0=0=0 // don't automatically add -songbackground-
;
#KEYSOUNDS:;
#ATTACKS:
;

//---------------dance-single - ----------------
#NOTEDATA:;
#CHARTNAME:;
#STEPSTYPE:dance-single;
#DESCRIPTION:;
#CHARTSTYLE:;
#DIFFICULTY:Beginner;
#METER:4;
#RADARVALUES:0.168925,0.225670,0.066618,0.000000,0.000000,142.000000,134.000000,8.000000,0.000000,0.000000,0.000000,0.000000,0.000000,0.000000,0.168925,0.225670,0.066618,0.000000,0.000000,142.000000,134.000000,8.000000,0.000000,0.000000,0.000000,0.000000,0.000000,0.000000;
#CREDIT:;
#DISPLAYBPM:112.000000:172.000000;
#NOTES:
0000
0000
0000
0000
,
0000
0000
0000
0000
,
0000
0000
0000
0000
,
0000
0000
0000
0000
,
0000
0000
0000
0000
,
0010
0010
0000
0000
,
0000
1000
1000
0000
,
0000
0010
0010
0000
,
0001
0000
0000
0000
,
0010
0010
0000
0000
,
0000
0001
0001
0000
,
0000
0010
0010
0000
,
1000
1000
1000
0000
,
0000
0000
0000
0000
,
0001
0000
0001
0000
,
1000
0000
1001
0000
,
1000
0000
1000
0000
,
0001
0000
0001
0001
,
0001
0000
0010
0000
,
1000
0000
0001
0000
,
0100
0000
0010
0000
,
0100
0000
0110
0000
,
0001
0001
0001
0000
,
1000
1000
1000
0000
,
0010
0000
0100
0000
,
1001
0000
0000
0000
,
0001
0001
0001
0000
,
1000
0000
1001
0000
,
1000
1000
1000
0000
,
0001
0000
0100
0000
,
0100
0000
0010
0000
,
1000
1000
0000
0000
,
0100
0000
0010
0000
,
0010
0000
0110
0000
,
0001
0001
0001
0000
,
1000
1000
1000
0000
,
0010
0000
0100
0000
,
1001
0000
0000
0000
,
0000
0000
0000
0000
,
0001
0000
1000
0000
,
0001
0000
1000
0000
,
0001
0000
1000
0000
,
0010
0000
0100
0100
,
0100
0000
0001
0000
,
0010
0000
0100
0000
,
1000
1000
0000
0000
,
0010
0010
0000
0000
,
0001
0001
0001
0000
,
1000
1000
1000
0000
,
0001
0000
1000
0000
,
0110
0000
0000
0000
,
0001
0001
0001
0001
,
0001
0001
0001
0000
,
1000
1000
1000
1000
,
1000
1000
1000
0000
,
0010
0010
0010
0010
,
0010
0010
0010
0000
,
0100
0100
0100
0100
,
0100
0100
0100
0000
,
0001
0000
0000
1000
,
1000
0000
0000
0010
,
0010
0000
0001
0000
,
1000
0000
0010
0000
,
0000
0000
0001
0000
,
0000
0000
1001
0000
,
0000
0000
0000
0000
,
0000
0000
0000
0000
,
0000
0000
0000
0010
;

//---------------dance-single - ----------------
#NOTEDATA:;
#CHARTNAME:;
#STEPSTYPE:dance-single;
#DESCRIPTION:;
#CHARTSTYLE:;
#DIFFICULTY:Easy;
#METER:6;
#RADARVALUES:0.258146,0.282087,0.066618,0.208182,0.000000,217.000000,209.000000,8.000000,25.000000,0.000000,0.000000,0.000000,0.000000,0.000000,0.258146,0.282087,0.066618,0.208182,0.000000,217.000000,209.000000,8.000000,25.000000,0.000000,0.000000,0.000000,0.000000,0.000000;
#CREDIT:;
#DISPLAYBPM:112.000000:172.000000;
#NOTES:
0000
0000
0000
0000
,
0000
0000
0000
0000
,
0000
0000
0000
0000
,
0000
0000
0000
0000
,
0000
0000
0000
0000
,
0001
0010
0001
0010
,
1000
0010
1000
0100
,
0001
0100
0001
0100
,
0001
0010
0001
0010
,
1000
0100
1000
0100
,
1000
0001
0100
1000
,
0001
1000
0001
1000
,
0001
1000
1001
0000
,
0000
0000
0000
0000
,
0001
0100
1000
0100
,
0001
0100
2000
0000
,
3000
0010
0001
0010
,
1000
0010
2000
0001
,
3000
0001
1000
0001
,
0002
0000
0000
1003
,
0001
1000
0001
1000
,
0001
1000
0002
0000
,
0103
0001
0100
0001
,
1000
0010
1000
0010
,
0100
0001
0100
0001
,
0002
0000
0000
0003
,
2000
0001
0001
0001
,
0001
0001
3001
0000
,
0200
1000
1000
1000
,
1000
1000
1000
1300
,
2010
0010
0010
0010
,
0010
0010
0000
3010
,
1000
0100
0001
0100
,
0001
1000
0100
1000
,
0120
0100
0100
0100
,
0100
0100
0100
0130
,
1000
0010
0100
0001
,
0020
0000
0000
0030
,
2002
0000
0000
3003
,
0001
1000
0001
1000
,
0001
1000
0001
1000
,
1000
0010
0100
0010
,
0100
0010
0100
0010
,
0010
1000
0001
1000
,
0001
1000
0001
1000
,
1000
0010
0100
0001
,
0001
0100
0010
1000
,
0001
0100
2000
3000
,
0100
0010
0002
0003
,
0001
0100
1000
0001
,
0200
0000
0000
0300
,
0010
1000
0100
0001
,
0010
1000
0100
0001
,
0010
1000
0001
0100
,
0010
1000
0010
0001
,
0010
0001
0010
0001
,
1000
0010
1000
0010
,
1000
0010
0001
1000
,
0100
0001
1000
0001
,
2000
0010
0010
3010
,
0002
0010
0010
0013
,
2000
3001
0002
0013
,
2000
3100
0002
0103
,
0202
0000
0000
0303
,
2020
0000
0000
3030
,
1001
0000
0000
0000
,
0000
0000
0000
0000
,
0000
0000
0000
1001
;

//---------------dance-single - ----------------
#NOTEDATA:;
#CHARTNAME:;
#STEPSTYPE:dance-single;
#DESCRIPTION:;
#CHARTSTYLE:;
#DIFFICULTY:Medium;
#METER:10;
#RADARVALUES:0.394952,0.451339,0.241492,0.158219,0.070782,332.000000,303.000000,29.000000,19.000000,0.000000,0.000000,0.000000,0.000000,0.000000,0.394952,0.451339,0.241492,0.158219,0.070782,332.000000,303.000000,29.000000,19.000000,0.000000,0.000000,0.000000,0.000000,0.000000;
#CREDIT:;
#DISPLAYBPM:112.000000:172.000000;
#NOTES:
0000
0000
0000
0000
,
0000
0000
0000
0000
,
0000
0000
0000
0000
,
0000
0000
0000
0000
,
0000
0000
0000
0000
,
0110
0000
0100
0000
0010
0001
0010
0001
,
0000
0000
1000
0000
0100
0000
1000
0000
0001
0000
0000
1000
0000
0000
0001
0000
,
0000
1000
0100
0000
0100
0010
0100
0010
,
0000
0000
0001
0000
1000
0000
0001
0000
1000
0000
0000
0001
0000
0000
0010
0000
,
0200
0000
1300
0000
0100
1000
0100
0000
,
0001
0000
0010
0000
0001
0000
0000
0000
1000
0000
0000
0001
0000
0000
0010
0000
,
0000
0100
1000
0000
0010
1000
0010
1000
,
0000
0001
0100
0001
1000
0000
0000
0100
,
1000
0100
1000
0001
0010
0001
0010
0000
,
1000
0100
1000
0000
0010
0100
0010
0000
,
1000
0000
0100
0000
1000
0000
0000
0000
0010
0000
0000
0001
0000
0000
0100
0000
,
0000
0100
0001
0100
0000
0001
1000
0002
,
0000
0003
0000
0000
0110
0000
1001
0000
,
0000
1000
0010
1000
0000
0010
0100
0010
,
0000
0100
0001
0100
0000
0000
1001
0000
,
0010
0001
1000
0000
0100
1000
0001
0000
,
0110
0000
0000
0000
1001
0000
0000
0000
0100
0000
0000
0001
0000
0000
1000
0000
,
0000
0001
1000
0100
0000
1000
0001
0010
,
0001
0000
0000
0100
0000
0000
1000
0000
0000
0100
0000
0000
0001
0000
0000
0000
,
1000
0001
1000
0000
0001
1000
0001
0000
,
0100
0001
0001
0000
0000
0010
0010
0100
,
0200
0000
1300
2000
0000
3001
0001
0010
,
0010
0000
0000
0000
0001
0000
1000
0000
0001
0000
0000
0100
0000
0000
0010
0000
,
0000
1000
0100
1000
0002
0000
0003
0000
,
1010
0000
0101
0000
0001
0100
1000
0000
,
0011
0000
1100
0000
0100
0010
0100
0000
,
1000
0010
0100
0020
0000
0000
0130
0000
,
0010
1000
0010
0000
0001
0100
0001
0000
,
0100
0000
0001
0000
1000
0000
0000
0000
0001
0000
0000
1000
0000
0000
0100
0000
,
0000
1000
0100
1000
0000
0001
0100
0001
,
0100
0000
0000
1000
0000
0000
0100
0000
0000
0010
0000
0000
0100
0000
0000
0000
,
0001
0100
0001
0000
0100
0010
0100
0000
,
1000
0001
1000
0000
0001
1000
0001
0000
,
2002
0000
0000
3003
,
0110
0000
1000
0100
1000
0000
0100
0010
,
0100
0000
0010
0001
0010
0000
0110
0000
,
0110
0000
1000
0100
0001
0000
0001
0100
,
1000
0000
1100
0000
1000
0001
1000
0001
,
0000
1000
0001
1000
,
0010
0000
0001
0000
0010
1000
0100
0000
,
0010
0001
0100
1000
,
0100
0000
0010
0000
0100
1000
0100
0000
,
2002
0000
0000
0000
0000
0000
0000
0000
3003
0000
0000
0010
0000
0000
0220
0000
,
0000
0000
0000
0000
0000
0000
0000
0000
0330
0000
0000
1000
0000
0000
2002
0000
,
0000
0000
0000
3003
,
0000
0000
0000
0000
,
0110
0000
1001
0000
0010
0100
0010
0000
,
1001
0000
0110
0000
1000
0100
1000
0000
,
1100
0000
0101
0000
0100
0001
0100
0000
,
0011
0000
1100
0000
0100
0010
0100
0000
,
0000
0001
0010
0100
,
1000
0000
1001
0000
0001
1000
0001
0000
,
0000
0010
1000
0010
,
1000
0000
0110
0000
1000
0100
0001
0000
,
1000
0001
1000
0100
0010
0100
0000
0000
,
1000
0001
1000
0010
0100
0010
0000
0000
,
1000
1000
0001
0001
1000
1000
0010
0010
,
0100
0000
0100
0000
0001
0000
0001
0000
1000
0000
0000
0001
0000
0000
2000
0000
,
0000
0000
0000
0000
0000
0000
0000
0000
3001
0000
0000
1000
0000
0000
0002
0000
,
0000
0000
0000
0000
0000
0000
0000
0000
0013
0000
0000
0100
0000
0000
0020
0000
,
0000
0000
0000
0000
0000
0000
0000
0030
,
0001
0000
2000
0000
0000
0000
0000
0000
0000
0000
0000
3010
0000
0000
0200
0000
,
0000
0000
0300
1001
;

//---------------dance-single - ----------------
#NOTEDATA:;
#CHARTNAME:;
#STEPSTYPE:dance-single;
#DESCRIPTION:;
#CHARTSTYLE:;
#DIFFICULTY:Hard;
#METER:13;
#RADARVALUES:0.510344,0.592383,0.024982,0.133237,0.408038,429.000000,426.000000,3.000000,16.000000,0.000000,0.000000,0.000000,0.000000,0.000000,0.510344,0.592383,0.024982,0.133237,0.408038,429.000000,426.000000,3.000000,16.000000,0.000000,0.000000,0.000000,0.000000,0.000000;
#CREDIT:;
#DISPLAYBPM:112.000000:172.000000;
#NOTES:
0000
0000
0000
0000
,
0000
0000
0000
0000
,
0000
0000
0000
0000
,
0000
0000
0000
0000
,
0000
0000
0000
0000
,
1001
0000
0000
0000
0010
0000
0000
0000
0100
0001
0100
0001
0100
0000
0010
0000
,
0000
0000
1000
0000
0100
1000
0100
0000
0010
0000
0000
0001
0000
0000
1000
0000
,
0000
0000
0001
0000
0100
0000
0000
0000
0001
1000
0001
1000
0001
0000
0100
0000
,
0000
0000
0001
0000
1000
0100
1000
0000
0100
0000
0010
0100
0000
1000
0100
0000
,
2000
0000
0000
0000
3002
0000
0000
0003
0100
0010
0100
0010
0100
0000
0001
0000
,
0000
0000
1000
0000
0010
0100
0010
0000
1000
0000
0000
0001
0000
0000
0010
0000
,
0000
0000
0100
0000
1000
0000
0000
0000
0010
1000
0010
1000
0010
0000
1000
0001
,
0000
0000
1000
0100
1000
0100
1000
0000
0002
0000
0000
0000
0003
0000
0100
0010
,
1000
0000
0001
0000
1000
0000
1000
0000
0100
0000
0010
0001
0000
0001
0010
0000
,
0100
0000
1000
0100
1000
0000
0100
0000
0001
0100
0001
0000
0000
0000
0100
0000
,
1000
0000
0100
0010
0100
0000
1000
0000
0001
0000
0000
0100
0000
0000
0001
0000
,
0000
0000
1000
0000
0100
0010
0100
0000
0010
0000
0001
1000
0001
0000
0100
0000
,
0000
0000
0010
0000
1000
0001
1000
0000
0100
0000
0001
0000
0100
0000
1000
0000
,
0000
0000
0010
1000
0010
0000
1000
0100
1000
0000
0100
0010
0100
0000
0010
0100
,
0010
0001
0100
0001
0000
0000
0100
0000
,
0001
0000
1000
0100
1000
0000
0010
0000
0100
0001
0100
0000
0010
0000
0100
0000
,
1000
0000
0100
0001
0100
0000
0001
0000
0100
0000
0000
0001
0000
0000
1000
0000
,
0000
0000
0010
0100
1000
0000
1000
0100
0010
0000
1000
0001
1000
0000
0001
1000
,
0001
0000
0000
1000
0000
0000
0001
0000
0000
1000
0000
0000
0001
0000
0000
0000
,
0010
0000
0001
1000
0001
0000
0010
0000
0001
1000
0001
0000
0100
0000
0010
0000
,
0100
0000
0001
1000
0001
0000
0000
0000
0000
0000
0010
0000
0001
0000
0100
0000
,
1000
0000
1000
0100
0000
1000
0100
0001
,
0010
0000
0000
0000
0010
0000
0100
0000
1000
0000
0000
0100
0000
0000
0001
0000
,
0000
0001
0100
1000
0020
0000
0030
0000
,
1000
0100
0001
0100
0001
0100
1000
0000
,
1000
0001
1000
0001
0100
0010
0100
0010
,
1000
0100
1000
0002
0000
0000
1003
0000
,
0010
1000
0010
1000
0001
0100
0001
0100
,
0010
0000
1000
0000
0001
0000
1000
0000
0100
0000
0000
1000
0000
0000
0001
0000
,
0000
1000
0100
1000
0001
0100
0001
0010
,
0001
0000
0000
1000
0000
0000
0001
0000
0000
0010
0000
0000
0100
0000
0000
0000
,
1000
0100
1000
0100
0010
0100
0010
0001
,
0010
0000
0001
0000
1000
0000
0100
0000
1000
0000
0001
0100
0001
0100
0001
0000
,
2000
0000
0000
3000
,
0010
0000
0000
0010
1000
0000
0100
0000
1000
0000
0000
1000
0100
0000
0010
0000
,
0100
0000
0000
0100
0010
0000
0001
0000
0010
0000
0100
0000
1000
0000
0000
0000
,
0100
0000
0000
0100
0010
0000
0001
0000
0100
0000
0000
0100
0001
0000
0100
0000
,
1000
0000
0000
1000
0100
0000
0001
0000
0100
0000
0010
0000
0100
0000
0001
0000
,
0000
0000
0000
0010
0001
0000
0000
0001
1000
0000
0000
1000
0001
0000
0000
0001
,
0010
0000
0000
0010
1000
0000
0000
1000
0010
0000
0001
0000
0100
0000
0000
0000
,
0010
0000
0000
0010
1000
0000
0000
1000
0100
0000
0000
0100
0001
0000
0000
0001
,
0100
0000
0000
0100
0010
0000
0000
0010
0001
0000
1000
0000
0001
0000
1000
0000
,
0002
0000
0000
0000
0000
0000
0000
0000
0000
0000
0000
1003
0000
0000
0020
0000
,
0000
0000
0000
0000
0000
0000
0000
0000
0000
0000
0000
0130
0000
0000
0002
0000
,
0000
1000
0100
1003
,
2002
0000
0000
3003
,
1000
0000
0000
1000
0001
0000
0000
0001
1000
0000
0100
0000
0010
0000
0001
0000
,
1000
0000
0000
1000
0001
0000
0000
0001
1000
0000
0100
0000
0010
0000
0000
0000
,
0100
0000
0000
0100
0010
0000
0000
0010
0100
0000
1000
0000
0100
0000
0001
0000
,
0100
0000
0000
0100
0010
0000
0000
0010
0100
0000
1000
0000
0100
0000
0001
0000
,
0000
0000
0000
0100
1000
0000
0000
1000
0100
0000
0000
0100
0010
0000
0000
0010
,
0100
0000
0000
0100
0001
0000
0000
0001
0100
0000
1000
0000
0100
0000
0010
0000
,
0000
0000
0000
0001
0100
0000
0000
0100
0001
0000
0000
0001
0010
0000
0000
0010
,
1000
0000
0000
1000
0010
0000
0000
0010
0001
0000
0100
0000
0001
0000
0000
0000
,
0100
0000
0010
0100
0010
0000
0100
0000
0001
0000
0100
0000
0000
0000
0001
0000
,
0000
0000
1000
0001
1000
0000
0100
0000
0010
0000
0001
0000
0000
0000
0010
0000
,
0000
0001
1000
0001
1000
0100
0010
0100
,
0010
0000
0001
0000
0100
0000
0001
0000
0100
0000
0000
0001
0000
0000
2000
0000
,
0000
0000
0000
0000
0000
0000
0000
0000
3100
0000
0000
0010
0000
0000
0002
0000
,
0000
0000
0000
0000
0000
0000
0000
0000
0013
0000
0000
0100
0000
0000
2000
0000
,
0000
0000
0000
0000
0000
0000
0000
3010
,
0000
0200
0000
0000
0000
0000
0000
0000
0000
0000
0000
0301
0000
0000
2000
0000
,
0000
0000
3000
1001
;

//---------------dance-double - ----------------
#NOTEDATA:;
#CHARTNAME:;
#STEPSTYPE:dance-double;
#DESCRIPTION:;
#CHARTSTYLE:;
#DIFFICULTY:Easy;
#METER:7;
#RADARVALUES:0.258146,0.282087,0.066618,0.208182,0.000000,217.000000,209.000000,8.000000,25.000000,0.000000,0.000000,0.000000,0.000000,0.000000,0.258146,0.282087,0.066618,0.208182,0.000000,217.000000,209.000000,8.000000,25.000000,0.000000,0.000000,0.000000,0.000000,0.000000;
#CREDIT:;
#DISPLAYBPM:112.000000:160.000000;
#NOTES:
00000000
00000000
00000000
00000000
,
00000000
00000000
00000000
00000000
,
00000000
00000000
00000000
00000000
,
00000000
00000000
00000000
00000000
,
00000000
00000000
00000000
00000000
,
00010000
00100000
00010000
00100000
,
10000000
00100000
10000000
01000000
,
00010000
01000000
00010000
01000000
,
00010000
00001000
00000100
00001000
,
00000100
00000001
00000100
00000001
,
00000010
00000001
00000010
00001000
,
00010000
00001000
00010000
00001000
,
00010000
00001000
00011000
00000000
,
00000000
00000000
00000000
00000000
,
00001000
00000100
00000001
00000100
,
00001000
00000100
00000002
00000000
,
00000003
00000010
00001000
00000010
,
00000001
00000010
00000002
00001000
,
00000003
00001000
00000001
00001000
,
00000002
00000000
00000000
00001003
,
00000001
00001000
00000001
00001000
,
00000001
00001000
00000002
00000000
,
00000103
00000001
00000100
00000001
,
00001000
00000010
00001000
00000010
,
00010000
00000010
00010000
00000010
,
00020000
00000000
00000000
00030000
,
00002000
00010000
00010000
00010000
,
00010000
00010000
00010000
00003000
,
02000000
00010000
00010000
00010000
,
00010000
00010000
00010000
03010000
,
20100000
00100000
00100000
00100000
,
00100000
00100000
00000000
30100000
,
10000000
01000000
00010000
01000000
,
00010000
00001000
00000100
00001000
,
00000210
00000010
00000010
00000010
,
00000010
00000010
00000010
00000310
,
00000001
00000100
00000010
00001000
,
00000020
00000000
00000000
00000030
,
00002002
00000000
00000000
00003003
,
00000001
00001000
00000001
00001000
,
00000001
00001000
00000001
00001000
,
00001000
00010000
00001000
00010000
,
00001000
00010000
00001000
00010000
,
00010000
10000000
00010000
10000000
,
00010000
10000000
00010000
10000000
,
10000000
00100000
01000000
00010000
,
01000000
00001000
00010000
00001000
,
00010000
00000100
00002000
00003000
,
00000100
00000010
00000002
00000003
,
00000001
00000100
00001000
00010000
,
02000000
00000000
00000000
03000000
,
00100000
10000000
01000000
00010000
,
00001000
00000100
00000001
00000010
,
00000100
00001000
00000001
00000100
,
00000010
00001000
00000010
00010000
,
00001000
00010000
00001000
00100000
,
00001000
00100000
00010000
10000000
,
00100000
01000000
00010000
10000000
,
01000000
00010000
00001000
00010000
,
00002000
00100000
00100000
00103000
,
00020000
00000010
00000010
00030010
,
00002000
00103000
00020000
00030010
,
00002000
01003000
00020000
00030100
,
00020200
00000000
00000000
00030300
,
00202000
00000000
00000000
00303000
,
00011000
00000000
00000000
00000000
,
00000000
00000000
00000000
00000000
,
00000000
00000000
00000000
00011000
;

//---------------dance-double - ----------------
#NOTEDATA:;
#CHARTNAME:;
#STEPSTYPE:dance-double;
#DESCRIPTION:;
#CHARTSTYLE:;
#DIFFICULTY:Medium;
#METER:9;
#RADARVALUES:0.385435,0.451339,0.316437,0.049964,0.033309,324.000000,286.000000,38.000000,6.000000,0.000000,0.000000,0.000000,0.000000,0.000000,0.385435,0.451339,0.316437,0.049964,0.033309,324.000000,286.000000,38.000000,6.000000,0.000000,0.000000,0.000000,0.000000,0.000000;
#CREDIT:;
#DISPLAYBPM:112.000000:160.000000;
#NOTES:
00000000
00000000
00000000
00000000
,
00000000
00000000
00000000
00000000
,
00000000
00000000
00000000
00000000
,
00000000
00000000
00000000
00000000
,
00000000
00000000
00000000
00000000
,
00000001
00000000
00000100
00000000
00000010
00000100
00000001
00000010
,
00000000
00000000
00000001
00000000
00000100
00000000
00000000
00000000
00000001
00000000
00000000
00001000
00000000
00000000
00001001
00000000
,
00000000
00000010
00001000
00000000
00001000
00000100
00010000
00000000
,
00001000
00010000
00001000
00010000
01000000
00000000
10010000
00000000
,
10000000
00000000
00010000
00000000
01000000
00100000
10000000
00000000
,
00100000
00000000
10000000
00000000
00010000
00000000
00000000
00000000
00100000
00000000
00000000
01000000
00000000
00000000
01100000
00000000
,
00000000
00010000
00001000
00000100
,
00001000
00010000
00002000
00003000
,
00010000
00100000
10000000
01000000
,
01010000
00010000
00001000
00000100
,
00000101
00000000
00000000
00000000
00000001
00000000
00000000
00000000
00000010
00000000
00000000
00000100
00000000
00000000
00000110
00000000
,
00000000
00000100
00010000
00001000
,
00100000
00000000
00010000
00000000
10000000
01000000
10000000
00000000
,
00100000
00100000
01000000
01000000
,
00001000
00001000
00010000
00010000
,
00000100
00010000
00001000
01000000
,
00100000
00000000
00000000
00000000
00100000
00000000
00000000
00000000
10000000
00000000
00000000
00010000
00000000
00000000
10010000
00000000
,
01000000
01000000
00100000
00001000
,
00010000
00000100
00000010
00000001
,
00000100
00001000
00010000
01000000
,
00100000
00010000
10000000
00010000
,
00000000
10000000
00100000
01000000
00000000
00010000
00100000
01000000
,
00000000
00000000
10000000
00000000
00010000
00000000
10000000
00000000
01000000
00000000
00000000
01000000
00000000
00000000
01000000
00000000
,
00000000
00010000
01000000
00010000
00000000
00001000
00010000
00001000
,
00000000
00010000
00000010
00001000
00000000
00000001
00000001
00000000
,
00000000
00000100
00000010
00001000
00000000
00000010
00010000
00000010
,
00000000
00010000
00000100
00020000
00000000
00000000
00031000
00000000
,
00000000
00010000
00001000
00100000
00000000
00100000
00010000
10000000
,
00000000
10000000
00010000
01000000
00000000
00100000
10000000
00010000
,
00000000
10000000
00100000
00010000
00000000
00010000
00001000
00000010
,
00000000
00000001
00000100
00000001
00000000
00000100
00000010
00000100
,
00000000
00000010
00001000
00000010
00000000
00000100
00001000
00000100
,
00000000
00000000
00001000
00000000
00010000
00001000
00010000
00000000
,
00022000
00000000
00000000
00033000
,
00001000
00010000
00000010
00000000
00010000
00001000
00100000
00000000
,
00001000
00010000
00000100
00000000
00010000
00001000
01000000
00000000
,
00011000
00000010
00011000
00100000
,
00110000
11000000
10100000
01010000
,
10000000
10100000
00010000
00110000
,
00100000
00101000
00001000
00011000
,
00001100
00000101
00001100
00000101
,
00000010
00001001
00000100
00001001
,
00000110
00000000
00001001
00000000
00000100
00000100
00000000
00000000
,
00010010
00000000
00011000
00000000
00010000
00010000
00000000
00000000
,
00010000
00100000
10000000
01000000
,
00100000
00100000
01000000
10000000
,
00100000
10000000
01000000
00010000
00001000
00000100
00000001
00000000
,
00000010
00000010
00000001
00000001
,
00000010
00000001
00000100
00001000
00010000
01000000
10000000
00000000
,
01000000
01000000
10000000
10000000
,
00100000
01000000
00100000
00000000
00010000
00001000
00010000
00000000
,
00000010
00000100
00000010
00000000
00001000
00000000
00000001
00000000
,
00000001
00000100
00000001
00000000
00001000
00000010
00001000
00000000
,
00000100
00010000
00000100
00000000
00010000
00000000
00001000
00000000
,
00100000
00000000
00010000
00000000
00100000
00010000
01000000
00000000
,
00100000
00000000
10000000
00000000
00100000
10000000
01000000
00000000
,
10000000
01000000
00010000
00000000
01000000
00010000
00001000
00000000
,
00001000
00000000
00000100
00000000
00000001
00000000
00000000
00000000
00000011
00000000
00000000
00001001
00000000
00000000
00000101
00000000
,
00000000
00000000
00000000
00000000
00000000
00000000
00000000
00000000
00001010
00000000
00000000
00001001
00000000
00000000
00001100
00000000
,
00000000
00000000
00000000
00000000
00000000
00000000
00000000
00000000
00001100
00000000
00000000
00000101
00000000
00000000
00002002
00000000
,
00000000
00000000
00000000
00000000
,
00000000
00000000
00000000
00000000
,
00000000
00000000
00000000
00003003
00000000
00000000
00001001
00000000
;

//---------------dance-double - ----------------
#NOTEDATA:;
#CHARTNAME:;
#STEPSTYPE:dance-double;
#DESCRIPTION:;
#CHARTSTYLE:;
#DIFFICULTY:Hard;
#METER:13;
#RADARVALUES:0.513913,0.592383,0.016655,0.116582,0.349746,432.000000,430.000000,2.000000,14.000000,0.000000,0.000000,0.000000,0.000000,0.000000,0.513913,0.592383,0.016655,0.116582,0.349746,432.000000,430.000000,2.000000,14.000000,0.000000,0.000000,0.000000,0.000000,0.000000;
#CREDIT:;
#DISPLAYBPM:112.000000:160.000000;
#NOTES:
00000000
00000000
00000000
00000000
,
00000000
00000000
00000000
00000000
,
00000000
00000000
00000000
00000000
,
00000000
00000000
00000000
00000000
,
00000000
00000000
00000000
00000000
,
00010000
00000000
00000000
00000000
00100000
00000000
00000000
00000000
01000000
10000000
01000000
10000000
01000000
00000000
00100000
00000000
,
00000000
00000000
00010000
00000000
10000000
01000000
10000000
00000000
00010000
00000000
00000000
01000000
00000000
00000000
00100000
00000000
,
00000000
00000000
00010000
00000000
00001000
00000000
00000000
00000000
00010000
00001000
00010000
00001000
00010000
00000000
00000100
00000000
,
00000000
00000000
00010000
00000000
00001000
00010000
00001000
00000000
00000100
00000000
00000001
00000010
00000001
00000000
00000100
00000000
,
00000010
00000000
00000000
00000000
00000100
00000000
00000000
00000000
00000001
00001000
00000001
00001000
00000001
00000000
00000100
00000000
,
00000000
00000000
00001000
00000000
00010000
00001000
00010000
00000000
00100000
00000000
00000000
10000000
00000000
00000000
01000000
00000000
,
00000000
00000000
10000000
00000000
00010000
00000000
00000000
00000000
00100000
00010000
00100000
00010000
00100000
00000000
01000000
00000000
,
10000000
00000000
00010000
01000000
00010000
01000000
00010000
00000000
20000000
00000000
00000000
00000000
30000000
00000000
00010000
10000000
,
00000000
10000000
00010000
00000000
01000000
00000000
00100000
00000000
01000000
00000000
00010000
10000000
00000000
10000000
00010000
00000000
,
01000000
00000000
10000000
01000000
10000000
00000000
00010000
00000000
00100000
00010000
00100000
00000000
00000000
00000000
00001000
00000000
,
00010000
00000000
00001000
00010000
00001000
00000000
00000010
00000000
00000001
00000000
00000000
00000100
00000000
00000000
00000010
00000000
,
00000000
00000000
00001000
00000000
00000100
00001000
00000100
00000000
00000010
00000000
00000001
00000010
00000001
00000000
00000100
00000000
,
00000000
00000000
00000010
00000000
00001000
00000010
00001000
00000000
00000001
00000000
00000100
00000000
00001000
00000000
00010000
00000000
,
00000000
00000000
00100000
10000000
00100000
00000000
10000000
01000000
10000000
00000000
01000000
00100000
01000000
00000000
00100000
00010000
,
00100000
00010000
01000000
00100000
00000000
00000000
10000000
00000000
,
00010000
00000000
10000000
01000000
10000000
00000000
00100000
00000000
01000000
00010000
01000000
00000000
00100000
00000000
01000000
00000000
,
00010000
00000000
00100000
01000000
00100000
00000000
01000000
00000000
00010000
00000000
00000000
00001000
00000000
00000000
00010000
00000000
,
00000000
00000000
00000010
00001000
00000010
00000000
00000100
00000001
00000100
00000000
00000001
00000010
00000001
00000000
00001000
00000100
,
00001000
00000000
00000000
00000001
00000000
00000000
00001000
00000000
00000000
00000001
00000000
00000000
00001000
00000000
00000000
00000000
,
00000010
00000000
00001000
00000100
00001000
00000000
00000001
00000000
00000010
00000100
00000010
00000000
00000001
00000000
00000100
00000000
,
00000010
00000000
00001000
00000001
00001000
00000000
00000000
00000000
00000000
00000000
00000010
00000000
00000100
00000000
00001000
00000000
,
00010000
00000000
00001000
00000100
00000000
00000001
00000010
00001000
,
00010000
00000000
00000000
00000000
00001000
00000000
00000010
00000000
00000100
00000000
00000000
00010000
00000000
00000000
00001000
00000000
,
00000000
00010000
01000000
10000000
00200000
00000000
00300000
00000000
,
10000000
01000000
00100000
00010000
00100000
01000000
00010000
00001000
,
00000010
00000100
00001000
00000100
00000010
00000001
00000010
00000100
,
00001000
00000010
00000100
00000002
00000000
00000000
00001003
00000000
,
00000010
00001000
00000010
00000100
00000001
00000100
00000010
00001000
,
00000100
00000000
00001000
00000000
00000001
00000000
00000010
00000000
00000001
00000000
00000000
00001000
00000000
00000000
00000001
00000000
,
00000000
00000100
00000010
00000100
00000001
00001000
00000001
00000100
,
00000010
00000000
00000000
00001000
00000000
00000000
00000001
00000000
00000000
00000010
00000000
00000000
00000100
00000000
00000000
00000000
,
00010000
00001000
00010000
01000000
00100000
01000000
00100000
00010000
,
00100000
01000000
10000000
00010000
10000000
00010000
00010000
00010000
,
02000000
00000000
00000000
03000000
,
00100000
00000000
00000000
00100000
10000000
00000000
00000000
10000000
01000000
00000000
00000000
01000000
00100000
00000000
00000000
00100000
,
01000000
00000000
00000000
01000000
00010000
00000000
00000000
00010000
01000000
00000000
00000000
01000000
00100000
00000000
00000000
00100000
,
00001000
00000000
00000000
00001000
00010000
00000000
00000000
00010000
00000010
00000000
00000000
00000010
00000001
00000000
00000000
00000001
,
00000010
00000000
00000000
00000010
00001000
00000000
00000000
00001000
00000001
00000000
00000100
00000000
00000100
00000000
00000100
00000000
,
00000000
00000000
00000000
00000000
00000001
00000000
00000000
00000001
00000100
00000000
00000000
00000100
00001000
00000000
00000000
00001000
,
00010000
00000000
00000000
00010000
00000100
00000000
00000000
00000100
00010000
00000000
00000000
00010000
00001000
00000000
00000000
00001000
,
00100000
00000000
00000000
00100000
00010000
00000000
00000000
00010000
10000000
00000000
00000000
10000000
00100000
00000000
00000000
00100000
,
01000000
00000000
00000000
01000000
00010000
00000000
00000000
00010000
10000000
00000000
00010000
00000000
10000000
00000000
00010000
00000000
,
02000000
00000000
00000000
00000000
00000000
00000000
00000000
00000000
00000000
00000000
00000000
03100000
00000000
00000000
20000000
00000000
,
00000000
00000000
00000000
00000000
00000000
00000000
00000000
00000000
00000000
00000000
00000000
31000000
00000000
00000000
00020000
00000000
,
00000000
00001000
00001000
00031000
,
00022000
00000000
00000000
00033000
,
00010000
01000000
00100000
00010000
01000000
00100000
00010000
00001000
,
00000100
00000010
00001000
00000100
00000010
00001000
00010000
00100000
,
01000000
00010000
00100000
01000000
00010000
00001000
00000010
00000100
,
00001000
00000010
00000100
00001000
00010000
01000000
10000000
00100000
,
00000000
00000000
10000000
01000000
00010000
10000000
00100000
00010000
,
10000000
01000000
00010000
10000000
00100000
00010000
10000000
01000000
,
00010000
00001000
00000100
00000001
00001000
00000010
00000001
00001000
,
00000100
00000001
00001000
00000010
00000001
00001000
00000100
00000001
,
00001000
00000000
00000001
00000100
00000001
00000000
00001000
00000000
00000001
00000000
00001000
00000000
00000000
00000000
00000001
00000000
,
00000000
00000000
00001000
00000100
00001000
00000000
00000001
00000000
00000010
00000000
00000100
00000000
00001000
00000000
00000001
00000000
,
00000010
00000100
00001000
00010000
00100000
01000000
10000000
00010000
,
00100000
00000000
01000000
00000000
10000000
00000000
10000000
00000000
01000000
00000000
00000000
00100000
00000000
00000000
00020000
00000000
,
00000000
00000000
00000000
00000000
00000000
00000000
00000000
00000000
01030000
00000000
00000000
00001000
00000000
00000000
00020000
00000000
,
00000000
00000000
00000000
00000000
00000000
00000000
00000000
00000000
00031000
00000000
00000000
01000000
00000000
00000000
00020000
00000000
,
00000000
00000000
00000000
00000000
00000000
00000000
00000000
00130000
,
00000000
02000000
00000000
00000000
00000000
00000000
00000000
00000000
00000000
00000000
00000000
13000000
00000000
00000000
00020000
00000000
,
00000000
00000000
00030000
10010000
;

//---------------dance-single - ----------------
#NOTEDATA:;
#CHARTNAME:;
#STEPSTYPE:dance-single;
#DESCRIPTION:;
#CHARTSTYLE:;
#DIFFICULTY:Challenge;
#METER:17;
#RADARVALUES:0.832730,0.905177,0.491310,0.666184,1.024257,700.000000,641.000000,59.000000,80.000000,0.000000,0.000000,0.000000,0.000000,0.000000,0.832730,0.905177,0.491310,0.666184,1.024257,700.000000,641.000000,59.000000,80.000000,0.000000,0.000000,0.000000,0.000000,0.000000;
#CREDIT:;
#DISPLAYBPM:112.000000:172.000000;
#NOTES:
0000
0000
0000
0000
,
0000
0000
0000
0000
,
0000
0000
0000
0000
,
0000
0000
0000
0000
,
0000
0000
0000
0000
,
1100
0000
0000
0000
0101
0000
0000
0000
1000
0100
0001
0100
1000
0000
0120
0000
,
0000
0000
1000
0000
1030
0001
0100
0000
0101
0000
0000
1100
0000
0000
0011
0000
,
0000
0000
1002
0000
0203
0000
0000
0000
0301
0010
1000
0010
0001
0000
0012
0000
,
0000
0000
1003
0001
0010
0100
1000
0000
0001
0100
0010
0100
0010
1000
0001
0000
,
0011
0000
0000
0000
1010
0000
0000
0000
0001
0100
1000
0100
0001
0000
2001
0000
,
0000
0000
0010
0000
3010
1000
0100
0000
0110
0000
0000
0011
0000
0000
1100
0000
,
0000
0000
2001
0000
3200
0000
0000
0000
1300
0010
0001
0010
1000
0000
0001
0200
,
0000
0310
0100
0001
1000
0100
1000
0000
0202
0000
0000
0000
0303
0000
1000
0001
,
1000
0000
1100
0000
1100
0000
0100
0000
0010
0000
0001
1000
0000
0001
0100
0000
,
1001
0000
0010
1000
0100
0010
0001
0000
0100
0001
0010
0100
1000
0010
1000
0001
,
0010
0000
0001
1000
0010
1000
0100
0010
0002
0000
0000
2003
0000
0000
3010
0000
,
0000
0000
0110
0000
1000
0010
1000
0001
0010
0000
0100
1000
0100
0010
0002
0000
,
0000
0000
0010
0000
0013
0001
0100
0010
2000
0000
3002
0000
0103
0000
2020
0000
,
0030
0000
0001
0001
3001
0000
1000
1000
1000
0000
0010
0010
0010
0000
0100
0100
,
0200
0302
0023
0230
1300
0001
2002
3003
,
0110
0000
1000
0010
0100
0010
1000
0000
0001
0010
0001
0100
0010
1000
0001
0100
,
0001
0000
0010
0100
1000
0010
1000
0100
0020
0000
0000
0031
0000
0000
0202
0000
,
0300
0000
1000
1000
1003
0000
0001
0001
0001
0000
0100
0100
0100
0000
0010
0010
,
0020
0000
0000
1000
0000
0000
0001
0000
0000
1000
0000
0000
0130
0000
0000
0000
,
0110
0000
0100
0001
0010
0100
0010
0000
0001
1000
0100
1000
0010
1000
0001
0100
,
0010
0000
1000
0100
0010
0001
0010
0100
1000
0001
1000
0010
1000
0100
0010
0001
,
0200
0000
0301
0010
1000
0010
0002
0000
1003
0010
0100
0001
1000
0100
0010
0001
,
0020
0000
0031
0100
0010
0001
0010
1000
0100
0000
0000
1100
0000
0000
0101
0000
,
0000
0000
1002
0000
0013
0001
0100
0010
2000
0000
3100
0010
0001
1000
0200
0000
,
0000
0000
1000
0000
1300
0010
0100
0001
0020
0000
0100
0000
0031
0000
2002
0000
,
0003
0000
0100
0100
3200
0000
1000
1000
2300
0000
0001
0001
3002
0000
0010
0010
,
0023
0032
2003
3020
0130
0001
0220
0330
,
2001
0000
3100
1000
0100
0001
0200
0000
1300
0010
0001
0010
1000
0010
0001
0010
,
2000
0000
3100
0010
0001
0100
0010
1000
0001
0000
0000
0011
0000
0000
2020
0000
,
3000
0000
1000
1000
2030
0000
0100
0100
3200
0000
0010
0010
0320
0000
0001
0001
,
0032
0000
0000
0100
0000
0000
0010
0000
0000
0100
0000
0000
1003
0000
0000
0000
,
2010
0000
3010
0100
0001
0010
0200
0000
1300
0010
1000
0100
1000
0001
0010
0100
,
2000
0000
3001
1000
0100
0010
0001
1000
0001
0010
0100
1000
0100
0010
0001
0000
,
2002
0000
0000
0000
0003
0200
3000
1300
,
1001
0000
0010
1000
0010
1000
0100
0010
0001
0000
0100
0001
0100
0001
0010
0100
,
1000
0000
0010
1000
0100
0010
0100
1000
0001
0000
0000
0001
0000
0000
0001
0000
,
0000
0000
1000
0100
1000
0000
0001
0100
0010
0100
0010
1000
0100
0010
0001
0010
,
0100
0010
0100
0010
0100
1000
0100
1000
0002
0000
2003
0000
3002
0000
2003
0000
,
0000
0000
0000
3010
1000
0100
1000
0100
1000
0001
1000
0001
0010
0001
0100
0010
,
1000
0001
1000
0001
0010
0001
0010
0001
0100
0010
0100
0010
1000
0100
1000
0100
,
0010
0000
0001
1000
0001
0000
1000
0001
1000
0000
0010
0100
0010
0000
0100
0010
,
0100
0000
0001
0010
0001
0000
1000
0100
1000
0010
0100
0001
0010
0100
1000
0001
,
0010
0000
0001
1000
0001
0000
1000
0001
1000
0000
1010
0000
0000
0000
0202
0000
,
0300
0000
0103
0010
0100
0000
0010
0100
0010
0000
1010
0000
0000
0000
2200
0000
,
0300
0000
3001
1000
0001
0000
1000
0100
0010
0001
0010
0001
0100
0010
1000
0100
,
1000
0010
1000
0010
1000
0100
1000
0100
0010
0001
0010
0001
0100
0001
0100
0001
,
1000
0100
0000
0001
0100
0000
1000
0100
0000
0001
0100
0000
1000
0100
0000
0001
,
0100
0000
1000
0100
0000
0001
0100
0000
1100
0000
0000
0011
0000
0000
1010
0000
,
0000
0000
0000
0010
0100
0000
0001
1000
0001
0010
0100
1000
0010
1000
0001
0100
,
0001
1000
0100
1000
0001
0000
0000
0000
0011
0000
0101
0000
0110
0000
2002
0000
,
3000
0000
1003
0010
0100
0000
0001
1000
0100
0010
0100
0010
0001
0100
0010
1000
,
0001
1000
0010
1000
0100
0010
0100
1000
0010
1000
0001
0100
0001
0000
0022
0000
,
0030
0000
1003
0100
0000
0010
0001
0000
0100
0000
0001
0010
0000
0100
1000
0000
,
0010
1000
0010
1000
0100
0010
0100
0010
0100
1000
0001
0100
0001
0010
0001
0000
,
2000
0000
3010
0100
0010
0000
2010
0000
3001
0000
0100
0000
1000
0000
0000
0000
,
0001
0000
0100
0010
0200
0000
0000
0301
1000
0100
0010
0001
1000
0010
0200
0000
,
0000
0000
0301
0010
0100
0010
0100
1000
0010
1000
0010
1000
0001
0100
0001
0100
,
0001
0010
0100
1000
0010
1000
0001
0000
1001
0000
0000
1010
0000
0000
0110
0000
,
0000
0000
1000
0001
1000
0000
0000
0000
0011
0000
0000
1001
0000
0000
0101
0000
,
0000
0000
0001
1000
0100
0010
0100
0000
1100
0000
0000
0101
0000
0000
2002
0000
,
0000
0000
0000
0000
,
0000
0000
0000
0000
0000
0000
0000
3003
,
0000
0000
0000
0000
0000
0000
0000
0000
0000
0000
0000
0000
0220
0000
0000
0330
;

//---------------dance-solo - ----------------
#NOTEDATA:;
#CHARTNAME:;
#STEPSTYPE:dance-solo;
#DESCRIPTION:;
#CHARTSTYLE:;
#DIFFICULTY:Beginner;
#METER:5;
#RADARVALUES:0.217699,0.253878,0.133237,0.116582,0.000000,183.000000,167.000000,16.000000,14.000000,0.000000,0.000000,0.000000,0.000000,0.000000,0.217699,0.253878,0.133237,0.116582,0.000000,183.000000,167.000000,16.000000,14.000000,0.000000,0.000000,0.000000,0.000000,0.000000;
#CREDIT:;
#DISPLAYBPM:112.000000:172.000000;
#NOTES:
000000
000000
000000
000000
,
000000
000000
000000
000000
,
000000
000000
000000
000000
,
000000
000000
000000
000000
,
000000
000000
000000
000000
,
000010
000000
010000
000000
,
000010
000000
001000
001000
,
000000
000010
000010
000000
,
010000
000000
001000
000000
,
010000
000000
000010
000000
,
001000
000000
000010
000010
,
000000
010000
010000
000000
,
001000
000000
011000
000000
,
020020
000000
000000
030030
,
010000
000000
000010
000000
,
010000
000000
001000
001000
,
000000
001000
001000
000000
,
010000
000000
000010
000010
,
000000
001000
000000
001000
,
000010
010000
000000
010010
,
010000
000000
010000
000000
,
001000
000000
010000
010000
,
000000
000010
000010
000010
,
001000
001000
000010
010000
,
001000
000000
001000
000000
,
020020
000000
000000
030030
,
000010
000010
010000
000000
,
010000
000010
001000
001000
,
000000
001010
000010
010000
,
000000
010000
000010
001000
,
000010
000010
000010
000010
,
010000
001000
000000
010010
,
010000
000010
001000
000000
,
000010
000010
010000
000010
,
000000
001000
001000
001000
,
000010
010000
000010
010000
,
001000
010000
000010
000000
,
001000
001000
000010
010000
,
020020
000000
000000
030030
,
000010
000000
000010
000000
,
010000
000000
010000
000010
,
001000
000000
000010
000000
,
010000
000000
001000
010000
,
000000
000010
000010
000010
,
000010
010000
000010
010000
,
000000
010000
010000
010000
,
010000
000010
010000
000010
,
002020
000000
003030
000000
,
022000
000000
033000
000000
,
010010
000000
010000
000010
,
020020
000000
000000
030030
,
010000
001000
000010
000000
,
000010
001000
010000
000000
,
000000
010010
000010
010000
,
001000
001000
010000
000010
,
000000
001000
001000
001000
,
000010
010000
000010
010000
,
000000
001000
001000
001000
,
010000
000010
010000
000010
,
001000
000010
010000
000000
,
010000
001000
000010
000000
,
001000
001000
001000
001000
,
000010
010000
001000
010010
,
000000
000000
001000
010010
,
000000
000000
001000
000000
,
020020
000000
000000
000000
,
000000
000000
000000
000000
,
030030
000000
000000
010010
;

//---------------dance-solo - ----------------
#NOTEDATA:;
#CHARTNAME:;
#STEPSTYPE:dance-solo;
#DESCRIPTION:;
#CHARTSTYLE:;
#DIFFICULTY:Easy;
#METER:8;
#RADARVALUES:0.324765,0.366713,0.358074,0.191528,0.000000,273.000000,230.000000,43.000000,23.000000,0.000000,0.000000,0.000000,0.000000,0.000000,0.324765,0.366713,0.358074,0.191528,0.000000,273.000000,230.000000,43.000000,23.000000,0.000000,0.000000,0.000000,0.000000,0.000000;
#CREDIT:;
#DISPLAYBPM:112.000000:172.000000;
#NOTES:
000000
000000
000000
000000
,
000000
000000
000000
000000
,
000000
000000
000000
000000
,
000000
000000
000000
000000
,
000000
000000
000000
000000
,
000100
100100
100000
000010
,
001000
001000
001001
101000
,
000000
010000
000010
000000
000100
000000
001000
000000
,
100000
000100
001100
100001
,
000001
000101
010000
001000
,
100000
100000
100010
010001
,
000000
000100
001000
000000
000010
000000
010000
000000
,
001000
100000
020020
030030
,
001000
000100
010000
000010
,
100000
001000
010000
000010
,
000100
000001
011000
001010
,
000000
100000
000100
000000
001000
000000
000010
010000
,
000000
000001
001000
000000
000100
000000
000100
200000
,
000000
000010
000001
000010
,
300001
100000
000001
100000
000000
000000
001100
000000
,
000010
000100
000001
010000
,
001000
000000
100000
000000
101000
000000
000000
000120
,
000000
010000
100000
010000
,
100030
000001
001000
010010
,
000100
001000
000001
100000
,
000020
020000
000000
030030
,
010010
001000
000001
100000
,
000010
001000
001100
010010
,
000001
100000
000010
000000
001000
000000
000100
010000
,
000000
001000
100000
000000
000100
000000
010000
000020
,
000000
001000
010000
001000
,
010030
000010
010000
000010
000000
000000
001100
000000
,
000100
100000
001000
010000
,
000001
000000
000010
000000
000110
000000
000000
102000
,
000000
000010
010000
000010
,
013000
000010
001000
100001
,
000001
000100
000010
001000
,
100000
000000
010000
000000
000100
001000
000100
001000
,
000002
000000
000000
000003
,
010010
001000
000001
000100
,
000010
010000
100100
001001
,
000000
010010
010000
001000
,
100000
000000
000001
000000
001000
000100
001000
000100
,
000000
010100
000100
001000
,
000001
000100
000010
010000
,
000002
000203
002300
203000
,
300020
000000
020030
000000
030010
010000
000010
010000
,
002000
000000
000000
000000
000000
103000
000000
201000
,
000000
000000
000000
000000
000000
300001
000000
100002
,
000000
000000
000100
010003
,
002200
000000
000000
003300
,
000010
010000
001000
100001
,
000100
000010
000101
101000
,
000000
010010
000100
001000
,
000010
000000
010000
000000
000001
100000
000001
100000
,
000000
011000
000100
001000
,
000010
000100
000001
010000
,
000001
000001
100000
100000
,
000100
000100
001000
001000
,
000010
000000
001000
000000
000010
010000
000000
000000
,
001000
000000
100000
000000
000001
100000
000000
100200
,
000000
001000
000010
010000
,
000001
000000
100300
000000
100100
000000
000000
001001
,
000000
000000
000000
000000
101000
000000
000000
000101
,
000000
000000
000000
000000
001100
000000
000000
200002
,
000000
000000
000000
000000
,
000000
000000
000000
000000
,
300003
000000
000000
010010
;

//---------------dance-solo - ----------------
#NOTEDATA:;
#CHARTNAME:;
#STEPSTYPE:dance-solo;
#DESCRIPTION:;
#CHARTSTYLE:;
#DIFFICULTY:Medium;
#METER:11;
#RADARVALUES:0.460381,0.507757,0.266473,0.383056,0.095764,387.000000,355.000000,32.000000,46.000000,0.000000,0.000000,0.000000,0.000000,0.000000,0.460381,0.507757,0.266473,0.383056,0.095764,387.000000,355.000000,32.000000,46.000000,0.000000,0.000000,0.000000,0.000000,0.000000;
#CREDIT:;
#DISPLAYBPM:112.000000:172.000000;
#NOTES:
000000
000000
000000
000000
,
000000
000000
000000
000000
,
000000
000000
000000
000000
,
000000
000000
000000
000000
,
000000
000000
000000
000000
,
011000
000000
001010
000000
000100
001000
000001
010000
,
000000
000000
010000
000000
000010
000000
000100
000000
000002
000000
000000
200003
000000
000000
300010
000000
,
000000
001000
100001
000000
000100
000010
010000
000001
,
000000
000000
000001
000000
000100
000000
001000
000000
100000
000000
000000
000010
000000
000000
010000
000000
,
010100
000000
000110
000000
000001
010000
000100
001000
,
000000
000000
001000
000000
000010
000000
100000
000000
000002
000000
000000
020003
000000
000000
030100
000000
,
000000
100000
001100
000000
000010
010000
000001
001000
,
000000
001000
000100
010000
020020
000000
030030
000000
,
000010
000010
010000
010000
000010
000010
010000
010000
,
000100
100000
001000
010000
000010
000100
000001
100000
,
001000
000000
100000
000000
000001
000000
100000
000000
000200
000000
000000
020300
000000
000000
030010
000000
,
000000
101000
100000
000001
000100
001000
010000
000020
,
000000
000100
000130
000010
100000
000001
100000
000002
,
000000
001003
000200
000000
020300
000000
030020
000000
,
010030
001000
000100
000010
000000
000000
100001
000000
,
000010
000100
000001
001000
000010
100000
000001
010000
,
001000
000000
100000
000000
001000
000000
010000
000000
000002
000000
000000
200003
000000
000000
300200
000000
,
000000
100300
000002
000000
020003
000000
032000
000000
,
203000
000000
000000
000010
000000
000000
010000
000000
000000
000010
000000
000000
310000
000000
000000
000000
,
000001
100000
001000
010000
000100
010000
000010
000100
,
001000
100000
000001
000000
000000
010000
000010
000100
,
000001
001000
000010
000100
001000
100000
000001
010000
,
000001
000000
000100
000000
001000
000000
100000
000000
000020
000000
000000
020030
000000
000000
030001
000000
,
000000
001001
100000
000100
010000
001000
000100
000020
,
000000
010000
010030
000010
100000
000100
001000
000002
,
000000
010003
002000
000000
203000
000000
300200
000000
,
010300
000100
001000
000010
000000
000000
100001
000000
,
001000
010000
000100
100000
001000
010000
000010
000100
,
000001
000000
000100
000000
000010
000000
001000
000000
000002
000000
000000
200003
000000
000000
302000
000000
,
000000
103000
000020
000000
020030
000000
030002
000000
,
200003
000000
000000
000010
000000
000000
010000
000000
000000
000010
000000
000000
310000
000000
000000
000000
,
000100
001000
000001
000100
000010
010000
001000
100000
,
000010
010000
000100
001000
000001
000100
001000
100000
,
200002
000000
000000
300003
,
010010
000000
001000
100000
000010
010000
000001
000100
,
001000
000000
000000
000000
000010
000000
010000
000000
000002
000000
000000
200003
000000
000000
300100
000000
,
000000
000000
010100
000000
000100
001000
000001
100000
,
001000
010000
000010
000000
000001
000100
001000
100000
,
000000
000000
101000
000000
000001
001000
100000
000000
,
000001
000100
000001
000100
000010
010000
001000
100000
,
000010
000100
000001
000000
010000
001000
100000
000000
,
000100
001000
000010
000000
010000
001000
010000
000001
,
000200
000000
000010
000000
000301
000101
000000
100020
,
000000
000000
001000
000000
100030
101000
000000
020001
,
000000
000000
030010
000000
001000
000100
100000
000001
,
002200
000000
000000
003300
,
010000
000000
000000
000010
000000
000000
000100
000000
000000
000010
000000
000000
010000
000000
000000
000000
,
001000
000000
000000
100000
000000
000000
000010
000000
000100
000000
000000
000001
000000
000000
010000
000000
,
000000
000000
000110
000010
100000
001000
010000
000100
,
001000
000001
100000
000000
010000
000100
001000
000010
,
000000
000000
001001
000000
100000
001000
000001
000000
,
010000
000100
001000
000100
010000
000010
001000
000000
,
000001
000000
000000
000100
000000
000000
001000
000000
100000
000000
000000
000010
000000
000000
010000
000000
,
001000
000000
000000
100000
000000
000000
000100
000000
010000
000000
000000
000001
000000
000000
000010
000000
,
010000
001000
100000
000010
000100
000001
000000
000000
,
010000
000100
001000
000010
100000
000001
000100
002000
,
000000
103000
001000
100000
000100
001000
000010
010000
,
001000
000000
000100
000000
000001
000000
000000
000000
101000
000000
000000
001100
000000
000000
000101
000000
,
000000
000000
000000
000000
000000
000000
000000
000000
001001
000000
000000
100001
000000
000000
100100
000000
,
000000
000000
000000
000000
000000
000000
000000
000000
100001
000000
000000
001100
000000
000000
020020
000000
,
000000
000000
000000
000000
,
000000
000000
000000
000000
,
030030
000000
000000
010010
;

//---------------dance-solo - ----------------
#NOTEDATA:;
#CHARTNAME:;
#STEPSTYPE:dance-solo;
#DESCRIPTION:;
#CHARTSTYLE:;
#DIFFICULTY:Hard;
#METER:13;
#RADARVALUES:0.619789,0.677009,0.449674,0.424692,0.387219,521.000000,467.000000,54.000000,51.000000,0.000000,0.000000,0.000000,0.000000,0.000000,0.619789,0.677009,0.449674,0.424692,0.387219,521.000000,467.000000,54.000000,51.000000,0.000000,0.000000,0.000000,0.000000,0.000000;
#CREDIT:;
#DISPLAYBPM:112.000000:172.000000;
#NOTES:
000000
000000
000000
000000
,
000000
000000
000000
000000
,
000000
000000
000000
000000
,
000000
000000
000000
000000
,
000000
000000
000000
000000
,
100001
000000
000000
000000
010010
000000
000000
000000
000100
001000
000100
001000
000100
000000
200000
000000
,
000000
000000
300001
000000
000100
000010
001000
000000
001001
000000
000000
010010
000000
000000
100100
000000
,
000000
000000
101000
000000
100001
000000
000000
000000
010000
000010
010000
000010
010000
000000
000002
000000
,
000000
000000
010003
000000
001000
100000
000001
000000
000100
000000
000010
010000
000000
000010
100000
000000
,
101000
000000
000000
000000
000101
000000
000000
000000
000010
010000
000010
010000
000010
000000
000200
000000
,
000000
000000
000301
000000
100000
000010
001000
000000
001100
000000
000000
010010
000000
000000
100001
000000
,
000000
000000
000101
000000
001001
000000
000000
000000
001000
000010
001000
000010
001000
000000
000001
100000
,
000000
000000
001000
100000
000001
100000
001000
000000
020020
000000
000000
000000
030030
000000
100000
000001
,
100000
000000
100000
000000
000001
000000
000001
000000
001000
000000
000010
010000
000000
000010
010000
000000
,
000100
000000
100000
001000
100000
000000
000100
000000
001000
000001
001000
000000
000010
000000
010000
000000
,
000100
000000
100000
000000
000010
010000
000010
010000
000001
000000
000000
001100
000000
000000
101000
000000
,
000000
000000
000011
000000
010000
001000
010000
001000
010000
000000
000100
000000
001000
000010
200000
000000
,
000000
000000
001000
000000
301000
100000
000001
000000
020000
000000
030020
000000
020030
000000
030020
000000
,
000000
010030
001000
010000
000010
000100
001000
100000
,
000002
000203
002300
203000
300000
000000
001001
000000
,
010000
000000
000001
000100
000001
000000
001000
000000
000010
100000
000010
000000
100000
000000
000100
000000
,
001000
000000
000010
010000
000010
010000
000010
000000
000110
000000
000000
001100
000000
000000
012000
000000
,
000000
103000
000010
000100
001000
010000
000001
001000
,
000002
000000
000000
000203
000000
000000
000320
000000
000000
020030
000000
000000
032000
000000
000000
000000
,
103000
000000
000100
001000
000100
000000
010000
000000
000001
000100
000010
000000
001000
000000
000001
000000
,
100000
000000
000100
001000
000100
000000
000000
000000
000000
000000
010000
000000
000001
000000
000010
000000
,
001000
000000
000010
000100
000010
000000
100000
000000
001000
010000
001000
000000
100000
000000
000001
000000
,
000100
000000
000010
000000
100000
001000
100000
001000
010000
000000
000000
000101
000000
000000
100010
000000
,
000000
000000
011000
000000
010000
000010
010000
000010
010000
000000
000100
000000
001000
000001
200000
000000
,
000000
000000
000001
000000
300001
100000
001000
000000
020000
000000
030020
000000
020030
000000
030020
000000
,
000000
000130
001000
100000
000100
010000
000010
001000
,
000002
000203
002300
203000
300000
000000
001001
000000
,
000100
000000
010000
000010
010000
000000
001000
000000
100000
000001
100000
000000
000100
000000
001000
000000
,
000010
000000
100000
000100
100000
000100
100000
000000
101000
000000
000000
000101
000000
000000
020010
000000
,
000000
030001
010000
000010
000100
001000
100000
000001
,
020000
000000
000000
030200
000000
000000
002300
000000
000000
003002
000000
000000
200003
000000
000000
000000
,
300010
000000
010000
001000
010000
000000
000100
000000
001000
000001
001000
000000
000010
000000
100000
000000
,
001000
000000
010000
000000
000010
000000
001000
000000
000001
100000
000001
100000
000100
010000
000010
000000
,
200002
000000
000000
000000
000003
002000
300000
103000
,
000001
001000
000100
001000
000010
100000
001000
010000
,
000100
000000
001000
000001
001000
000000
000100
100000
000100
000000
000000
010100
000000
000000
100100
000000
,
000000
000000
000000
000000
011000
000000
000001
000100
000001
000000
010000
000000
000010
000000
001000
000000
,
000100
100000
000100
100000
000100
000000
000000
000000
020000
000000
032000
000000
003200
000000
000320
000000
,
000000
010030
000010
000100
001000
100000
000001
100000
,
000100
000000
100000
000000
001000
000000
000100
000000
000001
000000
001000
000000
000100
000000
010000
000010
,
010000
000000
000000
010000
000001
000000
000000
000001
100000
000000
000000
100000
000010
000000
000000
000010
,
000100
000000
000000
000100
001000
000000
000000
001000
100000
000000
000100
001000
000100
000000
100000
000001
,
100000
001000
010000
001000
100000
101000
000000
001001
,
000000
000001
000100
001000
100000
100100
000000
000101
,
000000
000000
010000
001000
100000
000001
000100
000010
,
002200
000000
000000
003300
,
010000
001000
000000
001000
000010
000000
010000
000100
000000
000100
000010
000000
100001
000000
000000
000000
,
000001
000000
010000
001000
000000
010000
001000
000000
101000
000000
000000
010010
000000
000000
000101
000000
,
000000
000000
001010
000010
000100
001000
100000
000001
,
010000
000010
010000
000010
010000
000000
000000
000000
000002
000000
000203
000000
002300
000000
203000
000000
,
000000
300100
100000
000010
000100
001000
000100
000001
,
010000
000010
000100
001000
100000
000010
010000
001000
,
000100
000001
000100
001000
100000
000010
010000
000010
,
000100
001000
100000
000010
010000
000001
001000
000100
,
100000
000000
000010
000100
000010
000000
010000
000000
000001
000000
001000
000000
000001
000000
000000
000000
,
100000
000000
001000
010000
001000
000000
000000
000100
000001
000000
010000
000000
000010
000000
002001
000000
,
000000
003001
001000
000100
010000
000010
000100
001000
,
100000
000100
100000
000100
100000
000000
000000
000000
101000
000000
000000
001100
000000
000000
000101
000000
,
000000
000000
100000
000000
000001
000000
000000
000000
001001
000000
000000
100001
000000
000000
100100
000000
,
000000
000000
000100
000000
001000
000000
000000
000000
001100
000000
000000
010010
000000
000000
200002
000000
,
000000
000000
000000
000000
,
000000
000000
000000
000000
,
300003
000000
000000
010010
;

//---------------dance-solo - ----------------
#NOTEDATA:;
#CHARTNAME:;
#STEPSTYPE:dance-solo;
#DESCRIPTION:;
#CHARTSTYLE:;
#DIFFICULTY:Challenge;
#METER:17;
#RADARVALUES:0.842247,0.874470,0.507965,0.283128,1.061730,708.000000,647.000000,61.000000,34.000000,0.000000,0.000000,0.000000,0.000000,0.000000,0.842247,0.874470,0.507965,0.283128,1.061730,708.000000,647.000000,61.000000,34.000000,0.000000,0.000000,0.000000,0.000000,0.000000;
#CREDIT:;
#DISPLAYBPM:112.000000:172.000000;
#NOTES:
// measure 0
000000
000000
000000
000000
,  // measure 1
000000
000000
000000
000000
,  // measure 2
000000
000000
000000
000000
,  // measure 3
000000
000000
000000
000000
,  // measure 4
000000
000000
000000
000000
,  // measure 5
001100
000000
000000
000000
010010
000000
000000
000000
000100
100000
001000
100000
000100
001000
000020
000000
,  // measure 6
000000
000000
000130
000000
000010
001000
000010
010000
001000
000000
000000
101000
000000
000000
001001
000000
,  // measure 7
000000
000000
010010
000000
100001
000000
000000
000000
000100
001000
000010
001000
000001
100000
002000
000000
,  // measure 8
000000
000000
013000
000000
000100
001000
000010
000000
100000
001000
010000
000100
010000
000010
000100
000000
,  // measure 9
000101
000000
000000
000000
101000
000000
000000
000000
000010
010000
001000
010000
000010
000100
000002
000000
,  // measure 10
000000
000000
010003
000000
001000
100000
000100
001000
000010
000000
000000
000110
000000
000000
010100
000000
,  // measure 11
000000
000000
010010
000000
001100
000000
000000
000000
000001
000100
000010
000100
000001
001000
000100
100000
,  // measure 12
000000
100000
001000
010000
000010
000100
000001
000000
020020
000000
000000
000000
030030
000000
100000
000001
,  // measure 13
100000
000000
100001
000000
000001
000000
100001
000000
001000
000000
000010
000010
000000
010000
010000
000000
,  // measure 14
001100
000000
000100
001000
000010
001000
000100
000000
100000
000001
100000
000001
010000
000010
010000
000010
,  // measure 15
000100
000000
000001
001000
000001
001000
000100
010000
000020
000000
000000
200030
000000
000000
301000
000000
,  // measure 16
000000
000000
011000
000000
000001
000100
000010
000100
000001
000000
100000
001000
010000
001000
200000
000000
,  // measure 17
000000
000000
000010
000000
300010
100000
001000
100000
000100
000000
010000
000000
000001
000000
100200
000000
,  // measure 18
000000
000000
001300
000100
010000
000000
000010
100000
000001
000000
000100
000010
010000
000000
000001
100000
,  // measure 19
002000
000010
100000
000001
013000
000100
100001
000000
,  // measure 20
001001
000000
010000
000010
000100
000010
010000
000000
001000
100000
001000
100000
000001
010000
000001
000100
,  // measure 21
001000
000000
100000
000100
010000
000001
001000
000010
000200
000000
000000
000301
000000
000000
001020
000000
,  // measure 22
000000
000000
000130
000010
100000
000000
001000
010000
000001
000000
000100
000010
001000
000000
000001
100000
,  // measure 23
020000
000000
000000
032000
000000
000000
003020
000000
000000
200030
000000
000000
300001
000000
000000
000000
,  // measure 24
010100
000000
001000
010000
000010
010000
001000
000000
000100
000001
000100
000010
100000
000001
100000
000010
,  // measure 25
000100
000000
000001
001000
000100
010000
000010
100000
001000
000000
010000
000100
001000
000010
100000
000001
,  // measure 26
000100
000000
000010
010000
001000
010000
000001
000000
000100
000010
001000
000100
100000
001000
010000
000001
,  // measure 27
000100
000000
000010
001000
000100
001000
000010
010000
000001
000000
000000
101000
000000
000000
001001
000000
,  // measure 28
000000
000000
000110
000000
100000
000010
000100
001000
010000
000000
000001
000100
000010
010000
000002
000000
,  // measure 29
000000
000000
100000
000000
100003
000100
001000
000010
010000
000000
000001
000000
100000
000000
002010
000000
,  // measure 30
000000
000000
003100
001000
000100
001000
000010
010000
000010
010000
000001
100000
000001
100000
000100
001000
,  // measure 31
000020
010000
000100
000001
100030
001000
100001
000000
,  // measure 32
100100
000000
000010
010000
001000
000100
001000
000000
100000
000001
100000
000010
000100
000001
010000
001000
,  // measure 33
100000
000000
000100
001000
000010
001000
000100
010000
000001
000000
000000
000101
000000
000000
200010
000000
,  // measure 34
000000
000000
300001
100000
000001
100000
000010
010000
000010
010000
000100
001000
000100
001000
000010
010000
,  // measure 35
000002
000000
000000
200003
000000
000000
300020
000000
000000
020030
000000
000000
031000
000000
000000
000000
,  // measure 36
011000
000000
000010
100000
001000
100000
010000
000000
000010
000100
000010
001000
000001
000010
000001
100000
,  // measure 37
000010
000000
010000
001000
010000
000100
001000
000001
100000
000010
100000
001000
010000
000010
010000
000000
,  // measure 38
200002
000000
000000
000000
000003
000002
300000
100003
,  // measure 39
110000
000000
010000
100000
000100
001000
000100
001000
000001
000000
010000
000010
010000
000010
000100
001000
,  // measure 40
100000
000000
000001
000010
000001
001000
000100
010000
001000
000000
000000
101000
000000
000000
010010
000000
,  // measure 41
000000
000000
000001
010000
000001
000000
000100
000010
100000
001000
100000
001000
010000
000100
001000
000001
,  // measure 42
000100
000010
000100
000001
001000
000000
000000
000000
001001
000000
001100
000000
100100
000000
100001
000000
,  // measure 43
000000
000000
000000
100000
000001
000000
000100
000010
001000
000100
001000
000001
010000
000010
010000
001000
,  // measure 44
100000
000100
100000
000100
010000
000100
010000
000100
001000
000010
001000
000010
001000
000001
001000
000001
,  // measure 45
000100
000000
000010
010000
001000
000000
100000
000001
010000
000000
000001
000100
000010
000000
100000
001000
,  // measure 46
010000
000000
000100
001000
000010
000000
100000
000001
010000
001000
010000
000010
000100
001000
100000
000001
,  // measure 47
001000
000000
000010
010000
000010
000000
010000
000010
010000
000000
011000
000000
000000
000000
000110
000000
,  // measure 48
000000
000000
100000
000001
100000
000000
000001
100000
000001
000000
000011
000000
000000
000000
220000
000000
,  // measure 49
000000
000000
000000
000000
330000
000000
100000
000001
000100
000010
000100
000010
010000
001000
010000
001000
,  // measure 50
100000
001000
000100
000001
010000
000100
001000
000010
100000
000001
000100
001000
010000
000010
001000
000100
,  // measure 51
100000
001000
000000
000001
001000
000000
010000
001000
000000
000010
001000
000000
001100
000000
000000
000000
,  // measure 52
100010
000000
000100
000001
000000
001000
000100
001000
000020
000000
000000
020030
000000
000000
030001
000000
,  // measure 53
100000
000000
000000
000000
001001
000000
000001
100000
001000
010000
001000
010000
000010
000100
000010
000100
,  // measure 54
000001
100000
000100
100000
000001
000000
000000
000000
011000
000000
001100
000000
000110
000000
010010
000000
,  // measure 55
000000
000000
001000
000100
001000
000000
000001
000100
000010
100000
000010
100000
000001
010000
000001
010000
,  // measure 56
001000
100000
000100
100000
000010
010000
000001
010000
000010
000100
000010
001000
000001
100000
010000
000000
,  // measure 57
000010
001000
000010
001000
000000
000100
010000
000000
100000
000001
100000
000001
000000
010000
000100
000000
,  // measure 58
100000
000010
010000
001000
000000
000100
000001
000000
100000
000001
000100
001000
000000
010000
000010
000000
,  // measure 59
100100
000000
100000
001000
010000
000010
000100
000001
001000
000000
000100
000000
100000
000000
000000
000000
,  // measure 60
001010
000000
000001
100000
001000
000000
000000
010000
000100
100000
000100
001000
000010
010000
000020
000000
,  // measure 61
000000
000000
000130
000001
100000
000010
010000
001000
100000
000100
001000
000010
010000
000001
100000
000010
,  // measure 62
010000
000100
001000
000010
100000
000001
010000
000010
001000
000000
000000
001001
000000
000000
100001
000000
,  // measure 63
000000
000000
100000
001000
100000
000000
000000
000000
010100
000000
000000
000011
000000
000000
101000
000000
,  // measure 64
000000
000000
000010
010000
000100
010000
000010
000000
000101
000000
000000
110000
000000
000000
002020
000000
,  // measure 65
000000
000000
000000
000000
,  // measure 66
000000
000000
000000
000000
,  // measure 67
003030
000000
000000
010010
;
