#VERSION:0.83;
#TITLE:Symmetric;
#SUBTITLE:;
#ARTIST:ISOMERZ(DJ Raisei + seatrus);
#TITLETRANSLIT:;
#SUBTITLETRANSLIT:;
#ARTISTTRANSLIT:;
#GENRE:;
#ORIGIN:;
#CREDIT:;
#BANNER:Symmetric-bn.png;
#BACKGROUND:Symmetric-bg.png;
#PREVIEWVID:;
#JACKET:Symmetric-jacket.png;
#CDIMAGE:;
#DISCIMAGE:;
#LYRICSPATH:;
#CDTITLE:;
#MUSIC:Symmetric.ogg;
#OFFSET:1.000000;
#SAMPLESTART:83.000000;
#SAMPLELENGTH:20.000000;
#SELECTABLE:YES;
#DISPLAYBPM:200.000000;
#BPMS:0.000=200.000;
#STOPS:;
#DELAYS:;
#WARPS:;
#TIMESIGNATURES:0.000=4=4;
#TICKCOUNTS:0.000=4;
#COMBOS:0.000=1;
#SPEEDS:0.000=1.000=0.000=0;
#SCROLLS:0.000=1.000;
#FAKES:;
#LABELS:0.000=Song Start;
#BGCHANGES:;
#KEYSOUNDS:;
#ATTACKS:
;

//---------------dance-single - ----------------
#NOTEDATA:;
#CHARTNAME:;
#STEPSTYPE:dance-single;
#DESCRIPTION:;
#CHARTSTYLE:;
#DIFFICULTY:Hard;
#METER:18;
#RADARVALUES:1.036162,1.257593,0.419424,0.477275,1.012402,1003.000000,945.000000,58.000000,66.000000,0.000000,0.000000,0.000000,0.000000,0.000000,1.036162,1.257593,0.419424,0.477275,1.012402,1003.000000,945.000000,58.000000,66.000000,0.000000,0.000000,0.000000,0.000000,0.000000;
#CREDIT:;
#DISPLAYBPM:200.000000;
#NOTES:
0000
0000
0000
0000
,
0000
0000
0000
0000
,
0000
0000
0000
0000
,
0000
0000
0000
0000
,
0000
0000
0000
0000
,
0000
0000
0000
0000
,
1000
0100
0001
0100
1000
0100
0010
1000
,
0010
0100
0010
0001
0010
1000
0010
0100
,
1000
0010
0001
0010
1000
0010
0100
1000
,
0100
0000
0010
0000
0100
0000
0001
0000
0010
0100
1000
0001
1000
0010
0100
0001
,
0020
0001
0000
1000
0000
0000
0000
0000
,
0100
1000
0000
0001
0000
0000
0130
1000
,
1001
0010
0000
0101
0000
0000
1000
0001
,
0010
0000
0100
0000
1000
0000
0010
0000
0100
0001
1000
0010
1000
0100
0010
0001
,
0100
0010
1000
0100
0001
0100
2000
0001
,
0010
0010
0100
0100
0010
0010
0001
3001
,
1000
0000
1000
0000
0001
0000
0001
0000
0010
0001
1000
0100
0010
0100
1000
0001
,
0100
0000
0000
0000
0001
1000
0100
1000
0001
0000
0010
0000
0110
0000
0000
0000
,
1001
0000
0100
0000
0010
0000
1000
0000
0001
0100
1000
0100
0001
0000
0010
0000
,
0100
1000
0100
0001
0100
0010
0100
1000
0002
0000
0000
0000
0013
0000
0010
0000
,
0001
0000
0100
0000
0010
0000
0001
0010
1000
0100
0010
0100
1000
0000
0001
1000
,
0010
0100
1000
0100
0001
0000
0010
0100
1000
0000
0001
0000
0101
0000
0000
0000
,
0010
0000
0100
0000
0001
0000
0010
0000
0100
1000
0001
0000
0100
0010
1000
0000
,
0001
0010
1000
0010
0100
0010
1000
0010
0001
0000
0100
0000
0010
0001
0010
1000
,
0001
0000
0100
0000
0010
0000
1000
0000
0100
0010
0001
0100
0010
0000
1000
0000
,
1100
0000
0000
0110
0000
0000
0011
0000
0000
0110
0000
0000
1100
0000
0001
0000
,
1001
0000
0000
0000
1000
0010
1000
0010
0100
0001
0100
0001
1000
0000
0100
0000
,
0010
0001
0010
0001
0010
0100
0010
0100
1000
0000
0001
0000
0110
0000
0000
0000
,
1002
0000
0000
0000
0103
0000
0010
0000
1010
0000
1000
0100
0000
0010
0001
0000
,
1000
0100
0001
0100
1000
0000
0010
0100
0001
0000
0010
0100
1000
0000
0000
0000
,
1200
0000
0000
0000
0310
0000
0100
0000
1000
0001
0100
0001
1000
0100
0010
0001
,
0100
0010
0000
0100
0001
1000
0000
0100
0010
0000
0010
0000
0012
0000
0000
0000
,
1000
0000
0100
0000
1000
0000
0100
0000
1003
0000
0010
0100
0000
0100
0001
0000
,
2000
3002
0010
0100
0010
0100
0013
0000
,
1001
0100
0010
1000
0100
0010
0001
0000
,
1000
0001
0100
0010
0001
0010
1000
0000
,
0110
0001
0010
1000
0010
0100
0001
0000
,
1000
0100
1000
0100
0010
0001
0010
0001
0100
0000
0010
0000
1010
0000
0000
0000
,
0101
0000
0001
1000
0001
0000
0010
0100
0010
0030
0100
0010
0100
0000
1000
0001
,
1000
0000
0010
0100
0001
0000
0010
0100
1000
0000
0001
0100
0010
0000
0000
0000
,
1000
0000
0001
0010
0001
0000
1000
0010
1000
0000
0001
0100
0001
0000
1000
0100
,
1000
0000
0010
1000
0001
0000
0010
0100
1000
0000
0010
0100
0001
0000
0000
0000
,
1000
0010
0001
0010
1000
0000
0000
0000
0100
0000
0010
0001
0100
0000
0010
1000
,
0100
0000
1000
0100
0010
0000
0100
0010
0001
0000
0010
0001
1000
0000
0000
0000
,
0110
0000
0110
0000
0000
0101
0000
0000
1100
0000
0000
0011
0000
0000
1000
0001
,
0100
0010
0100
0010
0100
0001
0100
0001
0010
0100
0010
0100
1000
0010
0100
0001
,
1000
0000
0000
0000
1100
0000
0001
0000
0010
0100
0010
0000
0001
1000
0001
0000
,
1000
0100
0010
0000
0100
1000
0001
0000
0100
0001
0010
0000
0001
1000
0010
0000
,
1000
0100
1000
0000
0001
0010
0001
0000
1000
0010
1000
0000
0001
0100
0001
0000
,
0011
0000
0000
1001
0000
0000
1010
0000
0001
1000
0001
0000
1000
0100
0010
0001
,
0100
1000
0100
0001
1000
0000
0000
0000
0001
0010
0100
0000
1000
0010
0100
0000
,
0001
1000
0000
1000
0001
0000
0000
0000
1100
0000
0001
0000
0000
0011
0000
0000
,
1001
0000
0000
1100
0000
0000
0110
0000
0000
0011
0000
0000
0010
0001
1000
0100
,
1000
0010
1000
0010
0100
0001
0100
0001
1000
0100
1000
0100
0010
0001
0010
0001
,
0200
0000
0000
0000
0000
0000
0000
0000
0001
0000
0000
1000
0000
0000
0001
0000
,
0020
0000
0000
0330
,
0002
0000
0000
0000
0000
0000
0000
0000
0010
0000
0000
0100
0000
0000
0010
0000
,
2000
0000
0003
0000
0020
0000
3030
0100
,
0002
2000
0000
0000
0000
0000
3003
0000
,
0020
0000
0000
0230
0000
0000
0302
0000
0000
0000
1003
0000
0001
0100
0010
1000
,
0200
0000
0001
1300
,
0010
0000
1000
0000
0001
0000
0100
0000
0010
0001
1000
0100
1000
0001
0010
0100
,
2000
0001
0000
0010
0000
0000
0000
0000
,
0100
0001
0000
0010
0000
0000
3001
0100
,
0110
1000
0000
1100
0000
0000
0010
0100
,
0001
0000
0010
0000
0100
0000
1000
0000
0010
1000
0100
0001
0010
0100
1000
0001
,
0100
0101
0000
0000
0001
0011
0000
0000
,
1000
1100
0000
0000
0010
1010
0000
0000
,
0001
0100
1000
0100
0010
1000
0001
0010
1000
0001
0010
0100
1000
0100
0010
0001
,
0010
0010
0010
1001
,
0020
0000
0000
2030
0000
0000
3002
0000
0000
0013
0001
0100
0010
0100
0010
1000
,
0200
0000
0000
0320
0000
0000
0032
0000
0000
0000
1003
0000
0001
0010
0100
1000
,
0020
0000
0000
0230
0000
0000
0301
0000
1000
0010
0100
0010
1000
0000
0001
0000
,
0010
0001
0010
0100
1000
0001
1000
0100
1000
0010
0100
0001
0010
0100
1000
0001
,
2000
0000
0000
3020
0000
0000
0230
0000
0000
0302
0000
0000
0013
0100
1000
0001
,
0200
0000
0000
0302
0000
0000
2003
0000
0000
3200
0000
1300
0010
0001
0010
0100
,
0001
0010
0100
1000
0001
0100
0010
1000
,
0002
0000
2003
0000
3020
0000
0230
0000
0000
0000
0000
0000
0301
1000
0100
0010
,
0100
0000
0000
0000
1001
0000
0010
0000
0000
0000
0100
0000
0001
0010
1000
0010
,
0002
0000
0000
2003
0000
0000
3200
0000
0000
0000
1300
0010
0001
0010
0100
0001
,
2000
0000
0000
3200
0000
0000
0320
0000
0032
0000
0000
0203
0000
0000
0320
0000
,
1030
0000
0000
1100
0000
0000
0110
0000
0000
0011
0000
0000
0100
1000
0100
0001
,
0100
0000
0010
1000
0000
1000
0001
0000
0020
0000
0000
0000
0031
0100
1000
0100
,
0001
0000
0010
0100
0000
0100
1000
0000
0002
0000
0000
0000
0203
0000
0000
0000
,
0310
1000
0100
0001
0100
0001
1000
0010
0001
0010
1000
0100
1000
0001
0010
0100
,
2000
0000
0000
3002
0000
0000
0203
0000
0000
0320
0000
0000
1030
0001
0010
0100
,
2000
0010
0000
0001
0000
0000
0000
0000
,
0100
0010
0000
0001
0000
0000
0000
0000
,
0001
0010
0000
0100
0000
0000
0000
0000
,
0100
0001
0000
0010
0000
3002
1000
0000
,
0013
0001
0010
0001
0010
0001
0010
0001
0010
0001
0010
0001
1000
0000
0000
0000
,
0100
1000
0100
1000
0100
1000
0100
1000
0100
1000
0100
1000
0001
0000
0000
0000
,
1000
0100
0010
0001
1000
0010
0100
0001
1000
0100
0010
0001
1000
0010
0100
0001
,
2000
0002
0000
0000
3003
0000
1001
0000
,
0110
0000
0000
0000
0001
0000
0000
0000
1000
0010
0001
0010
1000
0000
0100
0000
,
0010
0001
1000
0000
0010
1000
0001
0000
0010
0100
1000
0000
0001
0000
0100
0000
,
0010
1000
0010
0000
1000
0001
1000
0000
0100
0000
0010
0001
0000
0001
0100
0000
,
0001
1000
0100
0000
1000
0010
0001
0010
1000
0000
0100
0000
0010
0000
0000
0000
,
0001
0000
0100
0000
1000
0000
0000
0000
0010
0100
0001
0100
0010
0000
1000
0000
,
0100
1000
0001
0000
1000
0010
0100
0000
0001
0000
0010
0000
0100
0001
0100
1000
,
0010
0000
0100
0000
0001
0000
0010
0000
1000
0010
0100
0010
0001
1000
0001
0000
,
0101
0000
0000
1100
0000
0000
0101
0000
0000
1100
0000
0000
0010
0100
0010
0100
,
0002
0000
0000
0000
2003
0000
0000
0000
3010
0100
1000
0100
0001
0000
0010
0000
,
1100
0011
0101
1001
,
0010
1000
0010
0000
1000
0100
1000
0000
0001
0100
0001
0000
0010
0001
0010
0000
,
0100
1000
0001
0000
0110
0000
0000
0001
1000
0000
1010
0000
0100
0001
0100
1000
,
0100
0000
0010
0001
1000
0010
0200
0000
,
0001
0000
0001
0000
1000
0000
1000
0000
0301
0000
0010
0100
0010
0000
0000
0000
,
0001
0000
1000
0100
0000
0010
0001
0000
0100
0000
0010
1000
0000
0001
0100
0000
,
0002
0000
0000
0000
1000
0000
1000
0000
1003
0010
0001
0010
0100
1000
0100
0001
,
1000
0010
0001
0010
1000
0010
0100
0010
,
0001
0010
0100
0010
0001
0010
1030
0010
,
0100
1000
0100
0010
0100
1000
0100
0001
,
0100
1000
0100
0001
0010
0100
2000
0002
,
0000
0000
0000
0000
,
0000
0000
0000
0000
0000
0000
0000
0000
3000
0000
0000
0000
0013
0001
0100
1000
;

//---------------dance-single - ----------------
#NOTEDATA:;
#CHARTNAME:;
#STEPSTYPE:dance-single;
#DESCRIPTION:;
#CHARTSTYLE:;
#DIFFICULTY:Medium;
#METER:14;
#RADARVALUES:0.716946,0.879841,0.318183,0.462812,0.376035,694.000000,650.000000,44.000000,64.000000,0.000000,0.000000,0.000000,0.000000,0.000000,0.716946,0.879841,0.318183,0.462812,0.376035,694.000000,650.000000,44.000000,64.000000,0.000000,0.000000,0.000000,0.000000,0.000000;
#CREDIT:;
#DISPLAYBPM:200.000000;
#NOTES:
0000
0000
0000
0000
,
0000
0000
0000
0000
,
0000
0000
0000
0000
,
0000
0000
0000
0000
,
0000
0000
0000
0000
,
0000
0000
0000
0000
,
1000
0100
0010
0001
0100
0010
1000
0100
,
0010
0001
1000
0001
1000
0010
0100
0001
,
0010
0100
1000
0010
0100
0001
0010
0100
,
0010
0001
0100
0010
1000
0100
0010
0001
,
2001
0000
0000
0010
0000
0000
0000
0000
,
0100
0000
0000
0010
0000
0000
3001
1000
,
1100
0000
0000
0110
0000
0000
0001
0000
,
0110
0000
0000
0101
0000
1100
0000
0000
,
0001
0010
0100
1000
0010
0100
0001
0000
,
1000
0100
0010
0001
0100
0010
1000
0000
,
0001
0010
0100
0010
1000
0100
0001
1000
,
0020
0100
0001
1030
,
2001
0000
3002
0000
0013
0001
0100
0010
,
0100
1000
0100
0010
1000
0001
0100
0000
,
0001
0100
1000
0000
0010
0100
0001
0010
,
1000
0010
0100
1000
0001
0100
0010
0000
,
1000
0001
0010
1000
0010
0001
0100
0000
,
0010
0001
0010
1030
0100
0010
0001
0000
,
1000
0001
0010
0100
1000
0010
0100
0001
,
0010
0000
0000
0010
0000
0000
0010
0000
0000
0010
0000
0000
0010
0000
0000
0000
,
2100
0000
3002
0000
0103
0010
0100
0001
,
0010
1000
0010
0100
0010
0001
1001
0000
,
0210
0000
0000
0000
0302
0000
0000
0000
1003
0000
0000
0010
0000
0000
0100
0000
,
0001
0010
1000
0010
0100
1000
0001
0000
,
0011
0000
0100
0001
1000
0100
0010
0000
,
0001
0100
1000
0100
0001
0010
0100
0000
,
1000
0000
0010
0000
0100
0000
0001
0000
0010
0000
0000
0100
0000
0000
1000
0000
,
0201
0001
1000
0310
,
1001
0000
0001
0010
0100
1000
0001
0000
,
1000
0000
0010
0100
0001
1000
0100
0000
,
0110
0000
1000
0010
0100
0001
0010
0000
,
0100
0000
0010
0100
1000
0001
0010
0000
,
0001
1000
0000
0000
1000
0100
0000
0000
0100
0010
0000
0000
0010
0001
0000
0000
,
0001
0100
0000
0000
0100
1000
0000
0000
1000
0100
0000
0000
0100
0001
0000
0000
,
0010
0100
0000
0000
0100
0001
0000
0000
0001
0100
0000
0000
0100
1000
0000
0000
,
1000
0001
0000
0000
0001
0010
0000
0000
0010
1000
0000
0000
1000
0010
0000
0000
,
0001
1000
0001
1000
0001
0000
0000
0000
0010
0100
0000
0000
0100
0010
0000
0000
,
0010
0001
0000
0000
0001
0100
0000
0000
0100
0010
0000
0000
0010
1000
0000
0000
,
0001
0000
0011
0000
0000
1100
0000
0000
0002
0000
0000
2003
0000
0000
3010
0100
,
0020
0000
0000
0001
0000
0000
1030
0000
,
0010
0100
0000
0000
0100
1000
0000
0000
1000
0100
0000
0000
0100
0001
0003
0000
,
0001
1000
0000
0000
1000
0010
0000
0000
0010
0001
0000
0000
0001
0010
0000
0000
,
0010
0100
0000
0000
0100
0001
0000
0000
0001
1000
0000
0000
1000
0010
0000
0000
,
0010
1000
0000
0001
0100
0000
0010
0000
1000
0001
1000
0000
0100
0000
0010
0000
,
0001
0100
0001
0100
0001
0000
0000
0000
1000
0010
0000
0000
0010
1000
0000
0000
,
0100
0010
0000
0010
0001
0000
0000
0000
0101
0000
0000
0000
0000
1100
0000
0000
,
0002
0000
0000
0023
0000
0000
0230
0000
0000
2300
0000
0000
3010
0100
0010
0100
,
0020
0001
1000
0130
,
1001
0000
0000
0000
0000
0000
0000
0000
0002
0000
0000
0023
0000
0000
0130
0000
,
2000
0000
0000
3000
,
0110
0000
0000
0000
0000
0000
0000
0000
1000
0000
0000
0001
0000
0000
0010
0000
,
0200
0000
0000
0000
2000
0000
3300
0001
,
2000
0020
0000
0000
0000
0000
3030
0000
,
0100
0000
0000
0001
0000
0000
1000
0000
0000
0000
0001
0000
0010
0100
0010
0100
,
0020
0030
0012
0103
,
2020
0000
0000
0000
0000
0000
0000
0000
0030
0000
0000
0000
3001
1000
0001
1003
,
0002
0000
0000
0100
0000
0000
0000
0000
,
1000
0000
0000
0010
0000
0000
1003
0001
,
0101
0000
0000
1100
0000
0000
0001
1000
,
1010
0000
0000
1001
0000
0110
0000
0000
,
0001
0001
0000
0000
1000
1000
0000
0000
,
0010
0010
0000
0000
0100
0100
0000
0000
,
0001
0010
0100
1000
0100
0001
0010
1000
,
0002
1000
1003
1001
,
0020
0000
0000
0230
0000
0000
0302
0000
0000
0000
0000
0000
0003
0000
0000
0000
,
2000
0000
0000
3020
0000
0000
0230
0000
0000
0000
0000
0000
0301
1000
0001
1000
,
0001
0000
0000
0010
0000
0000
0100
0000
1000
0000
0000
0001
0000
0000
0100
0000
,
0010
0001
1000
0001
0010
0100
1000
0100
,
0002
0000
0000
2003
0000
0000
3020
0000
0000
2030
0000
0000
3100
0000
0010
0000
,
0002
0000
0000
0203
0000
0000
0320
0000
0000
0230
0000
0000
0301
0000
1000
0000
,
0010
0000
0000
1000
0000
0000
0100
0000
0010
0000
0000
0001
0000
0000
0100
0000
,
0001
0000
0010
0000
0100
0000
2000
0000
0000
0000
0000
0000
3010
0100
0010
0100
,
0010
0000
0000
0000
1100
0000
0002
0000
0000
0000
0000
0000
1003
0010
1030
3010
,
2000
0000
0000
3200
0000
0000
0320
0000
0000
0000
0000
0000
0031
0100
0001
0100
,
0001
0000
0000
0010
0000
0000
0100
0000
0010
0000
0000
0001
0000
0000
1000
0000
,
0020
0000
0000
0230
0000
0000
0302
0000
0000
1003
0000
0000
0100
0010
0100
0010
,
0100
0000
0000
1000
0000
0000
0001
0000
0101
0000
0000
0000
1100
0000
0000
0000
,
0010
0000
0000
1000
0000
0000
0001
0000
0011
0000
0000
0000
1010
0000
0000
0000
,
0001
1000
0010
0100
1000
0010
0100
0001
,
0010
0000
0000
0010
0000
0000
0010
0000
0000
0010
0000
0000
0001
0000
1000
0000
,
2001
0000
0000
0100
0000
0000
0000
0000
,
0001
0000
0000
0010
0000
0000
0000
0000
,
0001
0000
0000
0100
0000
0000
0000
0000
,
0010
0000
0000
0103
0000
0002
3000
0000
,
1003
0100
0001
0100
1000
0001
0101
0000
,
0001
0010
1000
0010
0001
1000
1100
0000
,
0010
0010
0100
0100
0001
0001
1000
1000
,
0002
0020
0000
0000
0033
0000
1001
0000
,
2200
0000
0300
0000
0001
0001
3001
0000
,
1000
0010
0100
0001
0010
0100
1000
0000
,
0001
1000
0010
0001
0010
0100
0001
1000
,
0100
0000
0010
0000
0001
0000
0000
1000
0000
0000
0100
0000
1000
0000
0000
0000
,
0001
0010
1000
0000
0100
0010
0001
0000
,
1000
0010
0001
0010
1000
0100
0010
0000
,
0001
1000
0010
0100
0001
0010
0100
1000
,
0010
0000
0000
0010
0000
0000
0010
0000
0000
0010
0000
0000
0010
0000
0000
0000
,
1002
0103
2001
3100
,
0011
1100
0101
1001
,
0010
1000
0100
0001
,
1000
0100
1000
0000
0001
0000
0000
0010
0100
0000
0100
0000
1000
0001
1000
0001
,
1003
0000
0010
0100
0001
1000
0200
0000
,
0001
0001
0301
0100
1000
0010
0100
0000
,
0001
0000
0000
0010
0000
0000
0100
0000
1000
0000
0000
0010
0000
0000
0100
0000
,
0002
0000
0013
0001
1000
0100
0001
0100
,
1000
0010
0100
0001
0010
0100
1000
0001
,
1000
0010
0100
0001
0010
0100
1000
0001
,
0100
0000
0010
0000
0100
0000
0001
0000
0010
0030
0100
0000
1000
0000
0001
0000
,
1000
0000
0010
0000
1000
0000
0100
0300
0010
0000
0001
0000
2000
0000
0002
0000
,
0000
0000
0000
0000
,
0000
0000
0000
0000
3000
0000
0013
0001
;

//---------------dance-single - ----------------
#NOTEDATA:;
#CHARTNAME:;
#STEPSTYPE:dance-single;
#DESCRIPTION:;
#CHARTSTYLE:;
#DIFFICULTY:Easy;
#METER:10;
#RADARVALUES:0.458680,0.586560,0.274795,0.318183,0.000000,444.000000,406.000000,38.000000,44.000000,0.000000,0.000000,0.000000,0.000000,0.000000,0.458680,0.586560,0.274795,0.318183,0.000000,444.000000,406.000000,38.000000,44.000000,0.000000,0.000000,0.000000,0.000000,0.000000;
#CREDIT:;
#DISPLAYBPM:200.000000;
#NOTES:
0000
0000
0000
0000
,
0000
0000
0000
0000
,
0000
0000
0000
0000
,
0000
0000
0000
0000
,
0000
0000
0000
0000
,
0000
0000
0000
0000
,
1000
0010
0100
0001
,
0010
1000
0100
0010
,
0001
0100
1000
0001
,
0010
0100
1000
0001
,
2002
0000
0000
0000
,
0000
0000
0000
0000
0003
0000
3010
0100
,
0020
0000
0000
2000
0000
0000
3030
0000
,
0002
0000
0000
0100
0000
0200
0303
0000
,
0010
0001
0010
0100
,
0001
0010
0100
1000
,
0001
0010
0100
1000
,
0002
0000
0000
1003
,
2002
0003
0001
0100
,
3001
0000
1000
0000
0100
0010
0001
0000
,
1000
0010
0100
0001
,
0010
0100
1000
0001
0100
0000
0010
0000
,
0110
0001
0010
1000
,
0100
0010
0100
1000
,
0010
0001
0100
1000
,
0010
0010
0010
0110
,
2002
0003
0020
3000
,
0100
0001
0100
1030
,
0202
0300
0010
1003
,
0001
1000
0010
1000
0100
0000
0010
0000
,
2200
0000
0300
0000
3001
1000
0100
0000
,
0010
0000
0001
1000
0100
0000
0011
0000
,
1000
0010
0200
0000
0001
0000
1000
0000
,
0020
0000
0000
0330
,
1001
0100
1000
0100
,
0010
0001
0100
1000
,
0110
0001
0010
0100
,
1000
0010
0100
0001
,
1010
1000
0100
0010
,
0100
1000
0010
0100
,
0001
0010
0001
0100
,
1000
0010
0001
0100
,
0010
0010
0010
0000
0100
0000
1000
0000
,
0001
1000
0010
0001
,
1000
1000
0000
0010
0000
0100
0000
0001
,
1000
0000
0000
0011
0000
0000
0000
0000
,
0100
0001
0010
1000
,
0001
0010
1000
0100
,
0001
1000
0001
0000
0010
0000
0100
0000
,
1000
0010
0000
0100
0000
0001
0000
1000
,
0100
0110
1000
0001
,
0010
0001
0100
0000
1001
0000
0010
0000
,
0001
0001
0000
0010
0000
0100
0000
2000
,
0002
0000
0000
3003
,
0010
0000
0001
0200
,
2000
0000
0000
3300
,
0001
0000
1000
0010
,
0200
0000
0020
0330
,
2000
0020
0000
0000
0000
0000
3330
0000
,
0001
0000
1000
0000
0010
0000
0100
0001
,
1000
0000
0200
0310
,
0002
0000
0000
0000
1003
0100
0010
0001
,
0200
0000
0000
0000
,
0000
0000
0000
0000
0000
0000
0301
1000
,
0002
0000
0000
0013
0000
0000
0000
0000
,
2000
0000
0000
0001
0000
0002
3003
0000
,
1100
0000
0101
0000
,
0011
0000
1010
0000
,
0001
1000
0010
0100
,
0001
0001
0001
1001
,
0110
0010
0100
0001
,
0010
0000
1000
0000
0100
0000
0010
0001
,
1000
0010
0001
0100
,
0001
0010
0100
0000
1000
0010
0100
0000
,
0001
1000
0010
0100
,
0010
0000
1000
0000
0100
0000
1000
0001
,
0100
0001
0010
0001
,
1000
0100
0010
0031
0000
0000
0101
0000
,
1000
1100
0001
0010
,
0001
0000
0100
0000
1000
0000
0010
0100
,
0001
0010
1000
0100
,
1000
0000
0001
0000
0100
0000
0001
0010
,
2000
3100
1010
0000
,
0002
0013
1001
0000
,
1000
0001
0010
0000
0001
0100
1000
0000
,
0010
0100
0001
1000
,
2200
0000
0000
0000
,
0000
0000
0000
0300
,
0001
0000
0000
0001
0000
0000
0000
0000
,
0001
0000
0000
3001
0000
0110
0000
0000
,
0001
0000
0010
0000
1000
0100
0001
0000
,
1000
0000
0100
0000
0001
0010
1000
0000
,
0001
0100
0010
0000
1000
0100
0010
0000
,
0002
2000
0000
0000
3003
0000
1001
0000
,
0220
0000
0030
0000
0301
1000
3001
0000
,
1000
0000
0100
0000
0001
1000
0010
0000
,
0100
0010
0100
0001
,
0010
0000
0100
0000
1000
0001
0100
0000
,
0001
0010
1000
0000
0100
0000
0010
0000
,
0001
0100
1000
0001
,
0010
1000
0100
0010
,
0001
0000
1000
0000
0001
0010
0100
0000
,
1100
0000
0011
0000
,
1000
1000
1000
1001
,
0010
0010
0100
0001
,
1000
0100
0001
0000
0010
0100
0010
0000
,
0011
0000
1000
0002
,
0010
0100
1000
0103
,
1010
1010
0101
0101
,
2002
0000
0000
0003
,
3001
0010
1000
0010
,
0100
0010
0100
0001
,
0010
1000
0100
0010
,
0100
0000
0001
0000
1000
0010
0100
0002
,
0000
0000
0000
0000
,
0000
0000
0000
0000
0000
0003
0000
1001
;

//---------------dance-single - ----------------
#NOTEDATA:;
#CHARTNAME:;
#STEPSTYPE:dance-single;
#DESCRIPTION:;
#CHARTSTYLE:;
#DIFFICULTY:Beginner;
#METER:6;
#RADARVALUES:0.222109,0.376668,0.115703,0.014463,0.000000,215.000000,199.000000,16.000000,2.000000,0.000000,0.000000,0.000000,0.000000,0.000000,0.222109,0.376668,0.115703,0.014463,0.000000,215.000000,199.000000,16.000000,2.000000,0.000000,0.000000,0.000000,0.000000,0.000000;
#CREDIT:;
#DISPLAYBPM:200.000000;
#NOTES:
// measure 0
0000
0000
0000
0000
,  // measure 1
0000
0000
0000
0000
,  // measure 2
0000
0000
0000
0000
,  // measure 3
0000
0000
0000
0000
,  // measure 4
0000
0000
0000
0000
,  // measure 5
0000
0000
0000
0000
,  // measure 6
1000
0000
0000
0000
,  // measure 7
0000
0000
0000
0000
,  // measure 8
0001
0000
0000
0000
,  // measure 9
0000
0000
0010
0000
,  // measure 10
1001
0000
0000
0000
,  // measure 11
0000
0000
0000
0000
,  // measure 12
0001
0000
0000
0000
,  // measure 13
1000
0000
0000
0000
,  // measure 14
0010
0000
0010
0000
,  // measure 15
0100
0000
0100
0000
,  // measure 16
0001
0000
1000
0000
,  // measure 17
1001
0000
0000
0000
,  // measure 18
0010
0000
0100
0000
,  // measure 19
0001
0001
0001
0000
,  // measure 20
1000
0000
0100
0000
,  // measure 21
1000
1000
1000
0000
,  // measure 22
0010
0010
0010
0000
,  // measure 23
0100
0100
0100
0000
,  // measure 24
0001
0000
0010
0000
,  // measure 25
0100
0000
1000
0000
,  // measure 26
1001
0000
0110
0000
,  // measure 27
0000
0000
0000
0000
,  // measure 28
0001
0000
0100
0000
,  // measure 29
1000
1000
1000
0000
,  // measure 30
0010
0000
0100
0000
,  // measure 31
0001
0001
0001
0000
,  // measure 32
1000
1000
1000
0000
,  // measure 33
0020
0000
0030
0000
,  // measure 34
1001
0000
0000
0000
,  // measure 35
0010
0000
0000
0000
,  // measure 36
0110
0000
0000
0000
,  // measure 37
0010
0000
0000
0000
,  // measure 38
1000
0000
1000
0000
,  // measure 39
0010
0000
0010
0000
,  // measure 40
1000
0000
0100
0000
,  // measure 41
0010
0000
0001
0000
,  // measure 42
1000
1000
1000
0000
,  // measure 43
0001
0000
0100
0000
,  // measure 44
0001
0000
1000
0000
,  // measure 45
0010
0000
0000
0000
,  // measure 46
0100
0100
0100
0000
,  // measure 47
0010
0000
1000
0000
,  // measure 48
0100
0000
0010
0000
,  // measure 49
0001
0001
0001
0000
,  // measure 50
1000
1000
1000
0000
,  // measure 51
0001
0001
0001
0000
,  // measure 52
0010
0000
0100
0000
,  // measure 53
1000
0000
0000
0000
,  // measure 54
1001
0000
0001
0000
,  // measure 55
0100
0000
0000
0000
,  // measure 56
0010
0000
0010
0000
,  // measure 57
1000
0000
0001
0000
,  // measure 58
1001
0000
0000
0000
,  // measure 59
0100
0100
0100
0000
,  // measure 60
1000
0000
0001
0000
,  // measure 61
0100
0000
0000
0000
,  // measure 62
0110
0000
0000
0000
,  // measure 63
0000
0000
0000
0000
,  // measure 64
0001
0000
0000
0000
,  // measure 65
1000
0000
0000
0000
,  // measure 66
0001
0000
0010
0000
,  // measure 67
0100
0000
1000
0000
,  // measure 68
0010
0010
0010
0010
,  // measure 69
0010
0000
0000
0000
,  // measure 70
1000
0000
0001
0000
,  // measure 71
1000
0000
0010
0000
,  // measure 72
0100
0000
0001
0000
,  // measure 73
1000
1000
1000
0000
,  // measure 74
0001
0000
0000
0000
,  // measure 75
0010
0010
0010
0000
,  // measure 76
0001
0000
1000
0000
,  // measure 77
0010
0000
0100
0000
,  // measure 78
0001
0001
0001
0000
,  // measure 79
1000
0000
0100
0000
,  // measure 80
1000
0000
0010
0000
,  // measure 81
0100
0100
0100
0000
,  // measure 82
0001
0000
1001
0000
,  // measure 83
1000
0000
1001
0000
,  // measure 84
0010
0000
0100
0000
,  // measure 85
0001
0000
1000
0000
,  // measure 86
1001
0000
0000
0000
,  // measure 87
0000
0000
0000
0000
,  // measure 88
0010
0000
0000
0000
,  // measure 89
0100
0000
0000
0000
,  // measure 90
0001
0001
0001
0000
,  // measure 91
1000
1000
1000
0000
,  // measure 92
0001
0000
0100
0000
,  // measure 93
1000
0000
0000
0000
,  // measure 94
0010
0000
1000
0000
,  // measure 95
0100
0100
0100
0000
,  // measure 96
1000
0000
0010
0000
,  // measure 97
0001
0000
0100
0000
,  // measure 98
0001
0001
0001
0000
,  // measure 99
0010
0010
0010
0000
,  // measure 100
0001
0000
0100
0000
,  // measure 101
1000
1000
1000
0000
,  // measure 102
1001
0000
0110
0000
,  // measure 103
1001
0000
0000
0000
,  // measure 104
0010
0010
0010
0000
,  // measure 105
1000
1000
1000
0000
,  // measure 106
0100
0000
0000
1000
,  // measure 107
0000
0000
0001
0000
,  // measure 108
0010
0000
0010
0000
,  // measure 109
1001
0000
0000
0000
,  // measure 110
1000
0000
0000
0000
,  // measure 111
0000
0000
0000
0000
,  // measure 112
0001
0000
0000
0000
,  // measure 113
0000
0000
0000
0000
,  // measure 114
0020
0000
0000
0000
,  // measure 115
0000
0000
0000
0030
;
