#TITLE:Sweet Sweet ♥ Magic;
#SUBTITLE:;
#ARTIST:jun;
#TITLETRANSLIT:Sweet Sweet Love Magic;
#SUBTITLETRANSLIT:;
#ARTISTTRANSLIT:;
#GENRE:;
#CREDIT:;
#BANNER:Sweet Sweet Love Magic.png;
#BACKGROUND:Sweet Sweet Love Magic-bg.png;
#LYRICSPATH:;
#CDTITLE:;
#MUSIC:Sweet Sweet Love Magic.ogg;
#OFFSET:0.000000;
#SAMPLESTART:68.333000;
#SAMPLELENGTH:20.000000;
#SELECTABLE:YES;
#DISPLAYBPM:180.000000;
#BPMS:0.000000=180.000000
;
#STOPS:203.000000=0.333000
;
#BGCHANGES:;
#KEYSOUNDS:;
#ATTACKS:;

//---------------dance-single - ----------------
#NOTES:
     dance-single:
     :
     Beginner:
     4:
     0.210418,0.399099,0.086643,0.000000,0.000000,136.000000,128.000000,8.000000,0.000000,0.000000,0.000000,0.210418,0.399099,0.086643,0.000000,0.000000,136.000000,128.000000,8.000000,0.000000,0.000000,0.000000:
0000
0000
0000
0000
,
0000
0000
0000
0000
,
0000
0000
0000
0000
,
1000
0000
0000
0000
,
0001
0000
0000
0000
,
1000
0000
1000
0000
,
0001
0000
0001
0000
,
0010
0000
0010
0000
,
0100
0000
0100
0000
,
1000
0000
0000
0000
,
0000
0000
0000
0000
,
0010
0000
0000
0000
,
0001
0000
0000
0000
,
0100
0000
0000
0000
,
1000
0000
0000
0000
,
0010
0000
0000
0000
,
0001
0000
0000
0000
,
0100
0000
0000
0000
,
1000
1000
1000
0000
,
0001
0000
0001
0000
,
1000
0000
1000
0000
,
0010
0000
0010
0000
,
0100
0000
0100
0000
,
0010
0000
0100
0000
,
0010
0000
0100
0000
,
0001
0000
1000
0000
,
0001
0000
0100
0100
,
0100
0100
0100
0000
,
0010
0010
0010
0000
,
1000
1000
1000
0000
,
0001
0001
0001
0000
,
0100
0100
0100
0000
,
0001
0001
0001
0000
,
1000
1000
1000
0000
,
0010
0010
0010
0000
,
1000
0000
1000
0000
,
0000
1000
1000
0000
,
0001
0000
0001
0000
,
0000
0001
0001
0000
,
0010
0000
0010
0000
,
0000
0010
0010
0000
,
0100
0000
0100
0000
,
0000
0100
0100
0000
,
1000
0000
1000
0000
,
0001
0000
0001
0000
,
0010
0000
0010
0000
,
0100
0000
0100
0000
,
0001
0000
0010
0000
,
1000
0000
0100
0000
,
0010
0000
1001
0000
,
1001
1001
1001
1001
,
0000
0000
1000
0000
,
0010
0000
1000
0000
,
0100
0000
0001
0000
,
0010
0000
1000
0000
,
0100
0000
0010
0000
,
1000
0000
0001
0000
,
0100
0000
0100
0000
,
1001
1001
0000
0000
,
0010
0000
1000
0000
,
0100
0000
0001
0000
,
0010
0000
1000
0000
,
0001
0001
0000
0000
,
0010
0000
1000
0000
,
0010
0000
0001
0000
,
0010
0000
1000
0000
,
0100
0100
0000
0000
,
1001
0000
0000
0000
,
0000
0000
0000
0000
;

//---------------dance-single - ----------------
#NOTES:
     dance-single:
     :
     Easy:
     5:
     0.290873,0.476942,0.530688,0.043321,0.000000,188.000000,139.000000,49.000000,4.000000,0.000000,0.000000,0.290873,0.476942,0.530688,0.043321,0.000000,188.000000,139.000000,49.000000,4.000000,0.000000,0.000000:
0000
0000
0000
0000
,
0000
0000
0000
0000
,
0000
0000
0000
0000
,
1000
0000
1000
0000
,
0001
0000
0001
0000
,
1000
0000
0001
0000
,
1000
0000
0001
0000
,
0010
0000
0010
0000
,
0100
0000
0100
0000
,
2002
0000
0000
3003
,
0000
1001
1001
0000
,
0010
0000
1000
0000
,
0001
0000
0010
0000
,
0100
0000
1000
0000
,
0000
0001
0001
0000
,
0100
0000
0001
0000
,
1000
0000
0100
0000
,
0010
0000
0001
0000
,
0000
1000
1000
1000
,
0001
0000
0001
0000
,
1000
0000
1000
0000
,
0010
0000
0010
0000
,
0000
0100
0100
0000
,
0010
0000
0100
0000
,
0010
0000
0100
0100
,
0001
0000
1000
0000
,
0000
1001
1001
0000
,
0100
0000
1001
0000
,
0100
0000
1001
0000
,
0100
0000
1001
0000
,
0100
0100
1001
0000
,
0100
0000
1001
0000
,
0010
0000
1001
0000
,
0100
0000
1001
0000
,
0010
0010
1001
0000
,
1000
0000
1000
0000
,
0000
1000
1000
0000
,
0001
0000
0001
0000
,
0000
0001
0001
0001
,
0010
0000
0010
0000
,
0000
0010
0010
0000
,
0100
0000
0100
0000
,
0000
0100
0100
0100
,
0001
0000
1100
0000
,
1000
0000
0101
0000
,
0010
0000
1001
0000
,
0000
0110
0110
0000
,
0001
0000
1010
0000
,
1000
0000
0011
0000
,
0010
0000
1001
0000
,
1001
1001
1001
1001
,
0010
0000
1001
0000
,
0010
0000
1001
1001
,
0010
0000
1001
0000
,
0000
1001
1001
0000
,
0010
0000
1100
0000
,
0010
0000
0101
0000
,
1100
0000
0101
0000
,
0000
1001
1001
0000
,
0110
0000
1001
0000
,
0110
0000
1001
0000
,
0110
0000
1001
0000
,
0010
0010
1001
0000
,
0010
0000
1100
0000
,
0010
0000
0101
0000
,
0010
0000
1001
0000
,
0010
0010
1001
0000
,
2002
0000
0000
3003
,
0000
0000
0000
0000
;

//---------------dance-single - ----------------
#NOTES:
     dance-single:
     :
     Medium:
     9:
     0.560085,0.623694,0.931411,0.303250,0.000000,362.000000,276.000000,86.000000,28.000000,0.000000,0.000000,0.560085,0.623694,0.931411,0.303250,0.000000,362.000000,276.000000,86.000000,28.000000,0.000000,0.000000:
0000
0000
0000
0000
,
0000
0000
0000
0000
,
0000
0000
0000
0000
,
1000
0100
0001
0100
,
0010
0010
0010
1001
,
1000
1000
1000
1001
,
0001
0001
0001
1001
,
0010
0010
0010
1001
,
0100
0100
0100
0110
,
2002
0000
0000
0000
0000
3003
0000
0010
,
0000
1000
0010
1000
0000
0101
0000
0000
,
0010
1000
0100
0000
0022
0000
0033
1000
,
0000
0010
1000
0000
0001
0000
0001
0000
,
0010
0001
0100
0000
1010
0000
0101
0000
,
1001
1100
1001
0101
,
0010
0001
0100
0000
2020
0000
3030
0001
,
0000
0100
0010
0000
1000
0000
1000
0000
,
0001
0010
0000
0001
0100
0000
0000
0010
,
0000
1000
0100
0000
1000
0000
1001
0000
,
0010
1000
0100
0000
0022
0000
0033
0100
,
0000
1000
0010
0000
1000
0000
1001
0000
,
0010
1000
0001
0000
0100
0000
1001
0000
,
1100
1001
0011
1001
,
0100
0001
0010
0000
0220
0000
0330
1000
,
0000
0001
1000
0000
0010
0000
1100
0000
,
0010
0001
0000
0010
0100
0000
0000
0010
,
0000
0001
1000
0001
0000
0010
0100
0000
,
0001
0001
1001
1001
,
1000
1000
1001
1001
,
0010
0010
1010
1010
,
0100
0100
0101
0101
,
0001
1000
0001
0000
0101
0000
0100
0000
,
1000
0001
1000
0000
1010
0000
1010
0000
,
0010
0100
0010
0000
0110
0000
0110
0000
,
1010
1001
0101
1001
,
1000
0100
1000
0000
1000
0000
0010
0100
,
0000
1001
2002
3003
,
0001
0100
0001
0000
0001
0000
0010
0100
,
0000
1001
1001
1001
,
0010
1000
0001
0000
0001
0000
0001
0100
,
0000
1001
2002
3003
,
0010
0001
1000
0000
1000
0000
1000
0000
,
1001
0110
1001
0110
,
2000
0000
3100
0000
0201
0000
0000
0301
,
0000
0101
2002
3003
,
0012
0100
0010
0103
,
1000
0000
1001
0000
0000
0010
0100
0000
,
0002
0000
0103
0000
1200
0000
0000
1300
,
0000
1100
0110
1100
,
2010
0100
0010
3100
,
1100
1001
0101
1001
,
0010
1000
0100
0000
0102
0000
0003
1000
,
0000
0010
1000
0000
0001
0000
0001
0000
,
0010
0001
0100
0000
1000
0000
0101
0000
,
1001
0101
1001
1100
,
0010
0001
0100
0000
2010
0000
3000
0001
,
0000
0100
0010
0000
1000
0000
1000
0000
,
0001
0010
0001
0100
0020
0000
0030
1000
,
0000
0001
0100
0000
0010
0000
1001
0000
,
0010
1000
0100
0000
0012
0000
0003
1000
,
0000
0001
0100
0000
0010
0000
1001
0000
,
0010
0001
0100
0010
1000
0000
1000
0000
,
1001
0110
1001
0110
,
1000
0001
1000
0000
0110
0000
0000
0010
,
0000
0100
0001
0000
1000
0000
0011
0000
,
0100
1000
0000
0001
0010
0000
0000
1001
,
0000
1000
0100
1000
0000
0101
0000
2020
,
0000
0000
0000
3030
,
0000
0000
0000
0000
;

//---------------dance-single - ----------------
#NOTES:
     dance-single:
     :
     Hard:
     13:
     0.620425,0.660381,0.314081,0.400723,0.178701,401.000000,372.000000,29.000000,37.000000,0.000000,0.000000,0.620425,0.660381,0.314081,0.400723,0.178701,401.000000,372.000000,29.000000,37.000000,0.000000,0.000000:
0000
0000
0000
0000
,
0000
0000
0000
0000
,
0000
0000
0000
0000
,
0010
0000
0000
0000
0020
0000
0000
0000
0001
0000
0000
0001
0000
0000
0031
0000
,
0000
0000
0100
0000
0200
0000
0000
0000
1000
0000
0000
1000
0000
0000
1300
0000
,
0000
0000
0001
0000
2000
0000
0000
0000
0100
0000
0000
0100
0000
0000
3100
0000
,
0000
0000
0010
0000
0100
0000
0000
0000
0001
1000
0000
0001
1000
0000
0001
0000
,
0000
0000
0010
0000
0020
0000
0000
0000
0001
0000
0000
0001
0000
0000
0031
0000
,
0000
0000
0100
0000
0200
0000
0000
0000
1000
0000
0000
1000
0000
0000
1300
0000
,
2200
0000
0000
0000
0000
0000
3300
0002
,
0000
1003
0100
0020
0000
0002
0030
0003
,
1000
0100
0010
0001
0200
0000
0000
0320
,
0000
1030
0100
0010
0001
0000
0001
0000
,
0010
0100
1000
0010
0100
0000
0001
2000
,
0000
0000
3001
0000
0100
0000
0000
0000
0001
1000
0000
0001
1000
0000
0001
0000
,
0010
0001
0100
0001
2000
0000
0000
3010
,
0000
0100
0001
1000
1100
0000
0101
0000
,
1000
0010
0010
1000
0020
0000
0000
0130
,
0000
0001
0100
0010
0000
1000
0100
1000
,
0001
0010
0100
1000
0020
0000
0000
0130
,
0000
0001
0100
0010
1000
0000
1000
0000
,
0010
0100
0001
1000
0100
0000
0010
0001
,
0000
0000
1000
0000
0100
0000
0000
0000
1000
0001
0000
1000
0001
0000
1000
0000
,
0010
0100
0001
0010
0200
0000
0000
1300
,
0000
0100
1000
0010
0101
0000
1010
0000
,
1000
0001
0001
1000
0001
0000
0000
0010
,
0000
0001
0100
0010
0000
1000
1000
0000
,
0001
0000
0010
0000
0002
0000
0000
0000
1000
0000
0000
1000
0000
0000
1003
0000
,
1000
0000
0010
0000
2000
0000
0000
0000
0001
0000
0000
0001
0000
0000
3001
0000
,
0001
0000
0100
0000
0010
0000
0000
0000
1000
0000
0000
0010
0000
0000
0100
0000
,
0010
0000
0010
0000
0010
0000
0000
0000
1000
0001
0000
1000
0001
0000
1000
0000
,
0001
0000
0001
0000
0001
0000
0000
0000
1000
0000
0000
1000
0000
0000
1000
0000
,
0010
0000
0010
0000
0010
0000
0000
0000
0100
0000
0000
0100
0000
0000
0100
0000
,
0010
0000
1000
0000
0100
0000
0000
0000
0010
0000
0000
0001
0000
0000
0100
0000
,
0001
1000
0000
0000
1000
0100
0000
0000
0100
0010
0000
0000
0010
0001
0000
0000
,
0010
0001
0100
0010
2000
0000
3001
0100
,
0000
0001
0001
1000
0002
0000
0003
0000
,
0010
0100
1000
0001
0100
0000
0010
1000
,
0000
0000
0000
0000
0001
0000
0000
0000
1000
0100
0000
0100
1000
0000
0001
0000
,
0100
0001
1000
0010
0200
0000
0301
1000
,
0000
0001
0001
1000
0002
0000
0003
0000
,
0100
0001
0010
0100
2000
0000
3001
0100
,
0001
1000
0000
1000
0001
0000
0100
0000
0001
1000
0000
1000
0001
0000
0010
0000
,
0002
0000
0103
0000
1200
0000
0000
1300
,
0000
1000
1100
0000
0202
0000
0303
0000
,
2000
0000
3100
0000
1000
0010
1000
0100
,
0020
0001
0030
0000
1000
0100
1000
0000
,
0002
0000
0103
0000
1200
0000
0000
1300
,
0000
1000
1100
0000
0101
0000
0100
0010
,
1000
0100
1000
0000
0002
0000
0103
0000
,
0010
1000
0010
1000
0001
0100
0001
0000
,
0010
1000
0100
0010
0011
0000
0000
0010
,
0000
0001
0100
0010
1010
0000
0101
0000
,
0010
1000
0100
0010
0001
0000
1000
0100
,
0000
0000
0010
0000
0001
0000
0000
0000
0001
1000
0000
1000
0001
0000
1000
0000
,
0010
0100
0001
1000
2002
0000
3003
0010
,
0000
1000
0001
1000
0101
0000
1010
0000
,
0100
0001
0001
0100
0001
0000
0000
0010
,
0001
0000
0100
0000
0001
0000
0000
0000
1000
0100
0000
0100
1000
0000
0001
0000
,
0010
1000
0010
0100
0101
0000
0000
1000
,
0000
0100
0010
0001
1100
0000
0011
0000
,
0010
0100
0100
0010
0100
0000
0001
1000
,
0000
0001
1000
0000
0010
0010
0010
0010
,
1000
0100
0010
0001
1001
0000
0010
0000
,
0000
0100
0010
0001
1100
0000
0011
0000
,
1000
0001
0001
1000
0001
0000
0000
1100
,
0000
0011
0011
1100
0000
0101
0000
2002
,
0000
0000
0000
3003
,
0000
0000
0000
0000
;

//---------------dance-double - ----------------
#NOTES:
     dance-double:
     :
     Easy:
     5:
     0.222796,0.293503,0.140795,0.043321,0.000000,144.000000,131.000000,13.000000,4.000000,0.000000,0.000000,0.222796,0.293503,0.140795,0.043321,0.000000,144.000000,131.000000,13.000000,4.000000,0.000000,0.000000:
00000000
00000000
00000000
00000000
,
00000000
00000000
00000000
00000000
,
00000000
00000000
00000000
00000000
,
00100000
00000000
00000000
00000000
,
10000000
00000000
00000000
00000000
,
01000000
00000000
00000000
00000000
,
00010000
00000000
00001000
00000000
,
00001000
00000000
00000000
00000000
,
00000010
00000000
00000000
00000000
,
00012000
00000000
00000000
00000000
00000000
00000000
00003000
00020000
,
00000000
00000000
00000000
00030000
,
00001000
00000000
01000000
00000000
,
00100000
00000000
10000000
00000000
,
01000000
00000000
00010000
00000000
,
00001000
00000000
00000100
00000000
,
00000001
00000000
00000100
00000000
,
00001000
00000000
00010000
00000000
,
00100000
00000000
10000000
00000000
,
00100000
00000000
01000000
00000000
,
00100000
00000000
10000000
00000000
,
01000000
00010000
00001000
00000000
,
00000010
00000000
00000001
00000100
,
00000010
00000000
00010000
00000000
,
00001000
00000000
00100000
00000000
,
01000000
00000000
10000000
01000000
,
00100000
00000000
00000000
00000000
00010000
00000000
00000000
10000000
,
00000000
00000000
00000000
00100000
,
01000000
00000000
00001000
00000000
,
00010000
00000000
00000100
00000000
,
00000010
00000000
00000001
00000000
,
00000100
00000000
00001000
00000000
,
00010000
00000000
00100000
00000000
,
10000000
00000000
00100000
00000000
,
00010000
00000000
00001000
00000000
,
00000100
00000000
00000010
00000000
,
00010000
00000000
00001000
00000000
,
00000100
00000000
00000100
00000000
,
00001000
00000000
00010000
00000000
,
00100000
00000000
01000000
00000000
,
00001000
00000000
00010000
00000000
,
01000000
00000000
01000000
00000000
,
00010000
00000000
00001000
00000000
,
00000010
00000000
00000100
00000000
,
00001000
00000000
00001001
00000000
,
00000100
00000000
00010100
00000000
,
00001000
00000000
01001000
00000000
,
00100000
00000000
10000000
10000000
,
01000000
00000000
01100000
00000000
,
00001000
00000000
00011000
00000000
,
00000010
00000000
00010000
00000000
,
00001000
00000000
01000000
00000000
,
00100000
00000000
10000000
00000000
,
01000000
00000000
00010000
00001000
,
00000010
00000000
00000001
00000000
,
00000100
00000000
00000101
00000000
,
00000010
00000000
00000001
00000000
,
00000100
00000000
00001000
00010000
,
00100000
00000000
10000000
00000000
,
01000000
00000000
00010000
00011000
,
00100000
00000000
10000000
00000000
,
01000000
00000000
00010000
00001000
,
00000010
00000000
00000001
00000000
,
00000100
00000000
00001000
00011000
,
00000010
00000000
00000001
00000000
,
00000100
00000000
00001000
00010000
,
00011000
00000000
01001000
00000000
,
00000000
00000000
00011000
00000000
00000000
00000000
00000000
00002020
,
00000000
00000000
00000000
00003030
,
00000000
00000000
00000000
00000000
;

//---------------dance-double - ----------------
#NOTES:
     dance-double:
     :
     Medium:
     8:
     0.402271,0.440254,0.270759,0.043321,0.000000,260.000000,235.000000,25.000000,4.000000,0.000000,0.000000,0.402271,0.440254,0.270759,0.043321,0.000000,260.000000,235.000000,25.000000,4.000000,0.000000,0.000000:
00000000
00000000
00000000
00000000
,
00000000
00000000
00000000
00000000
,
00000000
00000000
00000000
00000000
,
00100000
00010000
01100000
00000000
,
00000000
01000000
00000000
00000000
00010000
00000000
00011000
00000000
,
00000000
00000010
00000000
00000000
00000001
00000000
00001001
00000000
,
00000000
00000100
00000000
00000000
00001000
00000000
00011000
00000000
,
00000000
00100000
00010000
00000000
01000000
00000000
00110000
00000000
,
00000000
00001000
00010000
00000000
00000100
00000000
00000110
00000000
,
00002002
00000000
00000000
00000000
00000000
00003003
00000000
00000100
,
00000000
00001000
00000000
00010000
00000000
00011000
00000000
00000000
,
00100000
00000000
10000000
00000000
11000000
00000000
00000000
10000000
,
00000000
01000000
00010000
00011000
,
00000010
00000000
00001000
00000000
00000001
00000000
00000010
00000100
,
00000000
00010000
00000000
00011000
,
00100000
00000000
10000000
00000000
11000000
00000000
00000000
00100000
,
00000000
10000000
01000000
00010000
,
00001000
00000010
00000000
00000000
00001000
00000000
00000000
00000100
,
00000000
00001000
00010000
00011000
,
00100000
00000000
01000000
00000000
01010000
00000000
00000000
10000000
,
00000000
01000000
00010000
00001000
,
00000100
00000000
00001000
00000000
00010000
00000000
00000100
00001000
,
00000000
00010000
00000000
00011000
,
00100000
00000000
01000000
00000000
01010000
00000000
00000000
10000000
,
00000000
01000000
00100000
00010000
,
00100000
00000000
00000000
01000000
00000000
00000000
00000000
00010000
,
00000000
00001000
00000010
00001000
00000000
00000001
00000000
00000000
,
00000000
00000100
00000000
00001000
00000000
00010000
00000000
00100000
,
00000000
00010000
00000000
00001000
00000000
00010000
00000000
00100000
,
00000000
10000000
00000000
01000000
00000000
00010000
00000000
00001000
,
00000000
00010000
00000000
01000000
00000000
00010000
00000000
00001000
,
00000000
00000010
00000000
00000001
00000000
00000100
00000000
00001000
,
00000000
00010000
00000000
00001000
00000000
00000100
00000000
00000001
,
00000000
00000100
00000000
00001000
00000000
00010000
00000000
00100000
,
00000000
10000000
00000000
01000000
00000000
00010000
00000000
00000000
,
00001000
00000000
00000000
00000010
00000100
00000000
00010000
00000000
,
00000000
00001000
00000000
00000000
00011000
00000000
00000000
00000000
,
01000000
00000000
00000000
00100000
00010000
00000000
10000000
00000000
,
01000000
00010000
00001000
00010000
,
00001000
00000000
00000000
00000010
00000001
00000000
00000100
00000000
,
00000000
00001000
00000000
00000000
00011000
00000000
00000000
00000000
,
00100000
00000000
00000000
10000000
01000000
00000000
10000000
00000000
,
01000000
00010000
00001000
00000010
,
00000001
00000000
00001000
00000000
00001001
00000000
00000000
00000100
,
00000000
00001000
00010000
00000000
00011000
00000000
00000000
00000000
,
00000000
00010000
00000000
01000000
00000000
00100000
00000000
00001000
,
00000000
00010000
00001000
00000000
00000000
00000000
00011000
00000000
,
00100000
00000000
10000000
00000000
10010000
00000000
00000000
01000000
,
00000000
00010000
00001000
00000100
,
00001000
00000100
00000001
00000100
,
00001000
00010000
00100000
10000000
,
01000000
00000000
00100000
00000000
11000000
00000000
00000000
00010000
,
00000000
00001000
00000010
00000011
,
00000100
00000000
00001000
00000000
00010000
00000000
00001000
00010000
,
00000000
00100000
10000000
00000000
,
01000000
00000000
00010000
00000000
00001000
00000000
00000000
00000010
,
00000000
00000001
00001000
00000000
00000001
00000000
00000100
00000000
,
00001000
00010000
00000000
00001000
00100000
00000000
00000000
01000000
,
00000000
00100000
00010000
00000000
00100000
00000000
10000000
00000000
,
01000000
00000000
00010000
00000000
01000000
00000000
00000000
00010000
,
00000000
00001000
00010000
00000000
00001000
00000000
00000010
00000000
,
00000100
00000000
00000010
00000000
00000001
00000000
00000001
00000100
,
00000000
00001000
00010000
00000000
00001000
00000000
00001000
00000000
,
00010000
00000000
00100000
00000000
10000000
00000000
00000000
01000000
,
00000000
00100000
00010000
00000000
01000000
00000000
00001000
00000000
,
00010000
00000100
00000000
00000010
00000001
00000000
00000000
00000100
,
00000000
00001000
00000100
00001000
00000000
00010000
00000000
02002000
,
00000000
00000000
00000000
03003000
,
00000000
00000000
00000000
00000000
;

//---------------dance-double - ----------------
#NOTES:
     dance-double:
     :
     Hard:
     11:
     0.560085,0.623694,0.346572,0.054152,0.032491,362.000000,330.000000,32.000000,5.000000,0.000000,0.000000,0.560085,0.623694,0.346572,0.054152,0.032491,362.000000,330.000000,32.000000,5.000000,0.000000,0.000000:
00000000
00000000
00000000
00000000
,
00000000
00000000
00000000
00000000
,
00000000
00000000
00000000
00000000
,
00100000
00000000
00000000
00000000
10000000
00000000
00000000
00000000
01000000
00000000
00000000
00010000
00000000
00000000
00011000
00000000
,
00000000
00000000
00000010
00000000
00000001
00000000
00000000
00000000
00000100
00000000
00000000
00000001
00000000
00000000
00000101
00000000
,
00000000
00000000
00000100
00000000
00001000
00000000
00000000
00000000
00010000
00000000
00000000
00100000
00000000
00000000
10100000
00000000
,
00000000
00000000
10000000
00000000
01000000
00000000
00000000
00000000
00010000
00000000
00000000
00001000
00000000
00000000
00011000
00000000
,
00000000
00000000
00100000
00000000
10000000
00000000
00000000
00000000
00100000
00000000
00000000
00010000
00000000
00000000
00001000
00000000
,
00000000
00000000
00000100
00000000
00000001
00000000
00000000
00000000
00000100
00000000
00000000
00001000
00000000
00000000
00010000
00000000
,
00022000
00000000
00000000
00000000
00000000
00033000
00000000
00000100
,
00000000
00001000
00010000
00100000
00000000
10100000
00000000
00000000
,
00100000
10000000
01000000
00000000
11000000
10000000
00000000
01000000
,
00000000
00010000
00001000
00000000
00010000
00001000
00010000
00000000
,
00001000
00000010
00000001
00000000
00000001
00000000
00000100
00000001
,
00000000
00000100
00001000
00000000
00000000
00010000
00001000
00000000
,
00010000
00100000
00010000
00000000
10000000
01000000
00000000
00100000
,
00000000
00001000
00010000
00001000
00000100
00000000
00000010
00000000
,
00001000
00000100
00000000
00000010
00000001
00000000
00000000
00000100
,
00000000
00001000
00010000
00001000
00000000
00000100
00000100
00000000
,
00001000
00010000
00001000
00000000
00010000
00100000
00000000
00100000
,
00000000
10000000
01000000
00000000
12000000
00000000
03010000
00000000
,
00001000
00000100
00001000
00000000
00000100
00000000
00000001
00000010
,
00000000
00000001
00000100
00000000
00000000
00001000
00010000
00000000
,
00100000
10000000
01000000
00000000
00110000
00000000
00000000
01000000
,
00000000
00100000
10000000
00000000
01000000
00000000
10010000
00000000
,
01000000
00010000
00000000
00001000
00000010
00000000
00000000
00000011
,
00000000
00000001
00000100
00001001
00000000
00000100
00001000
00000000
,
00000000
00010000
00100000
00010000
00000000
00100000
00000000
10000000
,
00000000
01000000
00100000
00010000
00000000
10000000
00000000
01000000
,
00000000
00010000
00001000
00000010
00000000
00000100
00000000
00000001
,
00000000
00000100
00001000
00000100
00000000
00001000
00010000
00001000
,
00000000
00010000
00100000
10000000
00000000
01000000
00000000
01000000
,
00000000
00010000
00001000
00000010
00000000
00001000
00000000
00010000
,
00000000
00001000
00000010
00000001
00000000
00000100
00000000
00000100
,
00000000
00001000
00010000
00100000
00000000
00010000
00001000
00000100
,
00000000
00001000
00000000
00010000
00000000
00100000
10000000
01000000
,
00000000
00010000
00000000
00010000
00000000
00001000
00000010
00000000
,
00000000
00000001
00000000
00000100
00000000
00001000
00010000
00001000
,
00010000
00000000
00011000
00000000
00010000
00001000
00011000
00000000
,
00000000
00100000
00000000
10000000
00000000
01000000
00010000
01000000
,
00000000
00010000
00000000
00011000
00000000
00010000
00001000
00011000
,
00000000
00000010
00000000
00000001
00000000
00000100
00000001
00000100
,
00000000
00001000
00000000
00010000
00000000
00100000
00010000
00001000
,
00000010
00000000
00000001
00000000
00001100
00000000
00000000
00000010
,
00000000
00000001
00000100
00000000
00000110
00000100
00001000
00000000
,
00010000
00000000
00001000
00000000
00010000
00100000
00010000
00100000
,
00000000
10000000
01000000
00000000
00000000
10100000
10000000
00000000
,
01000000
00000000
00010000
00000000
00011000
00000000
00000000
00001000
,
00000000
00000010
00000001
00000000
00000100
00000000
00001000
00010000
,
00000000
00011000
00000000
00001100
00000000
00011000
00000000
01010000
,
00100000
10000000
01000000
10000000
01000000
00010000
00001000
00000000
,
00000010
00000001
00000100
00000001
00001001
00000000
00000000
00000001
,
00000000
00000100
00001000
00010000
00001000
00000000
00010000
00000000
,
00100000
10000000
01000000
10000000
00100000
00000000
10000000
01000000
,
00000000
01000000
00010000
00000000
00000000
00001000
00010000
00000000
,
00001000
00000010
00000001
00000010
00000100
00000000
00000000
00010000
,
00000000
00001000
00010000
00100000
00010000
00000000
10100000
00000000
,
01000000
00010000
00001000
00010000
00000100
00001000
00000000
00000001
,
00000000
00000100
00001000
00010000
00000000
00100000
10100000
00000000
,
10000000
01000000
00010000
01000000
00010000
00011000
00000000
00000010
,
00000000
00000001
00000100
00000010
00001000
00000001
00000010
00000001
,
00000100
00001000
00010000
00001000
00010000
00100000
00000000
10000000
,
00000000
01000000
00010000
00000000
00000000
00001000
00000010
00001000
,
00000010
00000001
00000100
00000001
00000100
00001000
00000000
00010000
,
00000000
00100000
10000000
00010000
00000000
11000000
10000000
00000000
,
01000000
00010000
00000000
00001000
00000010
00000000
00000000
00000011
,
00000000
00000001
00000100
00000001
00000000
00001100
00000000
00022000
,
00000000
00000000
00000000
00033000
,
00000000
00000000
00000000
00000000
;

//---------------dance-single - ----------------
#NOTES:
     dance-single:
     :
     Challenge:
     14:
     0.830844,0.807133,0.324911,0.129964,0.281589,537.000000,507.000000,30.000000,12.000000,0.000000,0.000000,0.830844,0.807133,0.324911,0.129964,0.281589,537.000000,507.000000,30.000000,12.000000,0.000000,0.000000:
// measure 0
0000
0000
0000
0000
,  // measure 1
0000
0000
0000
0000
,  // measure 2
0000
0000
0000
0000
,  // measure 3
0001
0000
1000
0000
0010
0000
0100
0000
0001
0000
1000
0100
0000
1000
0100
0000
,  // measure 4
0000
0000
0010
0000
0001
0000
1000
0000
0010
0000
0100
0001
0000
0100
0001
0000
,  // measure 5
0000
0000
0010
0000
0100
0000
0010
0000
0001
0000
1000
0100
0000
1000
0100
0000
,  // measure 6
0000
0000
0010
0000
0001
0000
1000
0000
0010
0100
0000
0100
0001
0000
1000
0000
,  // measure 7
0000
0000
0100
0000
0010
0000
0001
0000
1000
0000
0010
0100
0000
0010
0100
0000
,  // measure 8
0000
0000
0001
0000
1000
0000
0100
0000
1000
0000
0010
0100
0000
0010
0100
0000
,  // measure 9
0220
0000
0000
0000
0000
0000
0330
0202
,  // measure 10
0303
0011
0110
2200
3300
2002
0000
3003
,  // measure 11
1010
0010
1000
0100
0010
0001
1000
0001
,  // measure 12
0100
0000
0010
0000
1000
0000
0100
0000
0010
0001
0010
0000
0100
0000
0000
0000
,  // measure 13
1000
0010
0100
0010
1000
0100
0010
0001
,  // measure 14
1000
0000
0010
0000
0100
0000
0000
0000
0001
1000
0001
1000
0001
0000
0100
0000
,  // measure 15
0010
1000
0100
0010
0001
0100
0001
1000
,  // measure 16
0010
0000
0100
0000
0010
0000
1000
0000
0001
0100
0001
0000
1000
0000
0000
0000
,  // measure 17
0010
0100
0010
1000
0100
0010
0001
0100
,  // measure 18
0001
0000
0010
0000
0100
0000
1000
0000
0010
0100
0010
0100
0010
0000
1000
0000
,  // measure 19
0001
0010
0100
1000
0010
0100
0001
1000
,  // measure 20
0100
0000
0010
0000
0100
0000
1000
0000
0001
0100
0001
0000
0010
0000
0000
0000
,  // measure 21
0001
1000
0001
0100
0010
1000
0100
0010
,  // measure 22
0001
0000
1000
0000
0100
0000
0000
0000
1000
0010
1000
0010
1000
0000
0001
0000
,  // measure 23
0100
0010
0100
0001
0010
0100
1000
0001
,  // measure 24
0010
0000
0001
0000
1000
0000
0010
0000
0100
0001
0100
0000
0010
0000
0000
0000
,  // measure 25
1000
0100
1000
0010
0100
0001
1000
1001
,  // measure 26
0000
0011
0110
1100
0000
0202
0303
0000
,  // measure 27
1001
0000
1000
0000
0100
0000
0010
0000
0001
0000
0100
0010
0000
0010
1000
0000
,  // measure 28
0001
0000
0100
0000
0010
0000
1000
0000
0100
0000
0010
0001
0000
0001
1000
0000
,  // measure 29
0100
0000
1000
0000
0010
0000
0100
0000
0001
0000
1000
0001
0000
0001
0100
0000
,  // measure 30
0010
0000
1000
0000
0100
0000
0010
0000
0001
1000
0001
0000
0101
0000
0000
0000
,  // measure 31
1000
0000
0001
0000
0010
0000
0100
0000
1000
0000
0010
0100
0000
0100
0001
0000
,  // measure 32
0010
0000
0100
0000
1000
0000
0010
0000
0100
0000
0001
1000
0000
1000
0010
0000
,  // measure 33
0100
0000
0001
0000
0010
0000
0100
0000
0010
0000
0001
1000
0000
1000
0100
0000
,  // measure 34
1000
0001
1000
0000
0001
1000
0001
0000
0100
0010
0100
0000
0010
0100
0010
0000
,  // measure 35
1000
0001
0001
0001
0010
0100
1000
0010
,  // measure 36
0100
0001
1000
0100
0100
0010
0001
0000
,  // measure 37
0011
0001
1000
0010
1000
0100
0010
0001
,  // measure 38
0100
0010
1000
0001
0010
0010
0100
0000
,  // measure 39
1100
1000
0001
1000
0010
0100
0001
0010
,  // measure 40
0100
1000
0010
0100
0001
0010
0100
1000
,  // measure 41
0010
0100
0001
0010
0001
1000
0100
0010
,  // measure 42
0001
0000
0100
0000
0010
0000
1000
0000
0001
0010
0001
0010
0100
1000
0001
0000
,  // measure 43
1000
0010
0100
0001
0010
0100
1000
0001
,  // measure 44
0000
0101
0101
0100
0010
1000
0100
0000
,  // measure 45
0010
0100
0010
0001
0100
0010
1000
0001
,  // measure 46
0010
1100
1100
0000
0001
1000
0100
0000
,  // measure 47
0110
1000
0010
0100
0001
1000
0100
0000
,  // measure 48
0011
1000
0001
0100
0010
1000
0001
0000
,  // measure 49
1010
0100
0001
0010
0100
1000
0001
0000
,  // measure 50
1001
0000
0010
0000
0100
0000
0001
0000
1000
0100
0010
0001
0100
0000
0000
0000
,  // measure 51
0010
1000
0100
0010
0001
0100
0001
1000
,  // measure 52
0100
0000
0010
0000
0001
0000
0100
0000
0010
1000
0001
0000
0100
0000
0000
0000
,  // measure 53
0010
1000
0100
0010
0001
1000
0100
0010
,  // measure 54
0001
0000
1000
0000
0100
0000
0000
0000
1000
0010
0100
0010
1000
0000
0001
0000
,  // measure 55
0010
0100
1000
0001
1000
0010
0100
0001
,  // measure 56
0010
0100
0010
0001
1000
0010
0100
0000
,  // measure 57
0010
0100
0010
1000
0100
0010
0001
0100
,  // measure 58
0001
0000
1000
0000
0010
0000
0100
0000
0010
1000
0001
1000
0100
0000
0010
0000
,  // measure 59
0001
0100
0010
1000
0100
0010
0001
1000
,  // measure 60
0010
0000
1000
0000
0100
0000
0010
0000
0001
1000
0100
0000
0010
0000
0000
0000
,  // measure 61
0001
0010
0001
0100
0010
1000
0100
0010
,  // measure 62
0100
0000
1000
0000
0001
0000
0000
0000
0100
0010
1000
0010
0100
0000
0001
0000
,  // measure 63
0010
0100
0010
0001
0100
0010
1000
0001
,  // measure 64
0010
0100
1000
0010
0100
0001
1000
0000
,  // measure 65
0001
0010
0100
1000
0010
0100
0001
1001
,  // measure 66
0000
1100
0110
0011
0000
1001
0000
0220
,  // measure 67
0000
0000
0000
0330
;
