#TITLE:Survivor;
#SUBTITLE:;
#ARTIST:Destiny's Child;
#TITLETRANSLIT:;
#SUBTITLETRANSLIT:;
#ARTISTTRANSLIT:;
#GENRE:;
#CREDIT:;
#BANNER:Survivor-bn.png;
#BACKGROUND:Survivor-bg.png;
#LYRICSPATH:;
#CDTITLE:;
#MUSIC:Survivor.ogg;
#OFFSET:0.031250;
#SAMPLESTART:34.987999;
#SAMPLELENGTH:20.000000;
#SELECTABLE:YES;
#DISPLAYBPM:161.000000;
#BPMS:0.000000=161.199997
;
#STOPS:
;
#BGCHANGES:;
#KEYSOUNDS:;
#ATTACKS:;

//---------------dance-single - ----------------
#NOTES:
     dance-single:
     :
     Hard:
     11:
     0.544717,0.564515,0.318450,0.268168,0.209507,455.000000,417.000000,38.000000,32.000000,0.000000,0.000000,0.544717,0.564515,0.318450,0.268168,0.209507,455.000000,417.000000,38.000000,32.000000,0.000000,0.000000:
// measure 0
0000
0000
0000
0000
,  // measure 1
0000
0000
0000
0000
,  // measure 2
0000
0000
0000
0000
,  // measure 3
0000
0000
0000
0000
,  // measure 4
0000
0000
0000
0000
,  // measure 5
0000
0000
0000
0000
,  // measure 6
0000
0000
0000
0000
,  // measure 7
1001
0000
1001
0000
0100
0010
0100
0010
,  // measure 8
1000
0001
1000
0200
0000
1300
0100
0010
,  // measure 9
0001
0100
1000
0000
0010
1000
0010
1000
,  // measure 10
0100
0010
0001
2000
0000
3001
0100
0010
,  // measure 11
1000
0100
0010
0000
0100
1000
0100
1000
,  // measure 12
0010
1000
0100
0020
0000
0031
0100
0010
,  // measure 13
0100
0001
1000
0000
0001
0010
0001
0010
,  // measure 14
1000
0100
0010
0002
0000
1003
0010
0100
,  // measure 15
0010
1000
0100
0000
1000
0001
1000
0001
,  // measure 16
0010
1000
0100
0020
0000
0130
0010
0001
,  // measure 17
1000
0001
0100
0000
0001
0010
0100
1000
,  // measure 18
0010
1000
0001
2000
0000
3100
0010
0001
,  // measure 19
0100
0010
1000
0000
1000
0100
1000
0100
,  // measure 20
1000
0001
0010
0002
0000
0013
0100
1000
,  // measure 21
0100
1000
0001
0000
0100
0010
0100
0010
,  // measure 22
1000
0001
0010
0200
0000
1300
0010
0100
,  // measure 23
0010
0000
1000
0000
0100
0000
0000
0000
0010
0000
0000
0001
0000
0000
0100
0000
,  // measure 24
0002
0000
0000
0000
1003
0000
0000
0000
0010
0000
0000
1000
0000
0000
0001
0000
,  // measure 25
0200
0000
0000
0000
0301
0000
0000
0000
0010
0000
0000
0001
0000
0000
0100
0000
,  // measure 26
2000
0000
0000
0000
3010
0000
0000
0000
1000
0000
0000
0001
0000
0000
0100
0000
,  // measure 27
0020
0000
0000
0000
1030
0000
0000
0000
0001
0000
0000
0100
0000
0000
0010
0000
,  // measure 28
2000
0000
0000
0000
3100
0000
0000
0000
1000
0000
0000
0001
0000
0000
0010
0000
,  // measure 29
0200
0000
0000
0000
0310
0000
0000
0000
0100
0000
0000
1000
0000
0000
0010
0000
,  // measure 30
0002
0000
0000
0000
1003
0000
0000
0000
0100
0000
0000
0010
0000
0000
0001
0000
,  // measure 31
0020
0000
0000
0000
0031
0000
0000
0000
1000
0000
0000
0001
0000
0000
0100
0000
,  // measure 32
0110
0000
0000
0000
1001
0000
0000
0000
1000
0000
0000
0100
0000
0000
1000
0000
,  // measure 33
1100
0000
0000
0000
0011
0000
0000
0000
0100
0000
0000
0001
0000
0000
0010
0000
,  // measure 34
0110
0000
0000
0000
1100
0000
0000
0000
0001
0000
0000
1000
0000
0000
0010
0000
,  // measure 35
1010
0000
0000
0000
0101
0000
0000
0000
0010
0000
0000
1000
0000
0000
0100
0000
,  // measure 36
1100
0000
0000
0000
0101
0000
0000
0000
0010
0000
0000
0100
0000
0000
0010
0000
,  // measure 37
1010
0000
0000
0000
0011
0000
0000
0000
0100
0000
0000
0001
0000
0000
1000
0000
,  // measure 38
1001
0000
0000
0000
0011
0000
0000
0000
0010
0000
0000
0100
0000
0000
1000
0000
,  // measure 39
0001
0100
0010
1000
0001
0010
0100
1000
,  // measure 40
1002
0000
1000
2003
0000
0010
3020
0000
,  // measure 41
0000
0000
0130
0001
0010
0200
0000
0001
,  // measure 42
0000
1000
1000
1300
0100
0010
0001
0001
,  // measure 43
0000
0001
0001
1000
0100
0100
0100
1000
,  // measure 44
0001
0010
0100
1001
0000
0001
0001
0000
,  // measure 45
1000
0000
0000
0100
0000
0000
1000
0000
0001
0000
0000
0100
0000
0000
0001
0000
,  // measure 46
0100
0001
1000
1100
0000
0010
0010
0000
,  // measure 47
1000
0000
0000
0001
0000
0000
1000
0000
0010
0000
0000
0100
0000
0000
0001
0000
,  // measure 48
0010
0001
1000
1010
0000
0100
0100
0000
,  // measure 49
1000
0000
0000
0010
0000
0000
1000
0000
0001
0000
0000
0010
0000
0000
0001
0000
,  // measure 50
1000
0100
0010
0110
0000
1000
1000
0000
,  // measure 51
0010
0000
0000
1000
0000
0000
0100
0000
0010
0000
0000
0001
0000
0000
0100
0000
,  // measure 52
0010
0001
1000
0100
0010
0100
0010
0100
,  // measure 53
0001
0000
0000
0010
0000
0000
0100
0000
1000
0000
0000
0010
0000
0000
0100
0000
,  // measure 54
0110
0000
0010
1000
0100
0010
0001
0100
,  // measure 55
0001
0000
0100
0000
0010
0000
1000
0000
0100
0000
0000
0100
0000
0000
0100
0000
,  // measure 56
1001
0000
0000
0000
0011
0000
0000
0000
0100
0000
0000
1000
0000
0000
0001
0000
,  // measure 57
0101
0000
0000
0000
1001
0000
0000
0000
0010
0000
0000
0100
0000
0000
0001
0000
,  // measure 58
0011
0000
0000
0000
1010
0000
0000
0000
0100
0000
0000
0010
0000
0000
1000
0000
,  // measure 59
1100
0000
0000
0000
0011
0000
0000
0000
0001
0000
0000
0100
0000
0000
1000
0000
,  // measure 60
0020
0000
0000
0000
0130
0000
0000
0000
0001
0000
0000
1000
0000
0000
0001
0000
,  // measure 61
0200
0000
0000
0000
0301
0000
0000
0000
0010
0000
0000
1000
0000
0000
0100
0000
,  // measure 62
2000
0000
0000
0000
3010
0000
0000
0000
1000
0000
0000
0001
0000
0000
0100
0000
,  // measure 63
0002
0000
0000
0000
0013
0000
0000
0000
0100
0000
0000
1000
0000
0000
0010
0000
,  // measure 64
2010
0000
0000
0000
3001
0000
0000
0000
0100
0000
0000
0001
0000
0000
1000
0000
,  // measure 65
1200
0000
0000
0000
1300
0000
0000
0000
0010
0000
0000
0100
0000
0000
0001
0000
,  // measure 66
0021
0000
0000
0000
0031
0000
0000
0000
0100
0000
0000
0001
0000
0000
1000
0000
,  // measure 67
1002
0000
0000
0000
0103
0000
0000
0000
0001
0000
0000
0010
0000
0000
0100
0000
,  // measure 68
2100
0000
0000
0000
3010
0000
0000
0000
1000
0000
0000
0001
0000
0000
0100
0000
,  // measure 69
0102
0000
0000
0000
0103
0000
0000
0000
0010
0000
0000
1000
0000
0000
0001
0000
,  // measure 70
0120
0000
0000
0000
1030
0000
0000
0000
0010
0000
0000
1000
0000
0000
0100
0000
,  // measure 71
1200
0000
0000
0000
1300
0000
0000
0000
0001
0000
0000
0100
0000
0000
0001
0000
,  // measure 72
0010
0000
0000
0000
0010
0000
0000
0000
0001
0000
0000
1000
0000
0000
0100
0000
,  // measure 73
1000
0000
0000
0000
1000
0000
0000
0000
0001
0000
0000
0010
0000
0000
0001
0000
,  // measure 74
0100
0000
0000
0000
0100
0000
0000
0000
0001
0000
0000
1000
0000
0000
0100
0000
,  // measure 75
1000
0000
0000
0000
1000
0000
0000
0000
0010
0000
0000
0100
0000
0000
0010
0000
,  // measure 76
0100
0000
0000
0000
0100
0000
0000
0000
0010
0000
0000
0010
0000
0000
1000
0000
,  // measure 77
0001
0000
0000
0000
0001
0000
0000
0000
0010
0000
0000
0001
0000
0000
1000
0000
,  // measure 78
0010
0000
0000
0000
0010
0000
0000
0000
1000
0000
0000
0100
0000
0000
1000
0000
,  // measure 79
0001
0001
0000
0000
;

//---------------dance-single - ----------------
#NOTES:
     dance-single:
     :
     Medium:
     8:
     0.427393,0.464895,0.385492,0.100563,0.000000,357.000000,311.000000,46.000000,12.000000,0.000000,0.000000,0.427393,0.464895,0.385492,0.100563,0.000000,357.000000,311.000000,46.000000,12.000000,0.000000,0.000000:
0000
0000
0000
0000
,
0000
0000
0000
0000
,
0000
0000
0000
0000
,
0000
0000
0000
0000
,
0000
0000
0000
0000
,
0000
0000
0000
0000
,
0000
0000
0000
0000
,
1001
1001
0110
0110
,
1000
0000
0001
0100
0000
0001
1000
0000
,
0010
0010
0000
0000
1000
0001
1000
0000
,
0010
0000
1000
0100
0000
1000
0010
0000
,
0100
0100
0000
0000
0001
1000
0001
0000
,
0010
0000
0001
0100
0000
0001
0010
0000
,
1000
1000
0000
0000
0010
0100
0010
0000
,
0100
0000
0001
1000
0000
0001
0100
0000
,
0001
0001
0000
0000
0100
0010
0100
0000
,
0010
0000
1000
0100
0000
0010
0001
0000
,
1000
1000
0000
0000
0001
0100
0010
0000
,
0100
0000
0001
1000
0000
0010
0100
0000
,
0010
0010
0000
0000
1000
0001
0100
0000
,
0001
0000
0010
0001
0000
1000
0100
0000
,
0001
0001
0000
0000
0100
0010
1000
0000
,
0100
0000
1000
0010
0000
1000
0001
0000
,
0100
0100
0000
0000
0011
0000
1100
0000
,
0001
0010
0100
1000
,
0010
0100
0001
1000
,
0001
1000
0100
0010
,
0001
0100
0010
1000
,
0100
1000
0010
0001
,
0010
0100
1000
0001
,
1000
0010
0001
0100
,
0001
1000
0010
0100
,
0101
0101
1000
0001
,
1100
1100
0010
0100
,
0110
0110
0010
1000
,
1010
1010
0100
0001
,
0011
0011
1000
0100
,
1001
1001
0001
0010
,
0011
0101
0010
0100
,
0001
0000
1000
0100
1000
0000
0001
0000
,
0020
0000
0000
0032
0000
0000
0103
0000
,
0000
0000
1000
0001
2000
0000
0000
3200
,
0000
1000
1300
0000
0001
0000
0100
0000
,
0010
0000
0100
0000
0001
1000
0001
0000
,
1000
0100
0010
0001
0000
0000
0000
0000
,
0001
0101
1000
1100
,
0001
0010
0100
1000
0000
0000
0000
0000
,
0010
1100
0010
0101
,
0100
0010
1000
0001
0000
0000
0000
0000
,
1000
1010
0001
0011
,
0010
0100
0001
1000
0000
0000
0000
0000
,
0100
1010
0100
0011
,
1000
0001
1000
0001
0100
0000
0100
0000
,
0001
1001
0100
0110
,
0010
0000
1000
0000
0001
1000
0100
0000
,
0010
0100
0010
0100
0001
0000
0001
0000
,
0110
1001
0100
0010
,
1010
1100
1000
0001
,
0101
0011
0010
0001
,
0011
1010
0100
1000
,
1100
0101
0010
1000
,
1001
0110
0001
0100
,
1100
0011
0010
0100
,
0101
1010
0001
1000
,
0002
0100
0010
1003
,
0020
1000
0001
0130
,
2000
0100
0001
3010
,
0200
0001
0010
1300
,
0200
0010
1000
0301
,
0002
1000
0100
0013
,
2000
0010
0100
3001
,
0020
0100
1000
0031
,
0010
0010
0010
0010
,
0100
0100
0100
0100
,
0001
0001
0001
0001
,
1000
1000
1000
1000
,
0001
0001
0100
0100
,
1000
1000
0010
0010
,
1000
0001
0100
0010
,
0001
0001
0000
0000
;

//---------------dance-single - ----------------
#NOTES:
     dance-single:
     :
     Easy:
     5:
     0.277746,0.331020,0.150845,0.100563,0.000000,232.000000,214.000000,18.000000,12.000000,0.000000,0.000000,0.277746,0.331020,0.150845,0.100563,0.000000,232.000000,214.000000,18.000000,12.000000,0.000000,0.000000:
0000
0000
0000
0000
,
0000
0000
0000
0000
,
0000
0000
0000
0000
,
0000
0000
0000
0000
,
0000
0000
0000
0000
,
0000
0000
0000
0000
,
0000
0000
0000
0000
,
0010
0010
0010
0000
,
0001
0100
1000
0100
,
0001
0000
1000
0000
,
0010
1000
0100
1000
,
0010
0000
0100
0000
,
0010
1000
0001
1000
,
0010
0000
0001
0000
,
0100
0001
0010
0001
,
0100
0000
0010
0000
,
1000
0100
1000
0001
,
0100
0000
0001
0000
,
0010
0100
1000
0100
,
0010
0000
1000
0000
,
0001
0010
0001
1000
,
0010
0000
1000
0000
,
0100
0010
0001
0010
,
0100
0000
0001
0000
,
1000
0000
0010
0100
,
0001
0000
1000
0100
,
0010
0000
0001
1000
,
0100
0000
0010
0001
,
0010
0000
0001
0100
,
1000
0000
0100
0010
,
0100
0000
1000
0001
,
1000
0000
0001
0010
,
1001
0000
0100
0010
,
0110
0000
1000
0001
,
0110
0000
0010
0100
,
1001
0000
0001
1000
,
0110
0000
1000
0100
,
1001
0000
0010
0001
,
1001
0000
0110
0000
,
1000
0001
0100
0010
,
1000
0100
0010
0001
,
0000
0100
0010
0100
,
0000
0001
0010
0001
,
1000
0100
0010
0000
,
0001
1001
0000
0000
,
0020
0030
0200
0300
,
0010
0110
0000
0000
,
2000
3000
0002
0003
,
1000
0110
0000
0000
,
0002
0003
0020
0030
,
0100
1001
0000
0000
,
2000
3000
0200
0300
,
1001
0110
1000
0001
,
0200
0300
0020
0030
,
0000
0100
0100
0100
,
0002
2003
3001
1000
,
0110
0000
0100
0001
,
1001
0000
1000
0010
,
1001
0000
1000
0100
,
0110
0000
0010
0001
,
0100
0000
0001
1000
,
0010
0000
0100
0001
,
0100
0000
0010
1000
,
0001
0000
0010
1000
,
0001
0001
0001
0001
,
0010
0010
0010
0010
,
0100
0100
0100
0100
,
1000
1000
1000
1000
,
0001
0001
1000
1000
,
0010
0010
0100
0100
,
0010
0010
1000
1000
,
0001
0001
0100
0100
,
0001
0000
1000
0000
,
0010
0000
0100
0000
,
0010
0000
1000
0000
,
0100
0000
0001
0000
,
1000
0100
0001
0000
,
1000
0010
0001
0000
,
0100
0000
0100
0000
,
0100
0000
0000
0000
;

//---------------dance-single - ----------------
#NOTES:
     dance-single:
     :
     Beginner:
     1:
     0.096972,0.132408,0.000000,0.000000,0.000000,81.000000,81.000000,0.000000,0.000000,0.000000,0.000000,0.096972,0.132408,0.000000,0.000000,0.000000,81.000000,81.000000,0.000000,0.000000,0.000000,0.000000:
0000
0000
0000
0000
,
0000
0000
0000
0000
,
0000
0000
0000
0000
,
0000
0000
0000
0000
,
0000
0000
0000
0000
,
0000
0000
0000
0000
,
0000
0000
0000
0000
,
0010
0000
0010
0000
,
0010
0000
0000
0000
,
0100
0000
0000
0000
,
0010
0000
0000
0000
,
0100
0000
0000
0000
,
0001
0000
0000
0000
,
1000
0000
0000
0000
,
0001
0000
0000
0000
,
1000
0000
0000
0000
,
0001
0000
0000
0000
,
1000
0000
0000
0000
,
0010
0000
0000
0000
,
0100
0000
0000
0000
,
0001
0000
0000
0000
,
0010
0000
0000
0000
,
0100
0000
0000
0000
,
1000
0000
0000
0000
,
0010
0000
0000
0000
,
0010
0000
0000
0000
,
0100
0000
0000
0000
,
0100
0000
0000
0000
,
0001
0000
0000
0000
,
0001
0000
0000
0000
,
1000
0000
0000
0000
,
1000
0000
0000
0000
,
1000
0000
0000
0000
,
0010
0000
0000
0000
,
1000
0000
0000
0000
,
0001
0000
0000
0000
,
0100
0000
0000
0000
,
0001
0000
0000
0000
,
0100
0000
0000
0000
,
0010
0000
0000
0000
,
1000
0000
0000
0000
,
0001
0000
0000
0000
,
0100
0000
0000
0000
,
0010
0000
0000
0000
,
0100
0100
0000
0000
,
0000
0000
0000
0000
,
0010
0010
0000
0000
,
0000
0000
0000
0000
,
1000
1000
0000
0000
,
0000
0000
0000
0000
,
0001
0001
0000
0000
,
0000
0000
0000
0000
,
1000
1000
0000
0000
,
0100
0100
0000
0000
,
0000
0000
1000
0000
,
0001
0001
0000
0000
,
0010
0000
0000
0000
,
0001
0000
0000
0000
,
0100
0000
0000
0000
,
1000
0000
0000
0000
,
0001
0000
0000
0000
,
1000
0000
0000
0000
,
0010
0000
0000
0000
,
0100
0000
0000
0000
,
0001
0000
0001
0000
,
0001
0000
0000
0000
,
0100
0000
0100
0000
,
0100
0000
0000
0000
,
0010
0000
0010
0000
,
0010
0000
0000
0000
,
1000
0000
1000
0000
,
1000
0000
0000
0000
,
0010
0000
0000
0000
,
1000
0000
0000
0000
,
0100
0000
0000
0000
,
0001
0000
0000
0000
,
1000
0000
0000
0000
,
0001
0000
0000
0000
,
0010
0000
0000
0000
,
0100
0000
0000
0000
;
