#TITLE:Surrender (PureFocus remix);
#SUBTITLE:;
#ARTIST:U1 ft. Becca Hossany;
#TITLETRANSLIT:;
#SUBTITLETRANSLIT:;
#ARTISTTRANSLIT:;
#GENRE:;
#CREDIT:;
#BANNER:Surrender (PureFocus remix)-bn.png;
#BACKGROUND:Surrender (PureFocus remix)-bg.png;
#LYRICSPATH:;
#CDTITLE:;
#MUSIC:Surrender (PureFocus remix).ogg;
#OFFSET:0.000000;
#SAMPLESTART:42.439999;
#SAMPLELENGTH:20.000000;
#SELECTABLE:YES;
#DISPLAYBPM:130.000000;
#BPMS:0.000000=130.203003
;
#STOPS:
;
#BGCHANGES:;
#KEYSOUNDS:;
#ATTACKS:;

//---------------dance-single - ----------------
#NOTES:
     dance-single:
     :
     Beginner:
     2:
     0.114075,0.155098,0.010238,0.071663,0.000000,78.000000,77.000000,1.000000,7.000000,0.000000,0.000000,0.114075,0.155098,0.010238,0.071663,0.000000,78.000000,77.000000,1.000000,7.000000,0.000000,0.000000:
0000
0000
0000
0000
,
0000
0000
0000
0000
,
0000
0000
0000
0000
,
0000
0000
0000
0000
,
0000
0000
0000
0000
,
1001
0000
0000
0000
,
0000
0000
0000
0000
,
0001
0000
0000
0000
,
0010
0000
0000
0000
,
0001
0000
0000
0000
,
0200
0000
0300
0000
,
1000
0000
0000
0000
,
0010
0000
0000
0000
,
1000
0000
0000
0000
,
0200
0000
0300
0000
,
0001
0000
0100
0000
,
0001
0000
0100
0000
,
0001
0000
0100
0000
,
0002
0000
0003
0000
,
1000
0000
0100
0000
,
1000
0000
0100
0000
,
1000
0000
0100
0000
,
0200
0000
0300
0000
,
0001
0000
0001
0000
,
0100
0000
0100
0000
,
1000
0000
1000
0000
,
0001
1000
0001
0000
,
0001
0000
0001
0000
,
0100
0000
0100
0000
,
1000
0000
1000
0000
,
1000
0001
1000
0000
,
0020
0000
0030
0000
,
0000
0000
0000
0000
,
1000
0000
0000
0000
,
0001
0000
1000
0000
,
1000
0000
0100
0000
,
1000
0000
0100
0000
,
1000
0000
0100
0000
,
2000
0000
3000
0000
,
0001
0000
0100
0000
,
0001
0000
0100
0000
,
0001
0000
0100
0000
,
0200
0000
0300
0000
,
1000
0000
1000
0000
,
0100
0000
0100
0000
,
0001
0000
0001
0000
,
1000
0001
1000
0000
,
1000
0000
1000
0000
,
0100
0000
0100
0000
,
0001
0000
0001
0000
,
0001
1000
0001
0000
,
;

//---------------dance-single - ----------------
#NOTES:
     dance-single:
     :
     Easy:
     5:
     0.206213,0.259777,0.194513,0.102375,0.000000,141.000000,122.000000,19.000000,10.000000,0.000000,0.000000,0.206213,0.259777,0.194513,0.102375,0.000000,141.000000,122.000000,19.000000,10.000000,0.000000,0.000000:
0000
0000
0000
0000
,
0000
0000
0000
0000
,
0000
0000
0000
0000
,
0000
0000
0000
0000
,
0000
0000
0000
0000
,
1001
1000
0002
0003
,
2000
3000
0002
0003
,
0100
0000
0010
0000
,
0010
0010
0010
0000
,
0100
0000
0010
0000
,
0010
1000
0001
0000
,
1000
0100
0001
0000
,
0001
0001
0100
0000
,
0001
0001
1000
0100
,
0002
0000
0003
0000
,
1000
0010
1010
0000
,
1000
0010
1010
0000
,
1000
0010
1010
0000
,
2000
0000
3000
0000
,
0001
0100
0101
0000
,
0001
0100
0101
0000
,
0001
0100
0101
0000
,
0200
0000
0300
0000
,
1000
0010
1000
0000
,
0100
0010
0100
0000
,
0001
0010
0001
0000
,
1000
0001
1001
0000
,
1000
0010
1000
0000
,
0100
0010
0101
0000
,
0001
0010
0001
0000
,
0001
1000
0001
1001
,
2000
3000
0000
0000
,
0002
0000
1003
0000
,
0100
0000
0000
0000
,
1000
0000
0001
0000
,
0001
0100
0101
0000
,
0001
0100
0101
0000
,
0001
0100
0101
0000
,
0002
0000
0003
0000
,
1000
0010
1010
0000
,
1000
0010
1010
0000
,
1000
0010
1010
0000
,
0020
0000
0030
0000
,
0001
0100
0001
0000
,
0010
0100
0010
0000
,
1000
0100
1000
0000
,
0001
1000
1001
0000
,
0001
0100
0001
0000
,
0010
0100
1010
0000
,
1000
0100
1000
0000
,
1000
0001
1000
1001
,
;

//---------------dance-single - ----------------
#NOTES:
     dance-single:
     :
     Medium:
     9:
     0.337838,0.415643,0.296888,0.112613,0.000000,231.000000,202.000000,29.000000,11.000000,0.000000,0.000000,0.337838,0.415643,0.296888,0.112613,0.000000,231.000000,202.000000,29.000000,11.000000,0.000000,0.000000:
0000
0000
0000
0000
,
0000
0000
0000
0000
,
0000
0000
0000
0000
,
0000
0000
0000
0000
,
0000
0000
0000
0000
,
1001
0000
0100
0001
0100
0000
1000
0000
,
0100
1000
0100
0000
0001
0100
0001
0000
,
0100
0100
0010
0100
,
0010
0001
0010
1000
,
0100
0100
0010
0100
,
0010
0000
1000
0000
0001
0001
0010
0000
,
1000
0100
0001
1000
,
0001
1000
0001
0000
0100
0000
0100
0000
,
0001
0100
0001
0000
1000
0000
0100
0000
,
0002
0100
0103
0000
,
1000
0000
0100
0000
1010
0100
1010
0000
,
0001
0000
0100
0000
0011
0100
0011
0000
,
1000
0000
0100
0000
1010
0100
1010
0000
,
0002
0003
2000
3000
,
0001
0000
0100
0000
0011
0100
0011
0000
,
1000
0000
0100
0000
1010
0100
1010
0000
,
0001
0000
0100
0000
0011
0100
0011
0000
,
0020
0030
0200
0300
,
0001
0000
0010
0000
0001
0000
0010
0001
,
1000
0000
0010
0000
1000
0000
0010
1000
,
0001
0000
0010
0000
0001
0000
0010
0001
,
1000
0000
0100
1000
0100
0000
1001
0000
,
1000
0000
0010
0000
1000
0000
0010
1000
,
0001
0000
0010
0000
0001
0000
0010
0001
,
1000
0000
0010
0000
1000
0000
0010
1000
,
0001
0000
0001
0100
0001
0000
1001
0000
,
0002
0000
0003
0100
,
0020
0000
1030
0001
,
0010
0000
0010
0000
,
0001
0000
1000
0000
,
0001
0000
0010
0000
0101
0010
0101
0000
,
1000
0000
0010
0000
1100
0010
1100
0000
,
0001
0000
0010
0000
0101
0010
0101
0000
,
2000
3000
0002
0003
,
1000
0000
0010
0000
1100
0010
1100
0000
,
0001
0000
0010
0000
0101
0010
0101
0000
,
1000
0000
0010
0000
1100
0010
1100
0000
,
0200
0300
0020
0030
,
1000
0000
0100
0000
1000
0000
0100
1000
,
0001
0000
0100
0000
0001
0000
0100
0001
,
1000
0000
0100
0000
1000
0000
0100
1000
,
0001
0000
0010
0001
0010
0000
1001
0000
,
0001
0000
0100
0000
0001
0000
0100
0001
,
1000
0000
0100
0000
1000
0000
0100
1000
,
0001
0000
0100
0000
0001
0000
0100
0001
,
1000
0000
1000
0010
1000
0000
1001
0000
,
;

//---------------dance-single - ----------------
#NOTES:
     dance-single:
     :
     Hard:
     13:
     0.563063,0.675420,0.573301,0.163800,0.460688,385.000000,329.000000,56.000000,16.000000,0.000000,0.000000,0.563063,0.675420,0.573301,0.163800,0.460688,385.000000,329.000000,56.000000,16.000000,0.000000,0.000000:
0000
0000
0000
0000
,
0000
0000
0000
0000
,
0000
0000
0000
0000
,
0000
0000
0000
0000
,
0000
0000
0000
0000
,
1001
0000
0000
0000
1000
0000
0100
0000
0001
0000
0000
1000
0000
0000
0100
0000
,
0001
0000
0000
1000
0000
0000
0100
0000
0001
0000
0000
1000
0000
0000
0000
0000
,
0100
0000
0000
0000
0100
0000
0000
0000
0100
0000
0000
1000
0000
0000
0001
0000
,
0010
0000
0010
0000
0010
0100
0010
0000
,
0100
0000
0000
0000
0100
0000
0000
0000
0100
0000
0000
0001
0000
0000
1000
0000
,
0010
0100
1000
0100
0001
0010
0001
0000
,
1000
0000
0100
0000
1000
0000
0000
0000
0001
0000
0000
1000
0000
0000
0100
0000
,
0001
0010
0001
0100
0010
0000
0010
0000
,
0001
0100
0001
0000
1000
0000
0100
0000
,
0010
0001
1000
0100
0010
0100
1001
0000
,
1000
0100
0000
0000
1000
0100
0000
0000
0011
0000
0011
0000
0110
0000
1100
0000
,
0001
0100
0000
0000
0001
0100
0000
0000
1010
0000
1010
0000
0110
0000
0101
0000
,
1000
0100
0000
0000
1000
0100
0000
0000
0011
0000
0011
0000
0110
0000
1100
0000
,
2000
3200
0320
0031
,
0001
0100
0000
0000
0001
0100
0000
0000
1010
0000
1010
0000
0110
0000
0101
0000
,
1000
0100
0000
0000
1000
0100
0000
0000
0011
0000
0011
0000
0110
0000
1100
0000
,
0001
0100
0000
0000
0001
0100
0000
0000
1010
0000
1010
0000
0110
0000
0101
0000
,
0002
0203
0320
1030
,
1000
0010
0000
0000
0001
0010
0000
0000
0001
0100
0000
0100
0010
0000
1000
0000
,
0001
0010
0000
0000
1000
0010
0000
0000
1000
0100
0000
0100
0010
0000
0001
0000
,
1000
0010
0000
0000
0001
0010
0000
0000
0001
0100
0000
0100
0010
0000
1000
0000
,
0001
0000
0000
0010
0100
0000
0010
0000
0001
0100
0001
0000
1001
0000
0000
0000
,
0001
0010
0000
0000
1000
0010
0000
0000
1000
0100
0000
0100
0010
0000
0001
0000
,
1000
0010
0000
0000
0001
0010
0000
0000
0001
0100
0000
0100
0010
0000
1000
0000
,
0001
0010
0000
0000
1000
0010
0000
0000
1000
0100
0000
0100
0010
0000
0001
0000
,
1000
0100
1000
0000
0010
0100
0010
0000
0001
0010
0001
0000
1001
0000
0000
0000
,
0202
0000
0000
0000
0000
0003
0301
0100
,
2002
0000
0000
0003
0001
3001
1000
0000
,
1000
0000
0000
0100
0010
0000
0000
0010
,
0001
0000
0000
0001
1000
0000
0000
0000
,
1000
0100
0000
0000
1000
0100
0000
0000
0101
0000
0101
0000
0110
0000
1100
0000
,
0001
0100
0000
0000
0001
0100
0000
0000
1010
0000
1010
0000
0110
0000
0101
0000
,
1000
0100
0000
0000
1000
0100
0000
0000
0011
0000
0011
0000
0110
0000
1100
0000
,
2000
3200
0320
0031
,
0001
0100
0000
0000
0001
0100
0000
0000
1010
0000
1010
0000
0110
0000
0101
0000
,
1000
0100
0000
0000
1000
0100
0000
0000
0011
0000
0011
0000
0110
0000
1100
0000
,
0001
0100
0000
0000
0001
0100
0000
0000
1010
0000
1010
0000
0110
0000
0101
0000
,
0002
0203
0320
1030
,
1000
0010
0000
0000
0001
0010
0000
0000
0001
0100
0000
0100
0010
0000
1000
0000
,
0001
0010
0000
0000
1000
0010
0000
0000
1000
0100
0000
0100
0010
0000
0001
0000
,
1000
0010
0000
0000
0001
0010
0000
0000
0001
0100
0000
0100
0010
0000
1000
0000
,
0001
0000
0000
0010
0100
0000
0010
0000
0001
0100
0001
0000
1001
0000
0000
0000
,
0001
0010
0000
0000
1000
0010
0000
0000
1000
0100
0000
0100
0010
0000
0001
0000
,
1000
0010
0000
0000
0001
0010
0000
0000
0001
0100
0000
0100
0010
0000
1000
0000
,
0001
0010
0000
0000
1000
0010
0000
0000
1000
0100
0000
0100
0010
0000
0001
0000
,
1000
0100
1000
0100
1000
0100
1000
0100
1000
0100
1000
0000
1001
0000
0000
0000
;

//---------------dance-double - ----------------
#NOTES:
     dance-double:
     :
     Easy:
     5:
     0.203288,0.259777,0.174038,0.102375,0.000000,139.000000,122.000000,17.000000,10.000000,0.000000,0.000000,0.203288,0.259777,0.174038,0.102375,0.000000,139.000000,122.000000,17.000000,10.000000,0.000000,0.000000:
00000000
00000000
00000000
00000000
,
00000000
00000000
00000000
00000000
,
00000000
00000000
00000000
00000000
,
00000000
00000000
00000000
00000000
,
00000000
00000000
00000000
00000000
,
00011000
00010000
00002000
00003000
,
00020000
00030000
00000200
00000300
,
00001000
00000000
00000001
00000000
,
00000100
00000100
00000100
00000000
,
00000010
00000000
00010000
00000000
,
00001000
01000000
00010000
00000000
,
10000000
01000000
00100000
00000000
,
00001000
00001000
01000000
00000000
,
00010000
00010000
00000100
00000010
,
00000002
00000000
00000003
00000000
,
00001000
00000100
00001100
00000000
,
00010000
00001000
00011000
00000000
,
01000000
00010000
01010000
00000000
,
00002000
00000000
00003000
00000000
,
00100000
00010000
00110000
00000000
,
00001000
00010000
00011000
00000000
,
00000010
00001000
00001010
00000000
,
00020000
00000000
00030000
00000000
,
00001000
00000100
00001000
00000000
,
00010000
00001000
00010000
00000000
,
01000000
00010000
01000000
00000000
,
10000000
00010000
10010000
00000000
,
00010000
00100000
00010000
00000000
,
00001000
00010000
00001000
00000000
,
00000010
00001000
00000010
00000000
,
00000001
00001000
00000001
00001001
,
00000002
00000003
00000000
00000000
,
00002000
00000000
00003001
00000000
,
00000100
00000000
00000000
00000000
,
00010000
00000000
00000100
00000000
,
00001000
00000100
00001100
00000000
,
00010000
00001000
00011000
00000000
,
01000000
00010000
01010000
00000000
,
00002000
00000000
00003000
00000000
,
00100000
00010000
00110000
00000000
,
00001000
00010000
00011000
00000000
,
00000010
00001000
00001010
00000000
,
00020000
00000000
00030000
00000000
,
00001000
00000100
00001000
00000000
,
00010000
00001000
00010000
00000000
,
01000000
00010000
01000000
00000000
,
10000000
00010000
10010000
00000000
,
00010000
00100000
00010000
00000000
,
00001000
00010000
00001000
00000000
,
00000010
00001000
00000010
00000000
,
00000001
00001000
00000001
00001001
,
;

//---------------dance-double - ----------------
#NOTES:
     dance-double:
     :
     Medium:
     9:
     0.320288,0.363688,0.296888,0.112613,0.000000,219.000000,190.000000,29.000000,11.000000,0.000000,0.000000,0.320288,0.363688,0.296888,0.112613,0.000000,219.000000,190.000000,29.000000,11.000000,0.000000,0.000000:
00000000
00000000
00000000
00000000
,
00000000
00000000
00000000
00000000
,
00000000
00000000
00000000
00000000
,
00000000
00000000
00000000
00000000
,
00000000
00000000
00000000
00000000
,
00001001
00000000
00001000
00000100
00001000
00000000
00010000
00000000
,
00001000
01000000
00001000
00000000
00100000
10000000
00100000
00000000
,
01000000
01000000
00100000
10000000
,
01000000
00010000
00001000
00000010
,
00000100
00000100
00000010
00000001
,
00000100
00000000
00001000
00000000
00010000
00010000
00100000
00000000
,
10000000
00010000
01000000
00010000
,
00100000
00001000
00100000
00000000
00010000
00000000
00010000
00000000
,
00000100
00001000
00000100
00000000
00000010
00000000
00000001
00000000
,
00002000
00000001
00003001
00000000
,
00000001
00000010
00001100
00011000
,
00000100
00010000
00011000
01010000
,
00100000
10000000
01010000
11000000
,
00020000
00030000
20000000
30000000
,
10000000
00100000
01010000
00011000
,
01000000
00001000
00011000
00001100
,
00000010
00000001
00001100
00000101
,
00000020
00000030
00000200
00000300
,
00000001
00000000
00000010
00000000
00000001
00000000
00001000
00010000
,
00100000
00000000
00010000
00000000
00100000
00000000
00010000
10000000
,
01000000
00000000
10000000
00000000
01000000
00000000
00100000
00010000
,
00001000
00000000
00000100
00001000
00000100
00000000
00001001
00000000
,
00000001
00000000
00000010
00000000
00000001
00000000
00001000
00010000
,
00100000
00000000
00010000
00000000
00100000
00000000
00010000
10000000
,
01000000
00000000
10000000
00000000
01000000
00000000
00100000
00010000
,
00001000
00000000
00000100
00001000
00000100
00000000
00001001
00000000
,
00002000
00000000
00003000
00000100
,
00020000
00000000
00030100
00010000
,
00000100
00000000
00000100
00000000
,
00001000
00000000
00000001
00000000
,
00000001
00000010
00001100
00011000
,
00000100
00010000
00011000
01010000
,
00100000
10000000
01010000
11000000
,
00020000
00030000
20000000
30000000
,
10000000
00100000
01010000
00011000
,
01000000
00001000
00011000
00001100
,
00000010
00000001
00001100
00000101
,
00000020
00000030
00000200
00000300
,
00000001
00000000
00000010
00000000
00000001
00000000
00001000
00010000
,
00100000
00000000
00010000
00000000
00100000
00000000
00010000
10000000
,
01000000
00000000
10000000
00000000
01000000
00000000
00100000
00010000
,
00001000
00000000
00000100
00001000
00000100
00000000
00001001
00000000
,
00000001
00000000
00000010
00000000
00000001
00000000
00001000
00010000
,
00100000
00000000
00010000
00000000
00100000
00000000
00010000
10000000
,
01000000
00000000
10000000
00000000
01000000
00000000
00100000
00010000
,
00001000
00000000
00000100
00001000
00000100
00000000
00001001
00000000
,
;

//---------------dance-double - ----------------
#NOTES:
     dance-double:
     :
     Hard:
     13:
     0.571838,0.675420,0.573301,0.122850,0.460688,391.000000,335.000000,56.000000,12.000000,0.000000,0.000000,0.571838,0.675420,0.573301,0.122850,0.460688,391.000000,335.000000,56.000000,12.000000,0.000000,0.000000:
00000000
00000000
00000000
00000000
,
00000000
00000000
00000000
00000000
,
00000000
00000000
00000000
00000000
,
00000000
00000000
00000000
00000000
,
00000000
00000000
00000000
00000000
,
10010000
00000000
00010000
00000000
00100000
00000000
00001000
00000000
00010000
00000000
00000000
00100000
00000000
00000000
10000000
00000000
,
01000000
00000000
00000000
00100000
00000000
00000000
00001000
00000000
00010000
00000000
00000000
00000100
00000000
00000000
00000000
00000000
,
00000010
00000000
00000000
00000000
00000010
00000000
00000000
00000000
00000010
00000000
00000000
00000001
00000000
00000000
00001000
00000000
,
00000100
00000000
00000100
00000000
00000100
00010000
00000100
00000000
,
00001000
00000000
00000000
00000000
00001000
00000000
00000000
00000000
00001000
00000000
00000000
01000000
00000000
00000000
00100000
00000000
,
10000000
01000000
10000000
00100000
01000000
00001000
00010000
00000000
,
00000100
00000000
00001000
00000000
00000100
00000000
00000000
00000000
00000010
00000000
00000000
00000001
00000000
00000000
00000100
00000000
,
00000010
00010000
00000010
00001000
00000100
00010000
00001000
00000000
,
01000000
00010000
01000000
00000000
00100000
00000000
10000000
00000000
,
00010000
00100000
00001000
00010000
00000100
00001000
00001100
00000000
,
00010000
00000100
00000000
00000000
00010000
00000100
00000000
00000000
00001010
00000000
00001010
00000000
00011000
00000000
00001001
00000000
,
00000001
00000100
00000000
00000000
00000001
00000100
00000000
00000000
00001010
00000000
00001010
00000000
00001001
00000000
00011000
00000000
,
00010000
00000100
00000000
00000000
00010000
00000100
00000000
00000000
00001010
00000000
00001010
00000000
00011000
00000000
00001001
00000000
,
00000002
00000000
00000203
00000000
00001300
00100000
00010000
00000000
,
00001000
01000000
00000000
00000000
00001000
01000000
00000000
00000000
00110000
00000000
00110000
00000000
00011000
00000000
10010000
00000000
,
10000000
01000000
00000000
00000000
10000000
01000000
00000000
00000000
00110000
00000000
00110000
00000000
10010000
00000000
00011000
00000000
,
00001000
01000000
00000000
00000000
00001000
01000000
00000000
00000000
00110000
00000000
00110000
00000000
00011000
00000000
10010000
00000000
,
20000000
00000000
32000000
00000000
03010000
00000010
00001000
00000000
,
00000001
00000010
00000000
00000000
00000010
00001000
00000000
00000000
00001000
00010000
00000000
00001000
00010000
00000000
00100000
00000000
,
10000000
00100000
00000000
00000000
00100000
00010000
00000000
00000000
00010000
00001000
00000000
00010000
00001000
00000000
00000010
00000000
,
00000001
00000010
00000000
00000000
00000010
00001000
00000000
00000000
00001000
00010000
00000000
00001000
00010000
00000000
00100000
00000000
,
10000000
00000000
00000000
01000000
00010000
00000000
00001000
00000000
00000010
00000001
00000010
00000000
00001001
00000000
00000000
00000000
,
00000001
00000010
00000000
00000000
00000010
00001000
00000000
00000000
00001000
00010000
00000000
00001000
00010000
00000000
00100000
00000000
,
10000000
00100000
00000000
00000000
00100000
00010000
00000000
00000000
00010000
00001000
00000000
00010000
00001000
00000000
00000010
00000000
,
00000001
00000010
00000000
00000000
00000010
00001000
00000000
00000000
00001000
00010000
00000000
00001000
00010000
00000000
00100000
00000000
,
10000000
01000000
10000000
00000000
00010000
10000000
00010000
00000000
00010000
00001000
00010000
00000000
00001001
00000000
00000000
00000000
,
00002200
00000000
00000000
00000000
00000000
00000300
00003100
00001000
,
02020000
00000000
00000000
03000000
01000000
01030000
00010000
00000000
,
10000000
00000000
00000000
01000000
00100000
00000000
00000000
00100000
,
00010000
00000000
00000000
00010000
00001000
00000000
00000000
00000000
,
00010000
00000100
00000000
00000000
00010000
00000100
00000000
00000000
00001010
00000000
00001010
00000000
00011000
00000000
00001001
00000000
,
00000001
00000100
00000000
00000000
00000001
00000100
00000000
00000000
00001010
00000000
00001010
00000000
00001001
00000000
00011000
00000000
,
00010000
00000100
00000000
00000000
00010000
00000100
00000000
00000000
00001010
00000000
00001010
00000000
00011000
00000000
00001001
00000000
,
00000002
00000000
00000203
00000000
00001300
00100000
00010000
00000000
,
00001000
01000000
00000000
00000000
00001000
01000000
00000000
00000000
00110000
00000000
00110000
00000000
00011000
00000000
10010000
00000000
,
10000000
01000000
00000000
00000000
10000000
01000000
00000000
00000000
00110000
00000000
00110000
00000000
10010000
00000000
00011000
00000000
,
00001000
01000000
00000000
00000000
00001000
01000000
00000000
00000000
00110000
00000000
00110000
00000000
00011000
00000000
10010000
00000000
,
20000000
00000000
32000000
00000000
03010000
00000010
00001000
00000000
,
00000001
00000010
00000000
00000000
00000010
00001000
00000000
00000000
00001000
00010000
00000000
00001000
00010000
00000000
00100000
00000000
,
10000000
00100000
00000000
00000000
00100000
00010000
00000000
00000000
00010000
00001000
00000000
00010000
00001000
00000000
00000010
00000000
,
00000001
00000010
00000000
00000000
00000010
00001000
00000000
00000000
00001000
00010000
00000000
00001000
00010000
00000000
00100000
00000000
,
10000000
00000000
00000000
01000000
00010000
00000000
00001000
00000000
00000010
00000001
00000010
00000000
00001001
00000000
00000000
00000000
,
00000001
00000010
00000000
00000000
00000010
00001000
00000000
00000000
00001000
00010000
00000000
00001000
00010000
00000000
00100000
00000000
,
10000000
00100000
00000000
00000000
00100000
00010000
00000000
00000000
00010000
00001000
00000000
00010000
00001000
00000000
00000010
00000000
,
00000001
00000010
00000000
00000000
00000010
00001000
00000000
00000000
00001000
00010000
00000000
00001000
00010000
00000000
00100000
00000000
,
10000000
01000000
10000000
01000000
10000000
01000000
10000000
01000000
10000000
01000000
10000000
00000000
10010000
00000000
00000000
00000000
,
;

//---------------dance-single - ----------------
#NOTES:
     dance-single:
     :
     Challenge:
     15:
     0.770738,0.835381,0.634726,0.204750,0.634726,527.000000,465.000000,62.000000,20.000000,0.000000,0.000000,0.770738,0.835381,0.634726,0.204750,0.634726,527.000000,465.000000,62.000000,20.000000,0.000000,0.000000:
// measure 0
0000
0000
0000
0000
,  // measure 1
0000
0000
0000
0000
,  // measure 2
0000
0000
0000
0000
,  // measure 3
0000
0000
0000
0000
,  // measure 4
0000
0000
0000
0000
,  // measure 5
1000
0000
0010
0000
0100
0000
0001
0000
1000
0000
0010
0100
0000
0010
0100
0000
,  // measure 6
0001
0000
0010
0100
0000
0010
0100
0000
1000
0000
0010
0100
0000
0010
0100
0000
,  // measure 7
0001
0010
0100
1000
0010
0100
0010
1000
,  // measure 8
0100
0000
0010
0000
0001
0000
1000
0000
0010
0000
0100
0001
0000
0100
0001
0000
,  // measure 9
0010
0001
0100
0010
1000
0100
1000
0001
,  // measure 10
0100
0000
0010
0000
1000
0000
0001
0000
1000
0000
0010
0100
0000
0010
0100
0000
,  // measure 11
0001
1000
0010
1000
0100
0010
0001
0100
,  // measure 12
0001
1000
0001
1000
0001
0000
0010
0000
0100
0000
1000
0010
0000
1000
0010
0000
,  // measure 13
0100
0001
0010
0001
0100
0010
1000
0001
,  // measure 14
0010
0000
0100
0000
1000
0000
0010
0000
0100
0000
0001
1000
0000
0001
1000
0000
,  // measure 15
0010
0000
0100
0001
0100
0010
1000
0000
1100
0000
0110
0000
0011
0000
1001
0000
,  // measure 16
0101
0000
1000
0010
1000
0100
0010
0000
0011
0000
0101
0000
0110
0000
1010
0000
,  // measure 17
1001
0000
0001
1000
0010
1000
0100
0000
0110
0000
0011
0000
1001
0000
1100
0000
,  // measure 18
0002
0023
0230
2300
,  // measure 19
3010
0000
1000
0001
1000
0010
0100
0000
0110
0000
0101
0000
0011
0000
1001
0000
,  // measure 20
1010
0000
0010
0100
0001
1000
0001
0000
0011
0000
1001
0000
1100
0000
0110
0000
,  // measure 21
0011
0000
0100
0001
0010
0100
1000
0000
1010
0000
1001
0000
1100
0000
0110
0000
,  // measure 22
0001
0000
0010
0000
0100
0000
1000
0000
0010
0100
0010
1000
0100
0010
0001
0000
,  // measure 23
0100
0000
0001
1000
0010
1000
0001
0000
0100
0010
1000
0100
0010
0000
0002
0000
,  // measure 24
1003
0000
0001
0010
0001
0100
0010
0000
1000
0001
1000
0010
0100
0000
0002
0000
,  // measure 25
0013
0000
0001
0100
0010
1000
0010
0000
1000
0001
1000
0010
0100
0000
0002
0000
,  // measure 26
0013
0000
0100
1000
0001
0000
0100
0000
0010
1000
0001
0000
1010
0000
0000
0000
,  // measure 27
0101
0000
0010
1000
0001
1000
0100
0000
0010
0001
0100
0001
1000
0000
0020
0000
,  // measure 28
0130
0000
0010
1000
0100
0010
0001
0000
0100
0001
1000
0001
1000
0000
0200
0000
,  // measure 29
0310
0000
0100
0010
0001
0100
0001
0000
1000
0010
1000
0100
1000
0000
0002
0000
,  // measure 30
0103
0000
0000
0010
0000
0000
0100
0000
0000
0010
0000
0000
0100
0000
0000
0010
0000
0000
0100
0000
0000
0010
0000
0000
0100
0000
0000
0000
0000
0000
0000
0000
0100
0000
0000
0000
0000
0000
0000
0000
0100
0000
0000
0000
0000
0000
0000
0000
,  // measure 31
1001
0100
0110
0000
0000
0010
1000
0001
,  // measure 32
0100
0000
0000
0010
0000
0000
0100
0000
0000
0010
0000
0000
0100
0000
0000
0010
0000
0000
0100
0000
0000
0010
0000
0000
0100
0000
0000
0000
0000
0000
0000
0000
0100
0000
0000
0000
0000
0000
0000
0000
0100
0000
0000
0000
0000
0000
0000
0000
,  // measure 33
0001
0000
1000
0000
0010
0000
1000
0000
0100
0000
0010
0001
0000
0010
0001
0000
,  // measure 34
0100
0000
0010
1000
0000
0010
1000
0000
0100
0000
0010
0001
0000
0010
0001
0000
,  // measure 35
1000
0000
0010
0100
0001
1000
0100
0000
1100
0000
0011
0000
0101
0000
1010
0000
,  // measure 36
0110
0000
0010
1000
0001
1000
0100
0000
0011
0000
1100
0000
1001
0000
0110
0000
,  // measure 37
0101
0000
0001
1000
0100
0010
0100
0000
1100
0000
1001
0000
0011
0000
0101
0000
,  // measure 38
2000
3200
0320
0032
,  // measure 39
0103
0000
0010
1000
0100
1000
0001
0000
0101
0000
1010
0000
1100
0000
1001
0000
,  // measure 40
0011
0000
0001
1000
0100
0010
0001
0000
1001
0000
1100
0000
0110
0000
0011
0000
,  // measure 41
1010
0000
0010
1000
0100
0010
0001
0000
0011
0000
0110
0000
1001
0000
1010
0000
,  // measure 42
0001
0000
1000
0000
0010
0000
0100
0000
0001
0010
0001
0100
0010
1000
0001
0000
,  // measure 43
1000
0000
0010
0100
0010
1000
0001
0000
0010
0001
1000
0001
0100
0000
0020
0000
,  // measure 44
1030
0000
0100
0010
0100
1000
0001
0000
0100
0001
0010
0001
1000
0000
0020
0000
,  // measure 45
1030
0000
0100
0010
0001
1000
0001
0000
1000
0001
0010
0100
1000
0000
0020
0000
,  // measure 46
0130
0000
0001
0010
0100
0000
1000
0000
0010
1000
0001
0000
0011
0000
0000
0000
,  // measure 47
1100
0000
0010
1000
0001
1000
0100
0000
0010
0001
0100
0001
1000
0000
0200
0000
,  // measure 48
0310
0000
0100
1000
0010
0100
0001
0000
1000
0001
1000
0010
0100
0000
0002
0000
,  // measure 49
0013
0000
0100
0010
0001
1000
0001
0000
1000
0010
0100
0001
1000
0000
0200
0000
,  // measure 50
1300
0100
0010
0001
1000
0010
0100
0001
0010
0100
1000
0001
0100
0010
1000
0001
,  // measure 51
0010
0000
0000
0000
;
