#VERSION:0.83;
#TITLE:Superstition;
#SUBTITLE:;
#ARTIST:Stevie Wonder;
#TITLETRANSLIT:;
#SUBTITLETRANSLIT:;
#ARTISTTRANSLIT:;
#GENRE:;
#ORIGIN:;
#CREDIT:;
#BANNER:Superstition.png;
#BACKGROUND:Superstition-bg.png;
#PREVIEWVID:;
#JACKET:Superstition-jacket.png;
#CDIMAGE:;
#DISCIMAGE:;
#LYRICSPATH:;
#CDTITLE:;
#MUSIC:Superstition.ogg;
#OFFSET:1.224000;
#SAMPLESTART:10.000000;
#SAMPLELENGTH:20.000000;
#SELECTABLE:YES;
#DISPLAYBPM:97.000000:106.000000;
#BPMS:0.000=97.000,
16.000=98.000,
18.000=99.000,
28.000=100.000,
48.000=99.000,
68.000=101.000,
84.000=100.000,
108.000=103.000,
112.000=102.000,
113.000=105.000,
120.000=101.000,
132.000=104.000,
136.000=106.000,
148.000=103.000,
156.000=105.000,
168.000=102.000,
180.000=103.000,
188.000=106.000,
200.000=104.000;
#STOPS:;
#DELAYS:;
#WARPS:;
#TIMESIGNATURES:0.000=4=4;
#TICKCOUNTS:0.000=4;
#COMBOS:0.000=1;
#SPEEDS:0.000=1.000=0.000=0;
#SCROLLS:0.000=1.000;
#FAKES:;
#LABELS:0.000=Song Start;
#BGCHANGES:;
#KEYSOUNDS:;
#ATTACKS:
;

//---------------dance-single - ----------------
#NOTEDATA:;
#CHARTNAME:;
#STEPSTYPE:dance-single;
#DESCRIPTION:;
#CHARTSTYLE:;
#DIFFICULTY:Hard;
#METER:12;
#RADARVALUES:0.523780,0.542112,0.402907,0.136989,0.467373,455.000000,405.000000,50.000000,17.000000,0.000000,0.000000,0.000000,0.000000,0.000000,0.523780,0.542112,0.402907,0.136989,0.467373,455.000000,405.000000,50.000000,17.000000,0.000000,0.000000,0.000000,0.000000,0.000000;
#CREDIT:;
#DISPLAYBPM:97.000000:106.000000;
#NOTES:
0000
0000
0000
0000
,
0000
0000
0000
0000
,
0000
0000
0000
0000
,
0000
0000
0000
0000
,
0000
0000
0000
0000
,
1000
0000
1000
0000
0100
0000
0100
0000
0010
0000
0001
0100
0000
0100
0010
0000
,
1000
0000
1000
0000
0001
0000
0001
0000
0100
0000
0010
1000
0001
0000
0010
0000
,
0100
0000
0100
0000
0010
0000
0010
0000
0001
0000
1000
0010
0000
0010
0100
0000
,
0010
0000
0010
0000
1000
0000
1000
0000
0001
0000
0100
0000
0010
0000
0100
0001
,
0000
0001
1000
0000
0010
0000
0100
0000
0010
0000
1000
0100
0000
1000
0001
0000
,
0100
0000
0001
0000
0100
0000
0010
0000
1000
0000
0100
0000
0010
0000
0001
1000
,
0000
1000
0100
0000
1000
0000
0010
0000
0100
0000
0001
0010
0000
0001
1000
0000
,
0010
0000
0100
0000
0010
0000
1000
0000
0100
0000
0010
0000
0001
0000
1000
0001
,
0000
0010
0001
0000
0100
0000
0010
0000
1000
0000
0001
1000
0000
1000
0100
0000
,
0010
0000
0001
0000
1000
0000
0001
0000
1000
0100
0000
0010
0000
0100
0000
0010
,
0001
0000
0100
0000
0010
0000
0100
0000
0010
0000
1000
0100
0000
1000
0001
0000
,
0010
0000
0001
0000
0100
0000
0010
0000
1000
0001
0000
0010
0000
0001
0000
0100
,
0000
0000
0101
0000
0000
0101
0000
0000
0001
0010
0100
1000
0000
1000
0001
1000
,
0000
0000
0010
0000
0010
1000
0100
0000
1100
0000
1001
0000
0101
0000
0000
0000
,
0001
0000
0011
0000
0000
0011
0000
0000
0001
1000
0100
0010
0000
0010
0001
0010
,
0000
0000
0001
0000
0001
1000
0100
0000
1100
0000
0110
0000
0011
0000
0000
0000
,
0100
0000
0110
0000
0000
0110
0000
0000
0010
1000
0001
0100
0000
0100
0001
0100
,
0000
0000
0010
0000
0010
1000
0001
0000
0101
0000
1010
0000
1100
0000
0000
0000
,
0010
0000
1010
0000
0000
1010
0000
0000
1000
0001
0100
0010
0000
0010
1000
0010
,
0000
0000
1000
0000
1000
0100
0010
0000
0011
0000
0101
0000
1001
0000
0000
0000
,
1020
0000
0100
0000
0130
0010
0100
0000
0102
0000
1000
0000
1003
0001
1000
0000
,
2100
0000
0001
0000
3001
0100
0001
0000
0210
0000
0010
0000
0310
1000
0010
0000
,
1000
0000
1000
0000
0001
0000
0001
0000
1000
0100
0010
0001
0100
0001
1000
0010
,
0200
0000
0000
0000
0301
0100
0000
0000
0010
1000
0000
0000
0010
0000
1000
0001
,
0000
0001
0100
0000
0010
0000
0010
0000
1000
0000
0100
1000
0000
1000
0001
0000
,
0010
0000
0010
0000
0001
0000
0001
0000
0100
0000
0010
1000
0001
1000
0100
0000
,
1000
0000
1000
0000
0001
0000
0001
0000
0010
0000
0001
0100
0000
0100
0010
0000
,
1000
0000
1000
0000
0100
0000
0100
0000
1000
0000
0001
0010
0100
0010
0001
0000
,
0012
0000
1000
0000
1003
0001
1000
0000
2100
0000
0010
0000
3010
1000
0010
0000
,
0120
0000
0100
0000
0130
0010
0100
0000
0201
0000
0010
0000
0310
1000
0020
0000
,
0100
0000
0100
0000
1000
0000
1000
0000
0130
0010
1000
0001
0010
0001
1000
0100
,
1000
0010
0000
2000
0000
3002
0000
0103
0001
1000
0100
0000
1100
0000
0101
0000
,
0010
0000
1000
0000
1000
0000
0001
0000
0001
0000
1000
0100
0000
0100
0010
0000
,
0001
0000
0100
0000
0100
0000
0010
0000
0010
0000
1000
0100
0010
0001
1000
0000
,
0100
0000
1000
0000
1000
0000
0001
0000
0001
0000
0100
0010
0000
0010
1000
0000
,
0001
0000
0100
0000
0100
0000
0010
0000
0010
0000
1000
0100
1000
0001
1000
0000
,
0000
0000
1100
0000
0000
0011
0000
0000
0100
0010
1000
0001
0000
0001
0100
0001
,
0000
0000
0010
0000
0010
0001
0100
0000
0110
0000
1001
0000
1010
0000
0000
0000
,
0100
0000
1100
0000
0000
0101
0000
0000
0001
1000
0010
0100
0000
0100
0010
0100
,
0000
0000
0010
0000
0010
1000
0001
0000
0101
0000
0110
0000
1010
0000
0000
0000
,
0100
0000
1010
0000
0000
0101
0000
0000
0001
1000
0100
0010
0000
0001
0100
0001
,
0000
0000
0100
0000
0100
0001
1000
0000
1100
0000
0011
0000
0110
0000
0000
0000
,
0010
0000
0011
0000
0000
1010
0000
0000
0100
0001
0100
0010
0000
0010
1000
0010
,
0000
0000
1000
0000
1000
0100
0010
0000
0110
0000
0011
0000
1001
0000
0000
0000
,
0020
0000
0230
0000
,
0302
0000
2003
0000
,
3020
0000
0000
0030
;

//---------------dance-single - ----------------
#NOTEDATA:;
#CHARTNAME:;
#STEPSTYPE:dance-single;
#DESCRIPTION:;
#CHARTSTYLE:;
#DIFFICULTY:Medium;
#METER:9;
#RADARVALUES:0.310814,0.349321,0.096698,0.322326,0.064465,270.000000,258.000000,12.000000,40.000000,0.000000,0.000000,0.000000,0.000000,0.000000,0.310814,0.349321,0.096698,0.322326,0.064465,270.000000,258.000000,12.000000,40.000000,0.000000,0.000000,0.000000,0.000000,0.000000;
#CREDIT:;
#DISPLAYBPM:97.000000:106.000000;
#NOTES:
0000
0000
0000
0000
,
0000
0000
0000
0000
,
0000
0000
0000
0000
,
0000
0000
0000
0000
,
0000
0000
0000
0000
,
1000
0100
1000
0100
0010
0000
0010
0000
,
0001
0100
0001
0100
0010
0000
0010
0000
,
1000
0001
1000
0001
0010
0000
0010
0000
,
0001
1000
0001
1000
0100
0000
0100
0000
,
0001
1000
0100
1000
0001
0000
0010
0000
,
0001
0100
0010
0100
0001
0000
1000
0000
,
0100
1000
0001
1000
0010
0000
0100
0000
,
0010
1000
0100
0010
0001
0000
1000
0000
,
0010
0100
0010
1000
0001
0000
0100
0000
,
0001
0010
0100
1000
0100
0000
0001
0000
,
1000
0001
0010
0100
0010
0000
0001
0000
,
0100
0001
1000
0001
1000
0000
0010
0000
,
0000
0000
0100
0000
0000
0100
0000
0000
0001
0000
0000
1000
0000
0000
0001
0000
,
0000
0100
0020
0000
1000
1000
1030
0000
,
0000
0000
0001
0000
0000
0001
0000
0000
0100
0000
0000
0010
0000
0000
0100
0000
,
0000
0001
0200
0000
0010
0010
0310
0000
,
0000
0000
1000
0000
0000
1000
0000
0000
0100
0000
0000
0010
0000
0000
0100
0000
,
0000
1000
0002
0000
0100
0100
0103
0000
,
0000
0000
0010
0000
0000
0010
0000
0000
1000
0000
0000
0001
0000
0000
1000
0000
,
0000
0100
2000
0000
0001
0001
3001
0000
,
0012
0000
0103
0010
2000
0000
3100
0010
,
0200
0000
1300
0001
0020
0000
0031
0100
,
0010
0010
0100
0100
0001
0001
1000
1000
,
0100
0000
1001
0000
0110
0000
1000
0001
,
0100
0010
0100
0010
1000
0000
0101
0000
,
0010
0100
0010
0100
0001
0000
1100
0000
,
0100
1000
0010
0100
0001
0000
1001
0000
,
0010
1000
0100
0010
0100
0000
1100
0000
,
1020
0000
0130
0010
2000
0000
3001
0010
,
0200
0000
1300
0100
0002
0000
1003
0010
,
0100
0100
0010
0010
1000
1000
0001
0001
,
0010
0100
1000
0001
0100
0010
1000
0001
,
0010
0001
0100
0001
1000
0000
1100
0000
,
0010
1000
0100
1000
0001
0000
0101
0000
,
0001
1000
0100
0010
0001
0000
0110
0000
,
0010
1000
0100
1000
0001
0000
1010
0000
,
0000
0000
2000
0000
0000
3002
0000
0000
0203
0000
0000
0302
0000
0000
2003
0000
,
0000
3010
0200
0000
0001
1000
0301
0000
,
0000
0000
0020
0000
0000
2030
0000
0000
3200
0000
0000
2300
0000
0000
3020
0000
,
0000
0130
0002
0000
0010
0100
0013
0000
,
0000
0000
0002
0000
0000
0023
0000
0000
0230
0000
0000
0320
0000
0000
0032
0000
,
0000
0103
2000
0000
0100
0001
3100
0000
,
0000
0000
2000
0000
0000
3020
0000
0000
0032
0000
0000
0023
0000
0000
2030
0000
,
0000
3001
0200
0000
0010
1000
0310
0000
,
0002
0000
2003
0000
,
3020
0000
0230
0000
,
0310
0000
0000
0000
;

//---------------dance-single - ----------------
#NOTEDATA:;
#CHARTNAME:;
#STEPSTYPE:dance-single;
#DESCRIPTION:;
#CHARTSTYLE:;
#DIFFICULTY:Easy;
#METER:5;
#RADARVALUES:0.188791,0.184934,0.056407,0.128930,0.000000,164.000000,157.000000,7.000000,16.000000,0.000000,0.000000,0.000000,0.000000,0.000000,0.188791,0.184934,0.056407,0.128930,0.000000,164.000000,157.000000,7.000000,16.000000,0.000000,0.000000,0.000000,0.000000,0.000000;
#CREDIT:;
#DISPLAYBPM:97.000000:106.000000;
#NOTES:
// measure 0
0000
0000
0000
0000
,  // measure 1
0000
0000
0000
0000
,  // measure 2
0000
0000
0000
0000
,  // measure 3
0000
0000
0000
0000
,  // measure 4
0000
0000
0000
0000
,  // measure 5
1000
0100
0001
0100
,  // measure 6
1000
0001
0010
0000
,  // measure 7
0001
0100
0010
0100
,  // measure 8
0001
1000
0010
0000
,  // measure 9
1000
0001
0010
0001
,  // measure 10
0100
1000
0100
0000
,  // measure 11
1000
0001
0010
0100
,  // measure 12
0010
0100
1000
0000
,  // measure 13
0001
1000
0100
0100
,  // measure 14
1000
0001
0100
0000
,  // measure 15
0010
0100
0001
0001
,  // measure 16
0010
0100
1000
0000
,  // measure 17
0000
1001
0100
0010
,  // measure 18
0000
1000
0001
0001
,  // measure 19
0000
0110
0001
1000
,  // measure 20
0000
0100
0010
0010
,  // measure 21
0000
0110
0010
0001
,  // measure 22
0000
0100
1000
1000
,  // measure 23
0000
1001
0100
1000
,  // measure 24
0000
0001
0010
0010
,  // measure 25
0002
0103
2000
3100
,  // measure 26
0020
1030
0200
0301
,  // measure 27
0020
0000
0000
0030
,  // measure 28
1001
0100
0200
0300
,  // measure 29
0001
0010
0100
1000
,  // measure 30
0100
0010
0001
0000
,  // measure 31
0100
0001
1000
0100
,  // measure 32
0010
0100
1000
0000
,  // measure 33
0020
0130
0002
1003
,  // measure 34
0200
0310
2000
3001
,  // measure 35
2000
0000
0000
3000
,  // measure 36
0110
0100
0002
0003
,  // measure 37
0010
0010
0100
0100
,  // measure 38
1000
0001
1000
0001
,  // measure 39
1000
1000
0100
0100
,  // measure 40
0010
0001
0010
0001
,  // measure 41
0100
0010
1000
0001
,  // measure 42
0010
0100
1000
0001
,  // measure 43
1000
0100
0010
0001
,  // measure 44
0010
0001
0100
1000
,  // measure 45
0001
0010
0001
0100
,  // measure 46
1000
0100
1000
0010
,  // measure 47
0100
0010
0100
0010
,  // measure 48
1000
0001
1000
0001
,  // measure 49
0200
0300
0020
0030
,  // measure 50
2000
3000
0002
0003
,  // measure 51
1001
0000
0000
0000
;

//---------------dance-single - ----------------
#NOTEDATA:;
#CHARTNAME:;
#STEPSTYPE:dance-single;
#DESCRIPTION:;
#CHARTSTYLE:;
#DIFFICULTY:Beginner;
#METER:2;
#RADARVALUES:0.112814,0.143838,0.056407,0.000000,0.000000,98.000000,91.000000,7.000000,0.000000,0.000000,0.000000,0.000000,0.000000,0.000000,0.112814,0.143838,0.056407,0.000000,0.000000,98.000000,91.000000,7.000000,0.000000,0.000000,0.000000,0.000000,0.000000,0.000000;
#CREDIT:;
#DISPLAYBPM:97.000000:106.000000;
#NOTES:
0000
0000
0000
0000
,
0000
0000
0000
0000
,
0000
0000
0000
0000
,
0000
0000
0000
0000
,
0000
0000
0000
0000
,
1000
0000
1000
0000
,
0001
0000
0001
0000
,
0100
0000
0100
0000
,
0010
0000
0010
0000
,
1000
0000
0000
0000
,
0000
0000
0001
0001
,
0001
0000
1000
0000
,
0010
0000
0100
0000
,
0010
0000
0000
0000
,
0000
0000
0100
0100
,
0100
0000
0010
0000
,
1000
0000
0001
0000
,
0010
0000
0100
0000
,
0001
0000
1000
1000
,
1000
0000
0100
0000
,
0010
0000
0001
0000
,
0100
0000
0001
0000
,
0010
0000
1000
1000
,
1000
0000
0001
0000
,
0100
0000
0010
0000
,
1000
0000
0000
0000
,
0100
0000
0000
0000
,
0010
0000
0000
0000
,
1001
0000
0110
0000
,
1001
0000
0000
0000
,
0010
0010
0010
0010
,
0010
0000
0100
0000
,
0001
0000
1000
0000
,
0100
0000
0000
0000
,
0010
0000
0000
0000
,
0001
0000
0000
0000
,
0110
0000
1001
0000
,
0110
0000
0000
0000
,
1000
1000
1000
1000
,
1000
0000
0100
0000
,
0001
0000
0010
0000
,
0001
0000
1000
0000
,
0010
0000
0100
0100
,
0100
0000
1000
0000
,
0010
0000
0001
0001
,
0001
0000
0100
0000
,
1000
0000
0010
0010
,
0010
0000
0100
0000
,
0001
0000
1000
1000
,
1000
0000
0000
0000
,
0010
0000
0000
0000
,
1001
0000
0000
0000
;

//---------------dance-single - ----------------
#NOTEDATA:;
#CHARTNAME:;
#STEPSTYPE:dance-single;
#DESCRIPTION:;
#CHARTSTYLE:;
#DIFFICULTY:Challenge;
#METER:14;
#RADARVALUES:0.646954,0.646364,0.596303,0.459314,0.640623,562.000000,488.000000,74.000000,57.000000,0.000000,0.000000,0.000000,0.000000,0.000000,0.646954,0.646364,0.596303,0.459314,0.640623,562.000000,488.000000,74.000000,57.000000,0.000000,0.000000,0.000000,0.000000,0.000000;
#CREDIT:;
#DISPLAYBPM:97.000000:106.000000;
#NOTES:
0000
0000
0000
0000
,
0000
0000
0000
0000
,
0000
0000
0000
0000
,
0000
0000
0000
0000
,
0000
0000
0000
0000
0000
0000
0000
0000
0000
0010
0100
0000
0110
0000
1001
0000
,
1000
0000
0200
0000
0320
0000
0032
0000
0103
0000
0010
1000
0000
1000
0001
0100
,
0010
0000
0200
0000
0302
0000
2003
0000
3010
0000
1000
0100
0010
0100
1000
0000
,
0001
0000
2000
0000
3200
0000
0320
0000
0130
0000
1000
0010
0000
1000
0001
0100
,
0001
0000
0020
0000
0230
0000
2300
0000
3010
0000
0100
0001
1000
0010
0100
0000
,
1000
0000
0002
0000
2003
0000
3200
0000
0310
0000
0001
0100
0000
0100
0010
1000
,
0100
0000
2000
0000
3020
0000
0230
0000
0301
0000
0010
0001
0100
0010
1000
0000
,
0100
0000
2000
0000
3020
0000
0032
0000
0013
0000
1000
0100
0000
1000
0010
0001
,
1000
0000
0200
0000
0320
0000
0032
0000
0103
0000
0001
0010
0100
1000
0001
0000
,
1000
0000
0020
0000
2030
0000
3002
0000
0103
0000
0001
1000
0000
0001
0100
1000
,
0001
0000
2000
0000
3020
0000
0230
0000
0301
0000
0010
0100
1000
0100
1000
0000
,
0010
0000
2000
0000
3200
0000
2300
0000
3010
0000
0100
0001
0000
1000
0001
0010
,
0001
0000
0200
0000
0320
0000
2030
0000
3100
0000
1000
0010
0100
0001
0010
0000
,
0001
0000
0101
0000
1000
1100
0000
1000
0010
0100
0010
1000
0100
0010
0001
0100
,
0010
0000
0110
0000
1000
0100
0010
0001
0101
0000
0110
0000
1010
0000
0000
0000
,
1000
0000
1010
0000
0001
0011
0000
0010
0001
0100
0010
0100
0001
0010
0100
1000
,
0100
0000
1010
0000
0010
0100
0001
1000
1100
0000
1001
0000
0110
0000
0000
0000
,
0010
0000
1010
0000
0001
1001
0000
0001
1000
0100
0010
0100
1000
0001
0100
0001
,
0010
0000
0011
0000
0001
0100
0010
1000
1100
0000
0011
0000
1010
0000
0000
0000
,
0100
0000
1001
0000
0010
0110
0000
0010
1000
0001
0010
0100
0001
0100
0010
1000
,
0100
0000
0011
0000
0010
0100
1000
0001
0101
0000
0110
0000
1100
0000
0000
0000
,
2000
0100
0100
0000
3001
1000
0100
0000
0020
0001
0001
0000
0130
0010
0001
0000
,
0200
0010
0010
0000
0301
1000
0100
0000
0002
1000
1000
0000
0013
0001
0100
0000
,
0001
0010
0100
1000
0100
0010
0001
0100
0010
1000
0001
1000
0100
0010
0001
0100
,
0010
0010
0000
0000
0100
0100
0000
0000
0001
0001
0000
0000
1000
0000
0010
0100
,
0001
0000
0011
0000
0101
0000
1001
0000
1100
0000
1000
0010
0000
1000
0001
0100
,
0001
0000
0101
0000
0110
0000
1010
0000
1100
0000
1000
0001
0010
0100
1000
0000
,
0010
0000
1010
0000
1001
0000
1100
0000
0011
0000
0100
0010
0000
1000
0100
0001
,
0100
0000
1100
0000
1010
0000
0011
0000
0110
0000
0100
0001
1000
0100
0010
0000
,
0002
0100
0100
0000
1003
0001
0100
0000
0020
0100
0100
0000
1030
0100
0010
0000
,
0200
1000
1000
0000
0310
0100
1000
0000
2000
0010
0010
0000
3001
0100
0001
0000
,
1000
0100
0010
0100
1000
0010
0001
1000
0100
0001
0100
0010
1000
0001
0010
0001
,
0100
0010
0100
0020
0000
0230
0000
0301
1000
1000
0100
0100
0010
0010
0001
0001
,
0100
0000
0002
0000
2003
0000
3200
0000
1300
0000
0010
0100
0000
0100
0001
1000
,
0100
0000
1100
0000
0011
0000
0110
0000
1001
0000
0010
1000
0100
0010
0001
0000
,
0010
0000
0101
0000
1100
0000
0101
0000
0110
0000
0010
1000
0000
1000
0001
0100
,
0010
0000
2000
0000
3200
0000
2300
0000
3001
0000
0100
0001
0010
0100
1000
0000
,
0010
0000
0110
0000
0100
0101
0000
0001
0010
0100
1000
0100
1000
0100
0010
0001
,
0100
0000
0110
0000
0010
1000
0100
0010
0011
0000
0101
0000
0011
0000
0000
0000
,
0100
0000
1001
0000
1000
0101
0000
0001
1000
0001
0010
0100
0010
0100
1000
0010
,
0100
0000
0110
0000
0001
1000
0100
1000
1100
0000
1001
0000
0110
0000
0000
0000
,
0010
0000
1001
0000
0010
1010
0000
1000
0100
0010
1000
0100
0010
0001
0100
0001
,
1000
0000
0101
0000
1000
0100
0010
0001
0101
0000
1100
0000
0101
0000
0000
0000
,
1000
0000
1100
0000
0001
0011
0000
0100
0001
1000
0100
0010
0100
1000
0010
0100
,
0001
0000
1001
0000
1000
0100
0010
0001
0101
0000
1010
0000
1001
0000
0000
0000
,
0020
0000
0002
0030
,
0200
0003
2000
0300
,
0020
0000
0000
3030
;
