#TITLE:Stuck;
#SUBTITLE:;
#ARTIST:Stacie Orrico;
#TITLETRANSLIT:;
#SUBTITLETRANSLIT:;
#ARTISTTRANSLIT:;
#GENRE:;
#CREDIT:;
#BANNER:Stuck-bn.png;
#BACKGROUND:Stuck-bg.png;
#LYRICSPATH:;
#CDTITLE:;
#MUSIC:Stuck.ogg;
#OFFSET:1.083333;
#SAMPLESTART:56.509998;
#SAMPLELENGTH:20.000000;
#LASTBEATHINT:0.137500;
#SELECTABLE:YES;
#DISPLAYBPM:99.000000:101.000000;
#BPMS:0.000000=99.000000
,4.000000=100.000000
,140.000000=100.500000
,144.000000=100.000000
,148.000000=100.500000
,168.000000=100.000000
,176.000000=99.000000
,184.000000=100.000000
,188.000000=101.000000
,192.000000=100.000000
,204.000000=99.500000
;
#STOPS:
;
#BGCHANGES:;
#KEYSOUNDS:;
#ATTACKS:;

//---------------dance-single - ----------------
#NOTES:
     dance-single:
     :
     Hard:
     12:
     0.465200,0.527993,0.465200,0.210090,0.300129,434.000000,372.000000,62.000000,28.000000,0.000000,0.000000,0.465200,0.527993,0.465200,0.210090,0.300129,434.000000,372.000000,62.000000,28.000000,0.000000,0.000000:
0000
0000
0000
0000
,
0000
0000
0000
0000
,
0000
0000
0000
0000
,
0000
0000
0000
0000
,
0000
0000
0000
0000
,
1100
0000
0000
0000
0101
0000
0000
0000
0011
0000
0000
1100
0000
0000
0010
0000
,
0000
0000
0110
0000
0000
1001
0000
0000
1010
0000
0000
0110
0000
0000
0101
0000
,
0001
0010
0100
1000
0010
0100
0001
1000
,
0010
0000
1000
0000
0100
0000
0010
0000
0001
1000
0001
0000
0100
0000
0010
0000
,
1000
0000
1000
0000
1000
0000
0010
0000
0100
0001
0000
0010
0001
0000
0000
0000
,
0010
0100
0000
0100
1000
0000
0001
0000
0001
0000
0100
0000
0010
0000
1000
0000
,
0001
0000
0001
0000
0001
0000
0010
0000
0100
1000
0000
0001
1000
0000
0000
0010
,
1000
0000
0100
0000
0010
0000
0100
0000
1000
0000
0000
0001
0100
0000
0000
0000
,
0101
0000
0000
0000
1100
0000
0000
0000
1010
0000
0000
0101
0000
0000
0100
0000
,
0000
0000
0110
0000
0000
1010
0000
0000
1001
0000
0000
0011
0000
0000
0110
0000
,
1000
0010
1000
0100
0010
0001
0100
0001
,
0010
0000
0100
0000
1000
0000
0010
0000
1000
0100
1000
0000
0001
0000
0000
0000
,
0011
0000
0011
0000
0010
0100
1000
0000
1100
0000
1100
0000
1000
0001
0100
0000
,
0101
0000
0101
0000
0001
1000
0010
0000
2000
0001
3000
0000
0200
0010
0300
0000
,
1010
0000
1010
0000
1000
0100
0010
0000
0011
0000
0011
0000
0001
1000
0010
0000
,
1000
1100
0101
0001
0100
0010
0010
0000
,
1000
0000
1001
0000
0001
0010
0000
0010
0100
0000
0100
0000
0110
0000
0000
0000
,
1000
0010
1000
0100
0010
0100
0010
0001
,
1001
1001
1001
1001
1001
1001
1001
1001
,
0020
0000
0000
0000
1030
0001
1000
0000
0002
0000
0100
0000
0103
0000
0010
0000
,
1000
0000
1000
0000
0001
0000
0001
0000
0010
0100
1000
0000
0010
0000
0100
0000
,
0002
0000
0000
0000
1003
0010
1000
0000
0200
0000
0010
0000
0310
0000
0100
0000
,
1000
0000
0001
0000
0001
0000
0010
0000
0100
1000
0001
0000
1000
0000
0010
0000
,
2010
0000
0000
0000
3001
0000
0000
0000
0012
0000
0000
0000
1003
0010
0100
0010
,
1000
0000
0010
0000
0010
0000
0010
0000
0100
0000
0100
0000
0001
0000
1000
0001
,
0010
0001
0100
0000
0101
0000
0000
0101
0000
0010
1000
0000
1010
0000
0000
1010
,
0000
1000
0001
0000
0001
0000
0010
0000
0200
0000
0000
2300
0000
0000
3001
0000
,
1000
0010
0100
0000
0100
0000
0100
0000
0100
0000
0100
0000
0100
0000
0001
1000
,
0010
0100
0020
0000
0000
0000
1000
0000
2030
0000
0000
0000
3001
0000
0000
0000
,
2002
0000
0000
0000
3003
0000
1000
0010
1000
0000
0000
0001
1000
0000
0000
0001
,
0200
0000
0000
0000
0300
0000
0000
0010
1000
0010
1000
0000
0001
0000
0001
0000
,
0220
0000
0000
0000
0330
0000
0100
0010
0100
0000
0000
0001
1000
0000
0000
0001
,
0020
0000
0000
0000
0030
0000
0000
0001
1000
0001
1000
0000
0010
0000
0010
0000
,
1000
0001
0200
0000
0000
0000
0310
0000
0010
0100
0002
0000
0000
0000
1003
0000
,
0000
0000
0001
0010
0000
0000
0100
1000
0000
0000
0001
0100
0000
0000
0010
1000
,
0200
0000
0000
0000
1300
0010
1000
0000
0002
0000
0010
0000
0013
0000
0100
0000
,
1000
0000
0010
0000
0010
0000
0100
0000
0100
0001
1000
0000
0001
0000
0010
0000
,
0002
0000
0000
0000
1003
0010
1000
0000
0020
0000
0100
0000
0130
0000
0001
0000
,
0010
0000
0001
0000
0001
0000
1000
0000
1000
0010
0100
0000
0010
0000
1000
0000
,
2100
0000
0000
0000
3001
0000
0000
0000
0102
0000
0000
0000
1003
0100
0010
0100
,
1000
0000
0001
0000
0001
0000
0001
0000
0100
0000
0100
0000
0010
0000
1000
0100
,
0010
0001
0100
0000
0110
0000
0000
0110
0000
0010
1000
0000
1001
0000
0000
1001
,
0000
0001
1000
0000
0100
0000
0100
0000
0010
0001
0000
1000
0010
0000
0100
0000
,
0001
1000
0001
0000
0101
0000
0000
1100
0000
0100
0010
0000
0011
0000
1010
0000
,
0000
0010
1000
0000
1000
0000
0100
0000
0010
0001
0000
0001
1000
0000
0010
0000
,
1010
0101
0011
0110
,
1000
0010
2000
0000
0000
0000
0001
0000
3002
0000
0000
0000
0013
0000
0000
0001
,
1000
0001
0100
0000
0000
0000
0000
0000
0000
0000
0000
0000
0000
0000
0000
0000
;

//---------------dance-single - ----------------
#NOTES:
     dance-single:
     :
     Challenge:
     13:
     0.543448,0.625113,0.525226,0.225097,0.495213,507.000000,437.000000,70.000000,30.000000,0.000000,0.000000,0.543448,0.625113,0.525226,0.225097,0.495213,507.000000,437.000000,70.000000,30.000000,0.000000,0.000000:
0000
0000
0000
0000
,
0000
0000
0000
0000
,
0000
0000
0000
0000
,
0000
0000
0000
0000
,
0000
0000
0000
0000
,
1100
0000
0000
0000
0001
0010
0000
0000
0011
0000
0000
0101
0000
0000
1001
0000
,
1000
0000
1100
0000
0001
1000
0010
0000
0110
0000
0000
1010
0000
0000
1001
0000
,
0020
0000
1000
0000
0100
0000
1030
0000
0001
0010
0001
0000
0000
0000
0010
0000
,
0001
0000
1000
0000
0010
0000
1000
0000
0010
0100
0001
0000
0101
0000
1010
0000
,
0001
0000
0001
0000
1000
0000
1000
0000
0010
1000
0000
0100
0010
0000
0000
0000
,
0001
1000
0000
1000
0100
0000
0100
0000
0100
1000
0001
0000
0100
0010
1000
0000
,
0010
0000
0010
0000
0100
0000
0100
0000
0001
1000
0000
1000
0001
0000
0000
0010
,
0000
0000
0100
0000
0000
0000
1000
0000
0000
0000
0001
0000
0100
0000
0000
0000
0020
0000
0000
0000
0000
0000
1030
0010
1000
0000
0000
0000
0000
0000
0000
0000
,
0011
0000
0000
0000
1000
0010
0000
0000
1010
0000
0000
0101
0000
0000
0110
0000
,
0010
0000
1010
0000
1000
0100
0010
0000
0011
0000
0000
0110
0000
0000
1100
0000
,
0002
0000
0010
0000
0100
0000
0013
0000
1000
0001
1000
0000
0000
0000
0100
0000
,
1000
0000
0010
0000
0100
0000
0001
0000
0010
0100
1000
0000
0101
0000
0000
0000
,
1001
0000
0001
0100
1000
0100
0001
0000
0011
0000
0001
0010
1000
0010
0001
0000
,
0101
0000
0100
0001
0100
0010
0100
1000
0100
0001
0100
0001
1000
0100
1000
0000
,
1100
0000
1000
0010
0001
0010
1000
0000
1010
0000
1000
0100
0001
0100
1000
0000
,
0001
0000
0011
0000
0101
0000
1000
0000
0010
0000
0200
0000
0000
0301
0000
0000
,
1000
0000
2010
0000
0000
0001
0000
3100
1000
0000
0010
0000
0110
0000
0000
0000
,
0100
0102
2003
3010
1000
0002
0013
0100
,
1100
0000
0000
0101
0000
0000
1100
0000
0000
0101
0000
0000
1100
0000
0000
0000
0000
0001
0100
0000
0100
0010
0000
0000
,
2000
0000
0000
0000
3100
0010
0001
0000
0100
0010
1000
0000
0001
0000
1000
0000
,
0010
0000
1010
0000
0110
0000
0101
0000
0001
1000
0100
0000
0010
0001
0100
0000
,
0020
0000
0000
0000
0130
0001
1000
0000
0001
0010
0100
0000
1000
0000
0001
0000
,
0010
0000
0011
0000
1001
0000
1100
0000
1000
0010
0100
0000
0001
0010
0100
0000
,
1000
0100
1000
0000
0001
0000
0000
0000
0001
1000
0000
0000
0001
1000
0100
0010
,
0001
0000
0100
0000
0010
0000
1000
0000
1001
0000
0110
0000
1000
0100
0010
0001
,
0100
0010
1000
0000
0002
1000
0000
1003
0000
0010
0100
0000
0002
1000
0000
1003
,
0000
0001
0100
0000
0110
0000
1010
0000
1000
0100
0000
0010
0001
0000
0100
0010
,
1000
0000
1100
0000
0101
0000
1100
0000
0101
0000
1100
0000
0101
0000
0001
1000
,
0010
0100
0020
0000
0000
0000
1000
0000
2030
0000
0000
0000
3001
0000
0000
0010
,
0200
0000
0000
1000
0000
0000
1300
0001
0200
0000
0000
0310
2000
0000
0000
3001
,
0200
0000
0000
0000
0000
0000
0310
0000
0000
0000
0000
0100
0001
0000
0001
1000
0000
0000
1100
0000
0000
0011
0000
0000
,
0002
0000
0000
1000
0000
0000
1003
0100
0020
0000
0000
0031
0200
0000
0000
0310
,
2000
0000
0000
0000
0000
0000
3010
0000
0000
0000
0000
1000
0100
0000
0100
0010
0000
0000
0110
0000
0000
1100
0000
0000
,
0001
1000
0001
0000
0010
0100
1000
0000
0010
0100
0001
0000
1000
0100
0010
0000
,
0001
0000
0010
0100
0000
0000
0100
1000
0000
0000
1000
0001
0000
0000
0001
0010
,
0002
0000
0000
0000
0013
0100
1000
0000
0001
1000
0100
0000
1000
0010
0100
0000
,
0001
0000
1001
0000
0101
0000
0011
0000
0010
0100
1000
0000
0001
1000
0010
0000
,
0200
0000
0000
0000
0310
0100
0001
0000
1000
0001
0010
0000
0100
1000
0001
0000
,
0100
0000
0110
0000
1010
0000
1100
0000
1000
0001
0010
0000
0001
0100
0010
0000
,
0001
0100
0001
0000
1000
0000
0000
0000
0010
0100
0000
0000
0010
1000
0001
0100
,
0010
0000
0100
0000
0100
0000
0001
0000
0010
0001
0100
0000
0001
0010
0100
1000
,
0010
1000
0001
0000
0020
0100
0000
0031
0000
1000
0010
0000
2000
0100
0000
3001
,
0000
1000
0010
0000
0110
0000
1001
0000
1000
0010
0000
1000
0001
0000
0010
0100
,
1000
0010
0100
0000
0002
0010
0000
1003
0000
0001
1000
0000
0100
1000
0001
0000
,
0010
0100
1000
0000
1100
0000
0011
0000
0010
0001
0000
0100
0001
0000
1000
0010
,
1000
0000
1100
0000
0101
0000
1100
0000
0101
0000
1100
0000
0101
0000
1000
0010
,
1000
0001
0020
0000
0000
0000
0001
0000
0032
0000
0000
0000
1003
0000
0000
0001
,
1000
0001
0200
0000
0000
0000
0000
0000
0000
0000
0000
0000
0000
0000
0000
0000
,
0000
0000
0000
0300
;

//---------------dance-single - ----------------
#NOTES:
     dance-single:
     :
     Medium:
     9:
     0.356939,0.526726,0.495213,0.465200,0.086287,333.000000,267.000000,66.000000,62.000000,0.000000,0.000000,0.356939,0.526726,0.495213,0.465200,0.086287,333.000000,267.000000,66.000000,62.000000,0.000000,0.000000:
0000
0000
0000
0000
,
0000
0000
0000
0000
,
0000
0000
0000
0000
,
0000
0000
0000
0000
,
0000
0000
0000
0000
,
2100
0000
0000
0000
3002
0000
0000
0000
0103
0000
0000
0100
0000
0000
0000
0000
,
0000
0000
0102
0000
0000
2003
0000
0000
3020
0000
0000
0230
0000
0000
0301
0000
,
1000
0100
1000
0001
0001
0000
0000
0010
,
0001
1000
0010
0100
0000
0000
0000
0000
,
2000
0000
0000
0010
0000
0000
3010
0000
0002
0000
0000
0100
0000
0000
0103
0000
,
0020
0000
0000
0100
0000
0000
0130
0000
0001
1000
0001
0000
0100
0000
0100
0000
,
0002
0000
0000
0010
0000
0000
0013
0000
0200
0000
0000
1000
0000
0000
1300
0000
,
0020
0000
0000
1000
0000
0000
1030
0000
0010
0100
0010
0000
1000
0000
1000
0000
,
2010
0000
0000
0000
3002
0000
0000
0000
0013
0000
0000
0010
0000
0000
0000
0000
,
0000
0000
0021
0000
0000
0032
0000
0000
2003
0000
0000
3020
0000
0000
0130
0000
,
0001
0010
0001
0100
0200
0000
0000
0310
,
1000
0001
0010
0100
2000
0000
3001
0000
,
1001
1001
0010
0000
0110
0110
1000
0000
,
0101
0000
0101
0000
1000
0000
0000
0000
0000
0101
0000
0000
0000
1100
0000
0000
,
1010
1010
0001
0000
0011
0011
0100
0000
,
1000
0001
0010
0100
1000
1000
1000
0000
,
0000
0000
0002
0000
0000
2003
0000
0000
0010
0000
0010
0000
3010
0000
0000
0000
,
1000
0020
0000
0130
0001
2000
0000
3100
,
1001
1001
1001
1001
1001
1001
1001
1001
,
0002
0000
0023
0000
0230
0000
1300
0001
,
0000
1000
1000
1000
0010
0010
0100
0001
,
2000
0000
3020
0000
0230
0000
0301
0100
,
0000
0010
0010
0100
0001
0001
1000
1000
,
0020
0000
2030
0000
3002
0000
0103
0010
,
1000
0001
0001
0001
0010
0010
0100
1000
,
1010
1010
0001
0000
0101
0101
0010
0000
,
0110
0000
0110
0000
0010
0000
1000
0000
0000
0011
0000
0000
0000
1100
0000
0000
,
1001
1001
1001
1001
1001
1001
1001
1001
,
0020
0000
0130
0001
0011
0000
1100
0000
,
0202
0000
0000
0000
0303
0000
1000
0001
2000
0000
0000
0000
3020
0000
0000
0000
,
0230
0000
0000
0300
,
2020
0000
0000
0000
3030
0000
0001
1000
0002
0000
0000
0000
0203
0000
0000
0000
,
0320
0000
0000
1030
,
0002
0023
0230
2300
,
3010
1010
0000
0101
0000
1100
0000
0011
,
2000
0000
3020
0000
0230
0000
0301
1000
,
0000
0010
0010
0010
1000
1000
0100
0010
,
0002
0000
0203
0000
0320
0000
1030
0100
,
0000
0100
0100
1000
0010
0010
0100
0100
,
0002
0000
2003
0000
3200
0000
0310
0100
,
1000
0010
0010
0010
0100
0100
0001
1000
,
0101
0101
0010
0000
1100
1100
0001
0000
,
1001
0000
1001
0000
0010
0000
0100
0000
0002
0000
0000
1000
0000
0000
0103
0000
,
0011
0011
1000
0000
1100
1100
0010
0000
,
1001
0000
1001
0000
0100
0000
0010
0000
2000
0000
0000
3002
0000
0000
0013
0000
,
0011
1100
0011
1100
,
2002
0000
3000
0100
0100
0000
1003
0000
,
0110
0000
0000
0000
;

//---------------dance-single - ----------------
#NOTES:
     dance-single:
     :
     Easy:
     6:
     0.209018,0.292626,0.180077,0.255110,0.000000,195.000000,171.000000,24.000000,34.000000,0.000000,0.000000,0.209018,0.292626,0.180077,0.255110,0.000000,195.000000,171.000000,24.000000,34.000000,0.000000,0.000000:
0000
0000
0000
0000
,
0000
0000
0000
0000
,
0000
0000
0000
0000
,
0000
0000
0000
0000
,
0000
0000
0000
0000
,
1000
0001
0100
0100
,
0001
1000
0010
0010
,
1000
0100
1000
0000
,
0001
0100
0001
0000
,
0010
0001
1000
0001
,
1000
0010
0100
0000
,
0001
0010
0001
0100
,
0010
1000
0100
1000
,
0001
0010
0100
0100
,
1000
0010
0100
0100
,
0001
0010
0001
0000
,
1000
0010
1000
1001
,
0110
1000
0110
0001
,
1001
0100
1001
0110
,
1001
0010
1001
0100
,
0001
0001
1000
0100
,
1000
1000
0001
0010
,
0100
0010
0001
1000
,
0010
0010
0010
0010
,
2000
3002
2003
3002
,
0013
0100
0010
0001
,
0200
0320
0230
0320
,
1030
0100
0010
0001
,
0200
0302
0203
0302
,
0013
0100
1000
0001
,
0110
0001
1001
0100
,
0110
1000
0001
0100
,
1001
0010
0100
1000
,
0002
0000
1000
0103
,
2000
0000
0001
0010
,
0002
0000
0000
3003
,
0020
0000
1000
0100
,
2000
0000
0030
3100
,
2000
3000
0002
0003
,
0020
0000
0000
0030
,
0002
0023
0032
0023
,
0130
1000
0010
0100
,
0020
2030
3020
2030
,
3010
1000
0001
1000
,
0200
2300
3200
2300
,
3010
1000
0001
1000
,
1001
0010
0110
0001
,
1001
0010
1000
0100
,
1001
1000
0110
0100
,
0110
0001
1000
0100
,
1001
0110
1001
0110
,
2002
3000
0010
0103
,
0110
0000
0000
0000
;

//---------------dance-single - ----------------
#NOTES:
     dance-single:
     :
     Beginner:
     2:
     0.115764,0.175575,0.105045,0.000000,0.000000,108.000000,94.000000,14.000000,0.000000,0.000000,0.000000,0.115764,0.175575,0.105045,0.000000,0.000000,108.000000,94.000000,14.000000,0.000000,0.000000,0.000000:
// measure 0
0000
0000
0000
0000
,  // measure 1
0000
0000
0000
0000
,  // measure 2
0000
0000
0000
0000
,  // measure 3
0000
0000
0000
0000
,  // measure 4
0000
0000
0000
0000
,  // measure 5
1000
0000
0001
0000
,  // measure 6
0100
0000
0010
0000
,  // measure 7
1000
0000
1000
0000
,  // measure 8
0001
0000
0001
0000
,  // measure 9
0100
0000
0010
0000
,  // measure 10
0100
0000
0010
0000
,  // measure 11
1000
0000
0001
0000
,  // measure 12
1000
0000
0001
0000
,  // measure 13
0010
0000
0001
0000
,  // measure 14
1000
0000
0100
0000
,  // measure 15
0010
0000
0010
0000
,  // measure 16
0100
0000
0100
0000
,  // measure 17
1001
0000
1001
0000
,  // measure 18
1001
0000
0010
0010
,  // measure 19
0010
0000
0100
0000
,  // measure 20
0001
0000
1000
0000
,  // measure 21
0010
0000
0100
0000
,  // measure 22
0010
0000
1000
0000
,  // measure 23
1001
0000
0000
0000
,  // measure 24
0001
0000
0001
0000
,  // measure 25
1000
0000
1000
0000
,  // measure 26
0010
0000
0010
0000
,  // measure 27
0100
0000
0100
0000
,  // measure 28
0010
0000
1000
0000
,  // measure 29
0001
0000
0100
0000
,  // measure 30
0110
0000
0110
0000
,  // measure 31
0110
0000
1000
1000
,  // measure 32
1000
0000
0000
0001
,  // measure 33
0001
0000
0110
0000
,  // measure 34
1001
0000
1000
0000
,  // measure 35
0001
0000
0000
0000
,  // measure 36
0110
0000
0100
0000
,  // measure 37
0010
0000
0000
0000
,  // measure 38
1000
0000
0001
0000
,  // measure 39
0100
0000
0000
0000
,  // measure 40
0001
0000
0001
0000
,  // measure 41
0100
0000
0100
0000
,  // measure 42
0010
0000
0010
0000
,  // measure 43
1000
0000
1000
0000
,  // measure 44
0100
0000
0010
0000
,  // measure 45
0001
0000
1000
0000
,  // measure 46
1001
0000
0110
0000
,  // measure 47
1001
0000
0100
0100
,  // measure 48
0100
0000
0010
0000
,  // measure 49
1000
0000
0001
0000
,  // measure 50
0010
0000
0001
0000
,  // measure 51
1000
0000
0100
0000
,  // measure 52
0110
0000
0000
0000
;
