#VERSION:0.83;
#TITLE:Stronger;
#SUBTITLE:(What Doesn't Kill You);
#ARTIST:Kelly Clarkson;
#TITLETRANSLIT:;
#SUBTITLETRANSLIT:;
#ARTISTTRANSLIT:;
#GENRE:;
#ORIGIN:;
#CREDIT:;
#BANNER:Stronger (What Doesn't Kill You)-bn.png;
#BACKGROUND:Stronger (What Doesn't Kill You)-bg.png;
#PREVIEWVID:;
#JACKET:Stronger (What Doesn't Kill You)-jacket.png;
#CDIMAGE:;
#DISCIMAGE:;
#LYRICSPATH:;
#CDTITLE:;
#MUSIC:Stronger (What Doesn't Kill You).ogg;
#OFFSET:0.000000;
#SAMPLESTART:41.633999;
#SAMPLELENGTH:20.000000;
#SELECTABLE:YES;
#DISPLAYBPM:116.000000;
#BPMS:0.000=116.010;
#STOPS:;
#DELAYS:;
#WARPS:;
#TIMESIGNATURES:0.000=4=4;
#TICKCOUNTS:0.000=4;
#COMBOS:0.000=1;
#SPEEDS:0.000=1.000=0.000=0;
#SCROLLS:0.000=1.000;
#FAKES:;
#LABELS:0.000=Song Start;
#BGCHANGES:;
#KEYSOUNDS:;
#ATTACKS:
;

//---------------dance-single - ----------------
#NOTEDATA:;
#CHARTNAME:;
#STEPSTYPE:dance-single;
#DESCRIPTION:;
#CHARTSTYLE:;
#DIFFICULTY:Hard;
#METER:13;
#RADARVALUES:0.505357,0.522507,0.248730,0.103638,0.148547,512.000000,476.000000,36.000000,15.000000,0.000000,0.000000,0.000000,0.000000,0.000000,0.505357,0.522507,0.248730,0.103638,0.148547,512.000000,476.000000,36.000000,15.000000,0.000000,0.000000,0.000000,0.000000,0.000000;
#CREDIT:;
#DISPLAYBPM:116.000000;
#NOTES:
0000
0000
0000
0000
,
0000
0000
0000
0000
,
0000
0000
0000
0000
,
0000
0000
0000
0000
,
1000
0100
1000
0010
1000
0100
1000
0010
,
0100
0001
1000
0001
0100
0010
1000
0000
,
0001
0010
0001
1000
0100
0010
0100
1000
,
0010
0100
0010
1000
0010
0100
0010
0000
,
0100
0001
0010
0001
0100
0001
0010
0001
,
0100
0010
1000
0100
1000
0001
0010
0000
,
0100
1000
0010
0100
0001
1000
0001
0010
,
0100
1000
0010
1000
0100
0010
0001
0000
,
0010
0000
0001
1000
0001
0000
1000
0000
0100
0000
0100
0000
1001
0000
0000
0000
,
0001
0000
1000
0100
1000
0000
0010
0000
0100
0000
0001
0000
0101
0000
0000
0000
,
1000
0000
0001
0010
0001
0000
1000
0000
0100
0000
0100
0000
1010
0000
0000
0000
,
0001
0000
0001
0000
0001
0000
1000
0100
1000
0000
1100
0000
0001
0000
0101
0000
,
0010
0000
0100
0001
0100
0000
0010
0000
1000
0000
1000
0000
1010
0000
0000
0000
,
0010
0000
0100
0001
0100
0000
0010
0000
1000
0000
0001
0000
0011
0000
0000
0000
,
0001
0000
1000
0010
1000
0000
0100
0000
0010
0000
0010
0000
0001
0000
0100
0000
,
0010
0000
1000
0001
1000
0000
0000
0000
0010
0000
1001
0000
0100
0000
0110
0000
,
0000
0000
0001
0000
0001
0000
0001
0000
1000
0100
1000
0000
0010
0000
0010
0000
,
1000
0000
0100
0010
0001
0000
0000
0000
0100
0000
0010
0000
1000
0000
0010
0000
,
0100
0000
0001
1000
0010
0000
0000
0000
1000
0000
0100
0000
0010
0000
0001
0000
,
0100
0000
0001
1000
0001
0000
0100
0000
1000
0000
0100
0000
0001
0000
0000
0000
,
0100
0000
0010
0000
0010
0000
0010
0000
1000
0010
1000
0000
0001
0000
0001
0000
,
0010
0000
0001
0100
0010
0000
0000
0000
1000
0000
0100
0000
1000
0000
0001
0000
,
1000
0000
0010
1000
0001
0000
0000
0000
0010
0000
0100
0000
1000
0000
0001
0000
,
0100
0000
0010
1000
0001
0000
0000
0000
1100
0000
0001
0000
0101
0000
0000
0000
,
0010
0000
1000
0000
1000
0000
1000
0000
0100
1000
0100
0000
0010
0000
0001
0000
,
0100
0000
0000
0000
0101
0000
1000
0100
0010
0000
0000
0000
0001
0000
1020
0000
,
0000
0000
1030
0100
0020
0000
0000
0000
0031
1000
0001
0000
0010
0000
0000
0000
,
1002
0000
0103
0102
0000
1003
1100
0000
,
0001
0000
0010
0000
0010
0000
0010
0000
0001
1000
0001
0000
1000
0000
1000
0000
,
0010
0000
1000
0001
0100
0000
0000
0000
0001
0000
0010
0000
0100
0000
1000
0000
,
0010
0000
1000
0100
0010
0000
0000
0000
0001
0000
0100
0000
0001
0000
1000
0000
,
0001
0000
1000
0010
1000
0000
0100
0000
0001
0000
0100
0000
1000
0000
0000
0000
,
0010
1000
0100
1000
0001
0001
0001
1000
,
0110
0000
0001
0100
0100
0010
1000
0001
,
0011
0000
0000
0000
0011
0000
0000
0000
1010
0000
0010
1000
0001
0000
0000
0000
,
1001
0000
0100
0010
0010
1000
0001
0100
,
0101
0000
0000
0000
0101
0000
0000
0000
1100
0000
1000
0001
0100
0000
0000
0000
,
1010
0000
0001
1000
1000
0010
0100
0001
,
0010
0100
1000
0000
1001
0100
0001
0000
,
0010
0001
0001
0101
0000
1000
1000
0001
,
1000
0010
0100
0001
1000
0100
0010
0001
,
2000
0010
0001
3100
,
0002
0010
1000
0103
,
0020
1000
0100
0001
,
1030
0000
0100
0000
0100
0000
0100
0000
0010
0001
0010
0000
0001
0000
0001
0000
,
0010
0000
0100
0010
0001
0000
0000
0000
1000
0000
0010
0000
1000
0000
0001
0000
,
1000
0000
0010
1000
0100
0000
0000
0000
0010
0000
0001
0000
1000
0000
0001
0000
,
0010
0000
0100
1000
0100
0000
0010
0000
0001
0000
0001
0000
1001
0000
0000
0000
,
0010
0000
1000
0000
1000
0000
1000
0000
0001
0010
0001
0000
0100
0000
0100
0000
,
0001
0000
1000
0100
0010
0000
0000
0000
0001
0000
0010
0000
0100
0000
1000
0000
,
0010
0000
1000
0001
0010
0000
0000
0000
0001
0000
1000
0000
0100
0000
0010
0000
,
0100
0000
1000
0010
0100
0000
0000
0000
0011
0000
1000
0000
1010
0000
0000
0000
,
0001
0000
0100
0000
0100
0000
0100
0000
0010
0100
0010
0000
1000
0000
1000
0000
,
0001
0000
0000
0000
0011
0000
1000
0001
0100
0000
0000
0000
0010
0000
1200
0000
,
0000
0000
1300
0001
0200
0000
0000
0000
0310
0100
0010
0000
1000
0000
0000
0000
,
2001
0000
3010
2010
0000
3001
0011
0000
,
0100
0000
0001
0000
0001
0000
0001
0000
0010
0100
0010
0000
0100
0000
0100
0000
,
1000
0000
0010
0100
0001
0000
0000
0000
0010
0000
0100
0000
1000
0000
0001
0000
,
0010
0000
0001
0100
1000
0000
0000
0000
0010
0000
1000
0000
0001
0000
0100
0000
,
0001
0000
0010
0100
1000
0000
0001
0000
0100
0000
0100
0000
0110
0000
0000
0000
,
0010
0000
1000
0000
0010
0000
0100
0000
0001
0000
0010
0000
0100
1000
0100
0000
,
0020
0001
1000
0130
,
0002
0100
1000
0013
,
0200
0010
1000
0301
,
2000
0100
0010
3001
;

//---------------dance-single - ----------------
#NOTEDATA:;
#CHARTNAME:;
#STEPSTYPE:dance-single;
#DESCRIPTION:;
#CHARTSTYLE:;
#DIFFICULTY:Medium;
#METER:10;
#RADARVALUES:0.387901,0.427505,0.331641,0.324731,0.000000,393.000000,345.000000,48.000000,47.000000,0.000000,0.000000,0.000000,0.000000,0.000000,0.387901,0.427505,0.331641,0.324731,0.000000,393.000000,345.000000,48.000000,47.000000,0.000000,0.000000,0.000000,0.000000,0.000000;
#CREDIT:;
#DISPLAYBPM:116.000000;
#NOTES:
0000
0000
0000
0000
,
0000
0000
0000
0000
,
0000
0000
0000
0000
,
0000
0000
0000
0000
,
0000
1000
0001
0010
0100
1000
0000
0002
,
0000
2003
0000
3010
0000
1000
0100
0000
,
0001
1000
0000
0020
0000
0230
0000
0301
,
0000
0100
0010
1000
0000
0100
0010
0001
,
0000
0001
1000
0010
1000
0100
0000
0020
,
0000
0032
0000
0103
0000
0001
0000
1000
,
0200
0000
1300
0010
0000
2000
0000
3100
,
0000
1000
0001
0010
0000
0001
1000
0100
,
0000
1000
0001
1000
0010
0100
0100
0000
,
0000
1000
0001
0100
0010
0000
1001
0000
,
0000
1000
0010
1000
0001
0100
0100
0000
,
0001
0010
0100
0000
0000
1100
0000
0101
,
0000
0010
0001
1000
0001
0100
0100
0000
,
0000
0001
1000
0010
1000
0001
0100
0000
,
0000
0010
1000
0001
0010
0100
1000
0001
,
0100
0000
0110
0000
0000
1010
0000
0011
,
0000
1000
0001
0010
0100
1000
0001
0100
,
0102
0000
2003
0000
3010
0100
0001
1000
,
1200
0000
0320
0000
0031
1000
0010
1000
,
1020
0000
0130
0001
1000
0001
0200
0000
,
0300
0100
0010
1000
0001
0010
0100
1000
,
2001
0000
3002
0000
0013
0100
1000
0001
,
0012
0000
0203
0000
0301
1000
0010
0100
,
0120
0000
2030
0000
3001
1000
0100
0000
,
0000
1000
0010
1000
0001
0010
0100
1000
,
0001
0000
0011
0000
1100
0000
0001
1002
,
0000
1000
2003
0000
0010
0000
3100
0000
,
1020
0000
1000
1000
0000
0100
0200
0000
,
0330
0010
1000
0001
1000
0100
0010
0001
,
0102
0000
0203
0000
0310
0100
0001
1000
,
0120
0000
2030
0000
3010
1000
0001
0100
,
0002
0000
0013
0100
1000
0001
0200
0000
,
0310
1000
0001
0100
0000
0110
0000
1001
,
0100
0000
0100
0001
1000
0100
0010
0001
,
0021
0031
2010
3010
,
0001
0000
0001
0010
0100
1000
0010
0100
,
0201
0301
2100
3100
,
0010
0000
0010
1000
0001
1000
0100
0010
,
0001
0100
0001
0000
0011
0000
0000
0001
,
1000
0010
0100
0002
0000
1003
0001
0100
,
0010
1000
0010
0000
1020
0000
0130
0001
,
0020
0000
0000
0000
,
0000
0000
0000
0000
0031
1000
0000
0002
,
0000
2000
0000
0000
0000
0000
0000
3003
,
0000
0010
0100
0001
1000
0100
0010
0001
,
1001
0000
1100
0000
0001
1000
0100
0010
,
0011
0000
0110
0000
1000
0100
0010
0001
,
0100
0000
0100
0001
1000
0010
0010
0000
,
0000
1000
0010
1000
0001
0010
0100
1000
,
1100
0000
0101
0000
0010
0100
1000
0001
,
0011
0000
1010
0000
1000
0010
0100
0001
,
1001
0000
0110
0000
0010
1000
0001
0000
,
0000
0001
0010
0100
0010
0100
1000
0001
,
0100
0000
0102
0000
0023
0000
0130
1200
,
0000
1000
2300
0000
0001
0000
3100
0000
,
1001
0000
1000
1010
0000
0001
0011
0000
,
0000
0010
0001
0100
0001
1000
0100
0010
,
0110
0000
1100
0000
1000
0010
0100
0001
,
0011
0000
0101
0000
0001
0100
0010
1000
,
1010
0000
0001
1000
0010
0100
0110
0000
,
1000
0001
0000
1001
0000
0010
0100
1000
,
0002
0000
0000
0003
,
2000
0000
0000
3000
,
0020
0000
0000
0030
,
0200
0000
0000
0300
;

//---------------dance-single - ----------------
#NOTEDATA:;
#CHARTNAME:;
#STEPSTYPE:dance-single;
#DESCRIPTION:;
#CHARTSTYLE:;
#DIFFICULTY:Easy;
#METER:7;
#RADARVALUES:0.296108,0.328877,0.456006,0.000000,0.000000,300.000000,234.000000,66.000000,0.000000,0.000000,0.000000,0.000000,0.000000,0.000000,0.296108,0.328877,0.456006,0.000000,0.000000,300.000000,234.000000,66.000000,0.000000,0.000000,0.000000,0.000000,0.000000,0.000000;
#CREDIT:;
#DISPLAYBPM:116.000000;
#NOTES:
0000
0000
0000
0000
,
0000
0000
0000
0000
,
0000
0000
0000
0000
,
0000
0000
0000
0000
,
1000
1000
1000
1000
,
0001
0001
0001
0001
,
0100
0100
0100
0100
,
0010
0010
0010
0010
,
0100
0100
0100
0100
,
0010
0010
0010
0010
,
1000
1000
1000
1000
,
0001
0001
0001
0001
,
1001
0100
1000
0001
,
1001
0100
0001
1000
,
0110
0010
1000
0001
,
1001
1001
0000
0000
,
0110
1000
0100
0010
,
0110
0010
0001
1000
,
1001
0010
1000
0100
,
0110
0110
0000
0000
,
1001
0100
0100
0100
,
1001
1001
0010
0010
,
1001
1001
0100
0100
,
0110
0110
1000
0001
,
1000
1000
1000
1000
,
0110
0110
0010
0010
,
0110
0110
0100
0100
,
1001
1001
0001
1000
,
0001
0001
0001
0001
,
0010
1001
1001
0010
,
1001
1001
0100
0010
,
1000
1000
0001
0001
,
0100
0100
0100
0100
,
0110
0110
1000
1000
,
1001
1001
0100
0100
,
0110
0110
0010
0001
,
0100
0010
0100
0010
,
1001
0001
1000
0001
,
0100
0100
1001
1001
,
0110
0010
0100
0001
,
1000
1000
0110
0110
,
1001
0100
1000
0001
,
0100
0100
0100
0000
,
0010
1000
0100
0001
,
0010
0001
0100
1000
,
1001
0000
0000
0000
,
0110
0000
0000
0000
,
1001
0000
0000
0000
,
0110
0001
0001
0001
,
1001
1001
1000
0100
,
1001
1001
0001
0100
,
0110
0110
0010
0100
,
0001
0001
0001
0001
,
0110
0110
0001
0100
,
0110
0110
1000
0100
,
1001
1001
0010
0100
,
0010
0010
0010
0010
,
1000
1001
1001
0001
,
1001
1001
0100
0010
,
1000
0100
0010
0001
,
0100
0100
0100
0100
,
0110
0110
0010
1000
,
0110
0110
0100
1000
,
1001
1001
0001
1000
,
0010
0010
0100
0100
,
0001
0000
0000
0000
,
0010
0000
0000
0000
,
0100
0000
0000
0000
,
1000
0000
0000
0000
;

//---------------dance-single - ----------------
#NOTEDATA:;
#CHARTNAME:;
#STEPSTYPE:dance-single;
#DESCRIPTION:;
#CHARTSTYLE:;
#DIFFICULTY:Beginner;
#METER:3;
#RADARVALUES:0.117456,0.157184,0.082910,0.000000,0.000000,119.000000,107.000000,12.000000,0.000000,0.000000,0.000000,0.000000,0.000000,0.000000,0.117456,0.157184,0.082910,0.000000,0.000000,119.000000,107.000000,12.000000,0.000000,0.000000,0.000000,0.000000,0.000000,0.000000;
#CREDIT:;
#DISPLAYBPM:116.000000;
#NOTES:
// measure 0
0000
0000
0000
0000
,  // measure 1
0000
0000
0000
0000
,  // measure 2
0000
0000
0000
0000
,  // measure 3
0000
0000
0000
0000
,  // measure 4
1000
0000
1000
0000
,  // measure 5
1000
0000
0000
0000
,  // measure 6
0001
0000
0001
0000
,  // measure 7
0001
0000
0000
0000
,  // measure 8
0100
0000
0100
0000
,  // measure 9
0100
0000
0000
0000
,  // measure 10
0010
0000
0010
0000
,  // measure 11
0010
0000
0000
0000
,  // measure 12
1000
0000
0001
0000
,  // measure 13
1000
0000
0001
0000
,  // measure 14
0100
0000
0010
0000
,  // measure 15
1000
1000
0000
0000
,  // measure 16
0010
0000
0100
0000
,  // measure 17
0010
0000
0100
0000
,  // measure 18
0001
0000
1000
0000
,  // measure 19
0001
0001
0000
0000
,  // measure 20
1001
0000
0000
0000
,  // measure 21
1000
1000
0000
0000
,  // measure 22
0001
0001
0000
0000
,  // measure 23
0100
0000
0010
0000
,  // measure 24
0110
0000
0000
0000
,  // measure 25
0010
0010
0000
0000
,  // measure 26
0100
0100
0000
0000
,  // measure 27
0001
0000
1000
0000
,  // measure 28
1001
0000
0000
0000
,  // measure 29
0000
0001
0001
0000
,  // measure 30
1000
1000
0000
0000
,  // measure 31
0010
0000
0100
0000
,  // measure 32
0001
0000
1000
0000
,  // measure 33
0100
0100
0000
0000
,  // measure 34
1000
1000
0000
0000
,  // measure 35
0010
0000
0100
0000
,  // measure 36
0110
0000
0000
0000
,  // measure 37
1001
0000
1000
0000
,  // measure 38
0001
0000
0001
0000
,  // measure 39
0110
0000
0100
0000
,  // measure 40
0010
0000
0010
0000
,  // measure 41
1001
0000
1000
0000
,  // measure 42
0100
0000
0010
0000
,  // measure 43
0110
0000
0100
0000
,  // measure 44
0010
0000
0001
0000
,  // measure 45
1001
0000
0000
0000
,  // measure 46
0000
0000
0000
0000
,  // measure 47
0000
0000
0000
0000
,  // measure 48
0110
0000
0000
0000
,  // measure 49
0001
0001
0000
0000
,  // measure 50
0100
0100
0000
0000
,  // measure 51
0010
0000
1000
0000
,  // measure 52
0001
0000
1000
0000
,  // measure 53
0100
0100
0000
0000
,  // measure 54
0010
0010
0000
0000
,  // measure 55
0001
0000
0100
0000
,  // measure 56
0010
0000
1000
0000
,  // measure 57
0000
0010
0010
0000
,  // measure 58
0100
0100
0000
0000
,  // measure 59
0001
0000
0100
0000
,  // measure 60
1001
0000
0000
0000
,  // measure 61
0010
0010
0000
0000
,  // measure 62
1000
1000
0000
0000
,  // measure 63
0001
0000
0010
0000
,  // measure 64
0100
0000
0000
0000
,  // measure 65
0110
0000
0000
0000
;
