#TITLE:Stand by Me;
#SUBTITLE:;
#ARTIST:Prince Royce;
#TITLETRANSLIT:;
#SUBTITLETRANSLIT:;
#ARTISTTRANSLIT:;
#GENRE:;
#CREDIT:;
#BANNER:Stand by Me-bn.png;
#BACKGROUND:Stand by Me-bg.png;
#LYRICSPATH:;
#CDTITLE:;
#MUSIC:Stand by Me.ogg;
#OFFSET:0.000000;
#SAMPLESTART:42.881001;
#SAMPLELENGTH:20.000000;
#SELECTABLE:YES;
#DISPLAYBPM:128.000000;
#BPMS:0.000000=128.029999
;
#STOPS:
;
#BGCHANGES:;
#KEYSOUNDS:;
#ATTACKS:;

//---------------dance-single - ----------------
#NOTES:
     dance-single:
     :
     Hard:
     12:
     0.512556,0.501719,0.008383,0.100595,0.083829,428.000000,427.000000,1.000000,12.000000,0.000000,0.000000,0.512556,0.501719,0.008383,0.100595,0.083829,428.000000,427.000000,1.000000,12.000000,0.000000,0.000000:
0000
0000
0000
0000
,
0000
0000
0000
0000
,
0000
0000
0000
0000
,
0000
0000
0000
0000
,
1000
0000
0000
1000
0000
0000
1000
0100
,
0001
0000
0000
0001
0000
0000
0001
0100
,
1000
0000
0000
1000
0000
0000
1000
0100
,
0001
0000
0000
0000
0000
0000
0001
1000
0001
0000
0010
0000
0100
0000
1000
0000
,
0010
1000
0100
1000
0010
0100
0001
0000
,
0010
0001
0100
0010
1000
0001
0100
0000
,
0001
0000
0010
0000
0100
0000
1000
0001
1000
0000
0000
0010
0000
0000
0100
0000
,
0000
0001
0010
0100
1000
0100
0010
0001
,
0100
0001
0100
0010
0000
0010
1000
0001
,
0010
0001
0100
0010
0000
1000
0001
0100
,
0001
0010
0100
1000
0010
0100
0001
0000
,
1000
0001
0010
0001
0100
0010
1000
0100
,
0000
0000
0010
0001
0010
0000
0100
0000
1000
0000
0001
0000
1000
0000
0100
0000
,
0000
0000
0010
0100
0010
0000
1000
0000
0001
0000
0100
0000
0001
0000
1000
0000
,
0000
0000
0100
1000
0100
0000
0010
0000
0001
0000
1000
0000
0001
0000
0010
0000
,
0000
0000
1000
0001
1000
0000
0010
0000
0100
0000
0001
0000
0100
0000
0010
0000
,
1000
0000
0010
0100
0010
0000
1000
0000
0000
0000
0001
0000
0001
0000
0000
0000
,
0100
0000
0001
1000
0001
0000
0100
0000
0000
0000
0010
0000
0010
0000
0000
0000
,
1000
0000
0001
0010
0001
0000
1000
0000
0000
0000
0100
0000
0100
0000
0010
0000
,
0002
0023
0230
2300
,
3010
1000
0100
0010
0001
0100
0001
1000
,
0010
1000
0001
1000
0100
0010
0001
0100
,
0001
0010
0100
1000
0010
0100
0001
1000
,
0100
0010
0001
0010
0100
1000
0001
1000
,
0010
0100
0010
1000
0100
0010
0001
0000
,
0100
0001
0100
0010
1000
0100
0010
0000
,
1000
0001
0100
0010
1000
0100
0010
0000
,
0001
0000
0100
0000
0001
0000
1000
0000
0010
0000
1000
0100
1000
0000
0010
0000
,
0000
0100
0001
0010
0100
1000
0001
0100
,
0000
0010
1000
0100
1000
0010
0100
0001
,
0000
1000
0010
0100
0001
0010
0100
1000
,
0000
0010
1000
0100
0010
0100
1000
0001
,
1000
0000
0001
0010
0001
0000
0100
0000
0010
0000
1000
0000
0100
0000
0000
0000
,
0010
0000
1000
0100
1000
0000
0001
0000
0100
0000
0001
0000
0010
0000
0000
0000
,
1000
0000
0010
0100
0010
0000
0100
0000
0001
0000
1000
0000
0001
0000
0000
0000
,
0010
0001
0010
0001
1000
0100
1000
0100
,
1000
0010
0100
0001
1000
0100
0001
0000
,
0010
1000
0100
1000
0100
0010
0001
0000
,
0100
0000
0010
0000
1000
0000
0001
0000
0010
0000
1000
0000
0100
0000
1000
0001
,
1000
0000
0000
0010
0001
0000
0000
0100
0010
0000
1000
0000
0001
0000
0100
0000
,
0010
0000
1000
0100
1000
0000
0001
0000
0000
0000
0010
0000
0010
0000
0000
0000
,
1000
0000
0001
0100
0001
0000
0010
0000
0000
0000
0100
0000
0100
0000
0000
0000
,
0100
0000
0010
1000
0010
0000
1000
0000
0000
0000
0001
0000
0001
0000
0100
0000
,
0020
2030
3002
0203
,
0301
1000
0100
0010
0100
1000
0001
0010
,
0100
0010
0001
0100
0010
1000
0001
1000
,
0001
0100
0001
1000
0010
1000
0100
0010
,
0001
0100
0010
0100
0010
1000
0001
1000
,
0010
1000
0100
0010
0100
0010
0001
0000
,
0010
0001
0010
0100
0010
0100
1000
0000
,
1000
0001
0100
0010
1000
0100
0010
0001
,
2000
3020
0230
0302
,
0013
0001
0100
0010
1000
0100
1000
0001
,
0010
0100
1000
0010
0100
0001
1000
0001
,
1000
0100
0001
0010
0100
0010
0001
1000
,
0010
1000
0100
0010
0001
0100
0010
1000
,
0100
0010
0001
0100
0001
1000
1000
0000
,
0010
1000
0001
0010
0001
0100
0100
0000
,
0001
0010
0100
1000
0001
0010
0100
1000
,
1001
0000
0000
0000
;

//---------------dance-single - ----------------
#NOTES:
     dance-single:
     :
     Medium:
     9:
     0.396393,0.422500,0.008383,0.100595,0.000000,331.000000,330.000000,1.000000,12.000000,0.000000,0.000000,0.396393,0.422500,0.008383,0.100595,0.000000,331.000000,330.000000,1.000000,12.000000,0.000000,0.000000:
0000
0000
0000
0000
,
0000
0000
0000
0000
,
0000
0000
0000
0000
,
0000
0000
0000
0000
,
1000
0000
0000
1000
0000
0000
1000
0000
,
0001
0000
0000
0001
0000
0000
0001
0000
,
1000
0000
0000
1000
0000
0000
1000
0000
,
0001
0000
0000
0001
0000
0100
0010
0100
,
0010
0000
1000
0000
0001
1000
0100
0000
,
0010
0000
0100
0000
1000
0001
0010
0000
,
0100
0000
0010
0000
1000
0100
1000
0000
,
0001
0000
0100
0000
0010
1000
0100
0000
,
1000
0000
0010
0000
0100
0001
1000
0000
,
0010
0000
1000
0000
0100
0010
0001
0000
,
0100
0000
0010
0000
1000
0001
0100
0000
,
0010
0000
1000
0000
0100
0010
0001
0000
,
0010
0100
1000
0000
0010
0100
0001
0000
,
1000
0100
0001
0000
1000
0010
0001
0000
,
0100
0010
1000
0000
0001
1000
0100
0000
,
0010
0100
1000
0000
0001
0100
1000
0000
,
0010
1000
0100
0000
1000
0100
0010
0000
,
0010
0001
0100
0000
0001
0100
0010
0000
,
1000
0100
0010
0000
0001
0100
0010
0000
,
2000
3002
2003
3002
,
1003
0100
1000
0100
0010
0000
0010
0000
,
0001
0100
0001
0100
0010
0000
0010
0000
,
1000
0001
1000
0001
0100
0000
0100
0000
,
0001
1000
0001
1000
0010
0000
0010
0000
,
1000
0100
0010
0100
1000
0000
1000
0000
,
0001
0100
0010
0100
0001
0000
0001
0000
,
0010
0100
0010
0001
1000
0000
1000
0000
,
0100
0010
0001
0100
1000
0000
1000
0000
,
0010
0000
1000
0000
0100
0010
0001
0000
,
1000
0000
0001
0000
0010
0100
0010
0000
,
0001
0000
0100
0000
1000
0010
1000
0000
,
0100
0000
0001
0000
0100
1000
0001
0000
,
0010
0000
0100
0000
0010
0100
1000
0000
,
0100
0000
0001
0000
1000
0001
0100
0000
,
0001
0000
1000
0000
0100
0010
0100
0000
,
1000
0000
0001
0000
0010
0100
0010
0000
,
0001
0100
0001
0000
1000
0100
1000
0000
,
0001
0010
0001
0000
1000
0010
1000
0000
,
0100
0010
0100
0000
0010
0100
0010
0000
,
1000
0001
1000
0000
0001
1000
0001
0000
,
1000
0010
0001
0000
0100
0010
1000
0000
,
0001
0100
0010
0000
0100
1000
0001
0000
,
1000
0010
0100
0000
0010
1000
0100
0000
,
0020
0230
0320
0230
,
0310
1000
0100
1000
0010
0000
0100
0000
,
0001
0010
0100
0010
0001
0000
0100
0000
,
1000
0010
0100
0010
1000
0000
0100
0000
,
1000
0001
1000
0001
1000
0000
0001
0000
,
0010
1000
0100
0010
0001
0000
0001
0000
,
0100
0001
0010
0100
1000
0000
1000
0000
,
1000
0001
0010
0100
1000
0000
0010
0000
,
2000
3200
0320
0032
,
1003
0001
0100
0001
1000
0100
0010
0000
,
0001
0010
0001
1000
0100
0010
0001
0000
,
1000
0100
1000
0100
0010
0100
1000
0000
,
0001
1000
0100
0010
0100
1000
0001
0000
,
1000
0001
1000
0001
0100
0010
0100
0000
,
0010
1000
0010
1000
0001
0100
0001
0000
,
0010
0100
1000
0001
0010
0100
1000
0000
,
1001
0000
0000
0000
;

//---------------dance-single - ----------------
#NOTES:
     dance-single:
     :
     Easy:
     5:
     0.227537,0.264062,0.008383,0.100595,0.000000,190.000000,189.000000,1.000000,12.000000,0.000000,0.000000,0.227537,0.264062,0.008383,0.100595,0.000000,190.000000,189.000000,1.000000,12.000000,0.000000,0.000000:
0000
0000
0000
0000
,
0000
0000
0000
0000
,
0000
0000
0000
0000
,
0000
0000
0000
0000
,
1000
0000
1000
0000
,
0001
0000
0001
0000
,
1000
0000
1000
0000
,
0001
0000
0001
0000
,
0100
0000
0010
0000
,
0100
0000
0001
1000
,
0100
0000
0100
0000
,
1000
0000
1000
0010
,
0100
0000
0001
0000
,
0100
0000
0001
0010
,
0100
0000
0100
0000
,
0010
0000
0010
0000
,
1000
0000
1000
0100
,
1000
0000
0001
0010
,
0100
0000
0100
0010
,
0001
0000
0001
1000
,
0100
0000
1000
0000
,
0100
0000
0001
0000
,
1000
0000
0001
0000
,
2000
3002
2003
3002
,
0013
0100
1000
1000
,
0010
0100
0001
0001
,
1000
0001
0100
0100
,
0010
1000
0100
0100
,
0100
0010
0001
0001
,
1000
0010
0100
0100
,
0001
0010
0100
1000
,
0010
0100
0001
1000
,
0010
0000
1000
0100
,
0001
0000
0001
0100
,
1000
0000
1000
0010
,
1000
0000
0100
0010
,
0001
0000
1000
0001
,
1000
0000
0010
0100
,
0010
0000
1000
0100
,
1000
0000
0001
0000
,
1000
0000
0100
0010
,
0001
0000
1000
0010
,
1000
0000
0001
0100
,
1000
0000
0010
0100
,
0010
0000
1000
0100
,
1000
0000
0001
0100
,
0001
0000
1000
0000
,
0020
0230
0320
0230
,
0301
0100
1000
0100
,
0010
1000
0010
0001
,
1000
0100
0001
1000
,
0010
0100
0001
0010
,
1000
0100
0001
0001
,
1000
0010
0001
0001
,
0100
0010
1000
0001
,
2000
3002
0023
0230
,
1300
0010
1000
0010
,
0100
0001
0100
0001
,
0010
0100
0010
0100
,
0001
1000
0001
1000
,
0010
0001
0010
0001
,
0100
1000
0100
1000
,
0001
0010
0100
1000
,
1001
0000
0000
0000
;

//---------------dance-single - ----------------
#NOTES:
     dance-single:
     :
     Beginner:
     1:
     0.083829,0.132031,0.008383,0.000000,0.000000,70.000000,69.000000,1.000000,0.000000,0.000000,0.000000,0.083829,0.132031,0.008383,0.000000,0.000000,70.000000,69.000000,1.000000,0.000000,0.000000,0.000000:
// measure 0
0000
0000
0000
0000
,  // measure 1
0000
0000
0000
0000
,  // measure 2
0000
0000
0000
0000
,  // measure 3
0000
0000
0000
0000
,  // measure 4
1000
0000
0000
0000
,  // measure 5
0001
0000
0000
0000
,  // measure 6
1000
0000
0000
0000
,  // measure 7
0001
0000
0000
0000
,  // measure 8
0100
0000
0000
0000
,  // measure 9
0010
0000
0000
0000
,  // measure 10
1000
0000
0000
0000
,  // measure 11
0001
0000
0000
0000
,  // measure 12
0100
0000
0000
0000
,  // measure 13
0100
0000
0000
0000
,  // measure 14
0010
0000
0000
0000
,  // measure 15
0010
0000
0000
0000
,  // measure 16
1000
0000
0000
0000
,  // measure 17
0001
0000
0000
0000
,  // measure 18
1000
0000
0000
0000
,  // measure 19
0001
0000
0000
0000
,  // measure 20
0100
0000
0000
0000
,  // measure 21
0100
0000
0000
0000
,  // measure 22
0010
0000
0000
0000
,  // measure 23
0010
0000
1000
0000
,  // measure 24
0001
0000
0000
0000
,  // measure 25
1000
0000
0000
0000
,  // measure 26
0100
0000
0000
0000
,  // measure 27
1000
0000
0000
0000
,  // measure 28
0010
0000
0000
0000
,  // measure 29
0100
0000
0000
0000
,  // measure 30
0001
0000
0000
0000
,  // measure 31
0010
0000
0000
0000
,  // measure 32
0001
0000
0000
0000
,  // measure 33
1000
0000
0000
0000
,  // measure 34
0010
0000
0000
0000
,  // measure 35
0010
0000
0000
0000
,  // measure 36
1000
0000
0000
0000
,  // measure 37
0001
0000
0000
0000
,  // measure 38
0100
0000
0000
0000
,  // measure 39
0100
0000
0000
0000
,  // measure 40
0010
0000
0000
0000
,  // measure 41
1000
0000
0000
0000
,  // measure 42
0100
0000
0000
0000
,  // measure 43
0100
0000
0000
0000
,  // measure 44
0001
0000
0000
0000
,  // measure 45
0010
0000
0000
0000
,  // measure 46
0100
0000
0000
0000
,  // measure 47
0100
0000
1000
0000
,  // measure 48
0010
0000
0000
0000
,  // measure 49
0100
0000
0000
0000
,  // measure 50
0010
0000
0000
0000
,  // measure 51
0100
0000
0000
0000
,  // measure 52
0001
0000
0000
0000
,  // measure 53
1000
0000
0000
0000
,  // measure 54
0001
0000
0000
0000
,  // measure 55
1000
0000
0001
0000
,  // measure 56
1000
0000
1000
0000
,  // measure 57
0100
0000
0100
0000
,  // measure 58
0010
0000
0010
0000
,  // measure 59
0001
0000
0001
0000
,  // measure 60
0010
0000
0100
0000
,  // measure 61
0001
0000
1000
0000
,  // measure 62
0010
0000
0000
0000
,  // measure 63
1001
0000
0000
0000
;
