#TITLE:Spin the disc;
#SUBTITLE:;
#ARTIST:good-cool;
#TITLETRANSLIT:;
#SUBTITLETRANSLIT:;
#ARTISTTRANSLIT:;
#GENRE:;
#CREDIT:;
#BANNER:Spin the disc.png;
#BACKGROUND:Spin the disc-bg.png;
#LYRICSPATH:;
#CDTITLE:;
#MUSIC:Spin the disc.ogg;
#OFFSET:0.000000;
#SAMPLESTART:75.690002;
#SAMPLELENGTH:15.000000;
#SELECTABLE:YES;
#DISPLAYBPM:130.000000;
#BPMS:0.000000=129.201004
,4.000000=130.005997
;
#STOPS:
;
#BGCHANGES:;
#KEYSOUNDS:;
#ATTACKS:;

//---------------dance-single - ----------------
#NOTES:
     dance-single:
     :
     Beginner:
     2:
     0.110120,0.151564,0.052084,0.000000,0.000000,74.000000,69.000000,5.000000,0.000000,0.000000,0.000000,0.110120,0.151564,0.052084,0.000000,0.000000,74.000000,69.000000,5.000000,0.000000,0.000000,0.000000:
0000
0000
0000
0000
,
0000
0000
0000
0000
,
0000
0000
0000
0000
,
0100
0000
0010
0000
,
1000
0000
0000
0000
,
0100
0000
0010
0000
,
0001
0000
0000
0000
,
0100
0000
0010
0000
,
1000
1000
1000
0000
,
0001
0000
0000
0000
,
1000
0000
0000
0000
,
0100
0000
0010
0000
,
1001
0000
0000
0000
,
0010
0000
0000
0000
,
0100
0000
0000
0000
,
1000
0000
0001
0000
,
1001
0000
0000
0000
,
0100
0000
0010
0000
,
0001
0000
0000
0000
,
0100
0000
0001
0000
,
0010
0000
0000
0000
,
0001
0000
0100
0000
,
1000
0000
0000
0000
,
0100
0000
0001
0000
,
1000
0000
0010
0000
,
0001
0000
1000
0000
,
1001
0000
0000
0000
,
0100
0000
1000
0000
,
0100
0000
0010
0000
,
0001
0000
1000
0000
,
1001
0000
0000
0000
,
0100
0000
1000
0000
,
0010
0000
0100
0000
,
0010
0000
0000
0000
,
1000
0000
0000
0000
,
0001
0000
0000
0000
,
1000
0000
0100
0000
,
0010
0000
0000
0000
,
0001
0000
0000
0000
,
1000
0000
0000
0000
,
0110
0000
0000
0000
,
0100
0000
0000
0000
,
0001
0000
0000
0000
,
0100
0000
0000
0000
,
1000
0000
0000
0000
,
0010
0000
0100
0000
,
0001
0000
1000
0000
,
0100
0000
0010
0000
,
0001
0000
0100
0000
;

//---------------dance-single - ----------------
#NOTES:
     dance-single:
     :
     Easy:
     2:
     0.111608,0.176825,0.052084,0.156252,0.000000,75.000000,70.000000,5.000000,15.000000,0.000000,0.000000,0.111608,0.176825,0.052084,0.156252,0.000000,75.000000,70.000000,5.000000,15.000000,0.000000,0.000000:
0000
0000
0000
0000
,
0000
0000
0000
0000
,
0000
0000
0000
0000
,
0100
0000
0010
0000
,
1000
0000
0000
0000
,
0100
0000
0010
0000
,
0001
0000
0000
0000
,
0100
0000
0010
0000
,
1000
1000
1000
0000
,
0001
0000
0000
0000
,
1000
0000
0000
0000
,
0100
0000
0010
0000
,
2002
0000
3003
0000
,
0010
0000
0000
0000
,
0100
0000
0000
0000
,
1000
0000
0001
0000
,
2002
0000
3003
0000
,
0100
0000
0010
0000
,
0001
0000
0000
0000
,
0100
0000
0001
0000
,
0020
0000
0000
0030
,
0001
0000
0100
0000
,
1000
0000
0000
0000
,
0100
0000
0001
0000
,
1000
0100
0010
0000
,
0001
0000
1000
0000
,
2002
0000
0000
3003
,
0100
0000
1000
0000
,
0100
0000
0010
0000
,
0001
0000
1000
0000
,
2002
0000
0000
3003
,
0100
0000
1000
0000
,
0010
0000
0100
0000
,
0020
0000
0000
0030
,
2000
0000
0000
3000
,
0002
0000
0000
0003
,
1000
0000
0100
0000
,
0020
0000
0000
0030
,
0002
0000
0000
0003
,
2000
0000
0000
3000
,
0110
0000
0000
0000
,
0100
0000
0000
0000
,
0001
0000
0000
0000
,
0100
0000
0000
0000
,
1000
0000
0000
0000
,
0010
0000
0100
0000
,
0001
0000
1000
0000
,
0100
0000
0010
0000
,
0001
0000
0100
0000
,
0000
0000
0000
0000
;

//---------------dance-single - ----------------
#NOTES:
     dance-single:
     :
     Medium:
     7:
     0.309527,0.364587,0.177085,0.041667,0.000000,208.000000,191.000000,17.000000,4.000000,0.000000,0.000000,0.309527,0.364587,0.177085,0.041667,0.000000,208.000000,191.000000,17.000000,4.000000,0.000000,0.000000:
0000
0000
0000
0000
,
0000
0000
0000
0000
,
0000
0000
0000
0000
,
1001
1000
1000
1000
,
0100
0000
0000
0100
,
1001
0001
0001
0001
,
0100
0000
0000
0100
,
1001
1000
1000
1000
,
1000
0001
0100
0000
0010
0000
0100
0000
,
1001
0100
0001
0100
,
1000
0000
0100
0000
0001
0000
0100
0010
,
1000
0010
0100
0010
,
1000
0000
0100
0000
0010
0000
0001
1000
,
0100
0001
0100
1000
,
0100
0000
0001
0000
0100
0000
1000
0100
,
0001
0100
1000
0001
,
2002
0000
3003
0000
0001
0100
0010
0000
,
1000
0001
0100
0010
,
0100
0000
0001
0000
1000
0100
0001
0000
,
0100
1000
0001
0100
,
1001
0000
0000
0010
,
0001
1000
0100
1000
,
0001
0000
0100
0000
0010
1000
0100
0000
,
0010
0100
1000
0001
,
0010
0100
0001
0000
1000
0000
0001
0000
,
0110
1001
0110
1001
,
0010
0100
0001
1000
,
0010
1000
0100
0001
,
0010
0100
0001
1000
,
0011
1100
0011
1100
,
0010
0001
1000
0100
,
0010
0001
0100
1000
,
0010
0000
0100
0000
0110
0000
0000
0001
,
1000
0010
0100
0001
,
1000
0100
0010
0001
,
0100
0010
1000
0001
,
0200
0000
0000
0310
,
0001
1000
0100
0010
,
0001
0100
0010
1000
,
0001
0100
0010
1000
,
1001
0000
0000
0110
0000
0000
0001
1000
,
0100
0000
0010
0000
0100
0000
0010
0001
,
0100
0000
0001
0000
1000
0000
0001
0100
,
1000
0000
0100
0000
0010
0000
1000
0001
,
0100
0000
0001
0000
1000
0000
0010
1000
,
0100
0000
1000
0000
0001
0000
0010
0100
,
1000
0000
0010
0000
0100
0000
0010
0100
,
0001
0000
1000
0000
0010
0000
1000
0001
,
0100
0000
0010
0000
1000
0000
0001
0020
,
0000
0000
0000
0000
,
0030
0000
0000
0000
;

//---------------dance-single - ----------------
#NOTES:
     dance-single:
     :
     Hard:
     11:
     0.447921,0.468755,0.093751,0.135418,0.052084,301.000000,292.000000,9.000000,13.000000,0.000000,0.000000,0.447921,0.468755,0.093751,0.135418,0.052084,301.000000,292.000000,9.000000,13.000000,0.000000,0.000000:
0000
0000
0000
0000
,
0000
0000
0000
0000
,
0000
0000
0000
0000
,
1000
0010
0100
0001
1000
0010
0100
0001
,
0020
0000
0000
0030
,
0001
0010
0100
1000
0001
0010
0100
1000
,
0020
0000
0000
0030
,
1000
0001
0100
0010
1000
0010
0100
0001
,
0001
0100
0010
1000
0010
0100
0001
1000
,
0002
1000
0100
1003
,
2000
0001
0100
3001
,
0200
1000
0010
1300
,
0020
0100
0001
0130
,
0002
0010
0100
1003
,
2000
0010
0100
3001
,
0200
0010
1000
0310
,
2002
0000
0000
0000
3003
0000
0000
0000
0010
1000
0010
0000
0100
0001
0100
0001
,
0100
0000
0010
0000
1000
0001
0100
0000
,
0010
1000
0100
0000
0010
0001
0100
0000
,
0001
0000
1000
0000
0001
0100
1000
0000
,
0100
0000
0000
0001
0000
0000
1000
0000
0000
0100
0000
0000
1001
0000
0000
0000
,
0011
0000
1100
0000
1000
0010
0001
0000
,
0001
0100
1000
0000
0001
1000
0100
0000
,
1010
0000
0101
0000
0010
1000
0100
0000
,
0001
0000
0100
0000
1000
0000
0000
0001
0000
1000
0200
0000
0000
0000
0000
0000
,
1300
0001
0100
0000
0001
1000
0100
0000
,
0010
0001
0100
0010
1000
0100
0010
0000
,
0001
1000
0100
0000
0001
0100
1000
0000
,
0010
1000
0100
0001
0100
0000
1001
0000
,
1000
0010
0001
0000
1000
0100
0001
0000
,
1000
0010
0100
0001
0010
0100
1000
0000
,
0001
1000
0010
0100
1000
0100
0001
1000
,
0100
0000
0010
0000
0100
0000
1000
0000
0001
1000
0000
0100
0000
0000
0010
0000
,
0001
1000
0100
0010
0100
0010
0001
0100
,
1000
0100
0001
1000
0100
0001
0100
1000
,
0010
1000
0100
0010
0001
0100
0001
1000
,
0100
0010
0001
0100
1000
0100
0010
0100
,
0001
1000
0010
0100
0001
1000
0010
0100
,
0001
0010
0100
1000
0001
0010
0100
1000
,
0001
0100
0010
1000
0001
0100
0010
1000
,
0110
0000
0000
0000
0000
0000
1001
0000
0000
0000
0000
0000
0100
0010
0100
0000
,
0001
1000
0100
0001
0100
0100
0010
0001
,
1000
0001
0100
1000
0100
0100
0010
1000
,
0001
0010
0100
1000
0010
0100
0001
1000
,
0001
0100
1000
0010
1000
0100
0001
0010
,
0001
1000
0100
0001
0100
1000
0001
0001
,
1000
0001
0100
1000
0100
0001
1000
1000
,
0001
0010
0001
1000
0100
1000
0010
0010
,
1000
0010
1000
0001
0010
1000
0010
0002
,
0000
0000
0000
0000
,
0003
0000
0000
0000
;

//---------------dance-double - ----------------
#NOTES:
     dance-double:
     :
     Easy:
     3:
     0.159228,0.228518,0.093751,0.052084,0.000000,107.000000,98.000000,9.000000,5.000000,0.000000,0.000000,0.159228,0.228518,0.093751,0.052084,0.000000,107.000000,98.000000,9.000000,5.000000,0.000000,0.000000:
00000000
00000000
00000000
00000000
,
00000000
00000000
00000000
00000000
,
00000000
00000000
00000000
00000000
,
00001001
00000000
00000000
00000000
,
00000100
00000000
00000000
00000000
,
00011000
00000000
00000000
00000000
,
01000000
00000000
00000000
00000000
,
10010000
00000000
01000000
00000000
,
00100000
00000000
00010000
00001000
,
00011000
00000000
00000000
00000000
,
00000100
00000000
00000000
00000000
,
00000001
00000000
00000000
00000000
,
00000010
00000000
00000000
00000000
,
00001000
00000000
00000000
00000000
,
00010000
00000000
00000000
00000000
,
01000000
00000000
10000000
00000000
,
00020000
00000000
00000000
00030000
,
10010000
00000000
01000000
00000000
,
00010000
00000000
00001000
00000000
,
00000100
00000000
00000001
00000000
,
00001000
00000000
00000100
00001000
,
00001001
00000000
00000100
00000000
,
00001000
00000000
00010000
00000000
,
00001000
00000000
01000000
00000000
,
00100000
10000000
00010000
01000000
,
00100000
00000000
00010000
00000000
,
00002000
00000000
00000000
00003000
,
00000000
00001000
00000100
00000001
,
00000001
00001000
00000001
00000000
,
00000010
00000000
00001000
00000000
,
00020000
00000000
00000000
00030000
,
00000000
00010000
01000000
10000000
,
10000000
00010000
10000000
00000000
,
10010000
01000000
00000000
01000000
,
00000000
00100000
00000000
00010000
,
00000000
00001000
00000000
00000010
,
00000001
00001000
00000001
00001000
,
00000110
00000001
00000000
00000100
,
00000000
00001000
00000000
00010000
,
00000000
01000000
00000000
10000000
,
20020000
00000000
00000000
30030000
,
00000000
10000000
01000000
00010000
,
00000000
00001000
00000100
00000001
,
00000000
00000010
00001000
00010000
,
00000000
00001000
00010000
01000000
,
00000000
00010000
01000000
00100000
,
00000000
00010000
00001000
00000100
,
00000000
00000001
00000010
00001000
,
00000000
00010000
00001000
00010000
;

//---------------dance-double - ----------------
#NOTES:
     dance-double:
     :
     Medium:
     7:
     0.321432,0.390629,0.281253,0.062501,0.000000,216.000000,189.000000,27.000000,6.000000,0.000000,0.000000,0.321432,0.390629,0.281253,0.062501,0.000000,216.000000,189.000000,27.000000,6.000000,0.000000,0.000000:
00000000
00000000
00000000
00000000
,
00000000
00000000
00000000
00000000
,
00000000
00000000
00000000
00000000
,
00010100
00001000
00001000
00001000
,
00000020
00000000
00000000
00000030
,
01001000
00010000
00010000
00010000
,
00200000
00000000
00000000
00300000
,
10000000
00010000
00100000
01000000
,
00010000
00001000
00000100
00000000
00000101
00000000
00000011
00000000
,
00001001
00000100
00001000
00010000
,
01000000
00000000
10000000
00000000
00100000
00000000
01000000
00100000
,
00010000
00001000
00000010
00000001
,
00000100
00000000
00011000
00000000
01000000
00000000
00010000
00001000
,
00000100
00000010
00001000
00000100
,
00000010
00000000
00000001
00000000
00000100
00000000
00001000
00010000
,
00100000
01000000
00010000
10000000
,
02200000
00000000
03300000
00000000
00010000
00001000
00000100
00000000
,
00001000
00010000
01000000
00010000
,
00001000
00000000
00000010
00000000
00001000
00010000
00100000
00000000
,
01001000
00101000
00010100
00001100
,
00011000
00000000
00000000
00100000
,
01000000
00100000
00010000
00001000
,
00000010
00000000
00000100
00000000
00000010
00000100
00001000
00000000
,
00000001
00000100
00001000
00010000
,
01000000
00010000
00001000
00000000
00010000
00000000
00100000
00000000
,
10000000
01000000
00100000
00010000
,
00001100
00000101
00001010
00000011
,
00000001
00000010
00000100
00001000
,
00110000
10100000
01010000
11000000
,
00100000
00011000
00000010
00011000
,
00100000
01000000
00100000
00010000
,
00001000
00000100
00000001
00000010
,
00001100
00000000
00011000
00000000
01010000
00000000
00000000
00100000
,
01000000
00100000
10000000
01000000
,
00010000
00001000
00000100
00000001
,
00000100
00001000
00010000
01000000
,
20000000
00000000
00000000
30010000
,
00100000
00010000
00001000
00000010
,
00000001
00000010
00001000
00010000
,
00100000
01000000
00010000
10000000
,
01100000
00000000
00000000
00011000
00000000
00000000
00000010
00000100
,
00001000
00000000
00010000
00000000
00100000
00000000
00010000
00001000
,
00000100
00000000
00001000
00000000
00010000
00000000
01000000
00010000
,
00001000
00000000
00000010
00000000
00000001
00000000
00000100
00001000
,
00010000
00000000
00100000
00000000
10000000
00000000
01000000
00010000
,
00001000
00000000
00000010
00000000
00001000
00000000
00010000
00100000
,
00010000
00000000
00001000
00000000
00000100
00000000
00000001
00000010
,
00001000
00000000
00010000
00000000
01000000
00000000
10000000
00100000
,
00010000
00000000
00001000
00000000
00000100
00000000
00000010
00002000
,
00000000
00000000
00000000
00000000
,
00003000
00000000
00000000
00000000
;

//---------------dance-double - ----------------
#NOTES:
     dance-double:
     :
     Hard:
     10:
     0.415183,0.468755,0.239586,0.083334,0.052084,279.000000,256.000000,23.000000,8.000000,0.000000,0.000000,0.415183,0.468755,0.239586,0.083334,0.052084,279.000000,256.000000,23.000000,8.000000,0.000000,0.000000:
00000000
00000000
00000000
00000000
,
00000000
00000000
00000000
00000000
,
00000000
00000000
00000000
00000000
,
10010000
00010000
00010000
00010000
,
00010000
00000000
00000000
00001000
00000000
00000000
00000100
00000000
,
00001001
00001000
00001000
00001000
,
00001000
00000000
00000000
00010000
00000000
00000000
01000000
00000000
,
10010000
00010000
00010000
00010000
,
00100000
01000000
00010000
00000000
00001000
00000100
00000001
00000010
,
00000200
00001000
00000001
00001000
,
00000001
00001000
00000001
00000320
,
00002030
00010000
00000010
00010000
,
00000010
00010000
00000010
00013000
,
02000000
10000000
00010000
10000000
,
00010000
10000000
00010000
03200000
,
00320000
10000000
00100000
01030000
,
00011000
00000000
00000000
00000000
00000000
00000000
00000000
00000000
00010000
00000100
00010000
00000000
00001000
01000000
00001000
01000000
,
00001000
00000100
00000001
00000010
,
00000001
00001000
00000100
00000000
00000010
00000001
00000100
00001000
,
00010000
00000000
01000000
00000000
10000000
00010000
01000000
00000000
,
00100000
00000000
00000000
00010000
00000000
00000000
00001000
00000000
00000000
00000010
00000000
00000000
00001001
00000000
00000000
00000000
,
00000100
00000001
00000010
00001000
,
00010000
00100000
01000000
00000000
00010000
10000000
01000000
00010000
,
00001000
00000000
00000100
00000000
00000010
00001000
00000100
00000000
,
00000001
00000000
00000100
00000000
00001000
00000000
00000000
00010000
00000000
01000000
20000000
00000000
00000000
00000000
30000000
00000000
,
01010000
00011000
00001100
00011000
,
00101000
00000000
00010010
00000000
00001000
00000001
00000100
00000000
,
00000110
00000000
00001001
00000000
00000010
00000100
00001000
00000000
,
00010000
01000000
00100000
00000000
10010000
00000000
01100000
00000000
,
00101000
00011000
00010010
00011000
,
01010000
00000000
00001100
00000000
00000001
00000010
00001000
00000000
,
00010000
00100000
10000000
00000000
00010000
10000000
01000000
00000000
,
00100000
00000000
10000000
00000000
01000000
00000000
00000000
00000000
00010000
00001000
00000000
00000100
00000000
00000000
00000010
00000000
,
00001000
00000001
00000100
00000000
00000001
00001000
00000100
00000000
,
00000010
00000001
00000100
00001000
00010000
01000000
10000000
00000000
,
00010000
10000000
01000000
00000000
10000000
00010000
01000000
00000000
,
00100000
10000000
01000000
00010000
00001000
00000100
00000001
00000000
,
00001000
00000010
00000100
00000000
00000001
00000010
00000100
00000000
,
00001000
00000010
00000100
00001000
00010000
00100000
01000000
00000000
,
00010000
01000000
00100000
00000000
10000000
01000000
00100000
00000000
,
10010000
00000000
00000000
00000000
00000000
00000000
00011000
00000000
00000000
00000000
00000000
00000000
00001000
00000001
00001000
00000000
,
00000001
00000010
00001000
00010000
00001000
00010000
00100000
10000000
,
01000000
10000000
01000000
00010000
00001000
00000100
00000001
00000000
,
00001000
00000100
00000010
00001000
00010000
00100000
01000000
00010000
,
10000000
01000000
00010000
00001000
00000100
00000001
00000010
00000000
,
00000001
00001000
00000010
00000100
00001000
00010000
01000000
00100000
,
00010000
10000000
01000000
00010000
00001000
00010000
00001000
00000000
,
00000100
00000001
00000010
00001000
00010000
00100000
10000000
01000000
,
00010000
00001000
00000100
00001000
00010000
01000000
00010000
00002000
,
00000000
00000000
00000000
00000000
,
00003000
00000000
00000000
00000000
;

//---------------dance-single - ----------------
#NOTES:
     dance-single:
     :
     Challenge:
     13:
     0.648816,0.673705,0.312503,0.166668,0.572923,436.000000,406.000000,30.000000,16.000000,0.000000,0.000000,0.648816,0.673705,0.312503,0.166668,0.572923,436.000000,406.000000,30.000000,16.000000,0.000000,0.000000:
// measure 0
0000
0000
0000
0000
,  // measure 1
0000
0000
0000
0000
,  // measure 2
0000
0000
0000
0000
,  // measure 3
1010
0000
0000
0101
0000
0000
0011
0000
0000
1100
0000
0000
1001
0000
0001
1000
,  // measure 4
0001
0000
0010
0000
0100
0000
1000
0000
0010
0100
0000
0010
0100
0000
0001
0000
,  // measure 5
0011
0000
0000
1100
0000
0000
0101
0000
0000
1010
0000
0000
0110
0000
0010
1000
,  // measure 6
0010
0000
0100
0000
0001
0000
1000
0100
0000
1000
0010
0000
0100
0000
0001
0000
,  // measure 7
1001
0000
0000
0001
0100
0000
0000
0010
1000
0000
0000
0100
0010
0000
0000
0001
,  // measure 8
1000
0000
0010
0000
0100
0000
0001
0000
1000
0100
1000
0000
0001
0010
0001
0000
,  // measure 9
1001
0000
0000
0000
1000
0000
0010
0000
0100
0000
0001
0010
0000
0001
1000
0000
,  // measure 10
1100
0000
0000
0000
1000
0000
0010
0000
0100
0000
0001
0010
0000
0100
1000
0000
,  // measure 11
1010
0000
0000
0000
1000
0000
0001
0000
1000
0000
0010
0100
0000
0001
0100
0000
,  // measure 12
0110
0000
0000
0000
0010
0000
0100
0000
0001
0000
0010
0100
0000
1000
0001
0000
,  // measure 13
0101
0000
0000
0000
0100
0000
0001
0000
0010
0000
0001
1000
0000
0100
1000
0000
,  // measure 14
1010
0000
0000
0000
1000
0000
0001
0000
0010
0000
0001
0100
0000
0010
1000
0000
,  // measure 15
1100
0000
0000
0000
1000
0000
0001
0000
0010
0000
0100
1000
0000
0001
0100
0000
,  // measure 16
0220
0000
0000
0000
0330
0000
0000
0000
0100
0001
0100
0000
0001
1000
0001
1000
,  // measure 17
0001
0000
0000
0000
1000
0000
1000
0000
1000
0010
0000
0010
0100
0000
0001
0000
,  // measure 18
0010
0000
0000
0000
0001
1000
0000
0001
1000
0000
0010
0000
0100
0000
0001
0000
,  // measure 19
0011
0000
0010
0001
0100
0010
1000
0001
,  // measure 20
1000
0010
0000
1000
0010
0000
0100
0001
0000
0100
0001
0000
1000
0000
0100
0000
,  // measure 21
1100
0000
0000
0000
0001
0000
0001
0000
0001
1000
0000
1000
0010
0000
0100
0000
,  // measure 22
0001
0000
1000
0000
0010
0100
0000
0010
0100
0000
0001
0000
1000
0000
0100
0000
,  // measure 23
0110
0000
0001
0100
0001
1000
0010
0100
,  // measure 24
0001
0000
0001
0000
0001
1000
0000
1000
0010
0100
0001
0000
1001
0000
0000
0000
,  // measure 25
1020
0100
0230
0001
0302
1000
2003
0010
,  // measure 26
3020
0000
0100
0000
0230
0000
0000
0000
0301
1000
0000
0010
0000
1000
0001
0000
,  // measure 27
0010
0000
0001
0100
0010
1000
0001
0010
,  // measure 28
0100
0000
1000
0000
0001
0010
0000
0001
0010
0000
0100
0000
1000
0000
0000
0000
,  // measure 29
0102
1000
2003
0010
3020
0100
0230
0001
,  // measure 30
0302
0000
1000
0000
2003
0000
0000
0000
3100
0010
0000
0001
0000
0100
0010
0000
,  // measure 31
1000
0000
0001
1000
0010
0100
0001
0010
,  // measure 32
0100
0000
1000
0000
1100
0000
0000
0000
0001
1000
0000
0010
0000
0000
0100
0001
,  // measure 33
1000
0000
0010
0000
1000
0000
0001
0000
0010
0000
0100
1000
0000
1000
0001
0000
,  // measure 34
0100
0000
0001
0000
0010
0000
0100
0000
0010
0000
0001
1000
0000
1000
0010
0000
,  // measure 35
0100
0000
0010
0000
1000
0000
0100
0000
0010
0000
0001
1000
0000
1000
0010
0000
,  // measure 36
0100
0010
0000
0100
0001
0000
0010
0100
0000
1000
0001
0000
1000
0000
0010
0000
,  // measure 37
0100
0000
0001
0000
0010
0000
0100
0000
1000
0000
0010
1000
0000
1000
0001
0000
,  // measure 38
0010
0000
0001
0000
1000
0000
0010
0000
0100
0000
0010
1000
0000
1000
0100
0000
,  // measure 39
0010
0000
0100
0000
0010
0000
0001
0000
1000
0000
0010
0100
0000
0100
0001
0000
,  // measure 40
1001
0000
1000
0100
1000
0000
1001
0000
0001
0100
0001
0000
0100
0010
1000
0000
,  // measure 41
1001
0000
1000
0000
0010
0100
0010
0100
0010
0000
1000
0001
0000
0001
0010
0000
,  // measure 42
0100
0000
1000
0000
0010
0100
0010
0100
0001
0000
1000
0001
0000
1000
0100
0000
,  // measure 43
0010
0000
0100
0000
1000
0010
1000
0010
0100
0000
0001
1000
0000
1000
0001
0000
,  // measure 44
0010
0000
0100
0000
1000
0001
1000
0001
0010
0000
0001
0100
0000
0010
1000
0000
,  // measure 45
0100
0000
0010
0000
0001
0100
0001
0100
0010
0000
0100
0001
0000
1000
0100
0000
,  // measure 46
1000
0000
0001
0000
0010
0100
0010
0100
0010
0000
0001
1000
0000
1000
0100
0000
,  // measure 47
1000
0000
0010
0000
0100
0010
0100
0010
1000
0000
0001
0010
0000
0001
1000
0000
,  // measure 48
0100
0000
0010
0000
0001
1000
0001
1000
0010
0000
0100
0010
0000
1000
0001
0000
,  // measure 49
2200
0000
0000
3300
;
