#VERSION:0.83;
#TITLE:Sounds So Good;
#SUBTITLE:;
#ARTIST:Ashton Shepherd;
#TITLETRANSLIT:;
#SUBTITLETRANSLIT:;
#ARTISTTRANSLIT:;
#GENRE:;
#ORIGIN:;
#CREDIT:;
#BANNER:Sounds So Good-bn.png;
#BACKGROUND:Sounds So Good-bg.png;
#PREVIEWVID:;
#JACKET:Sounds So Good-jacket.png;
#CDIMAGE:;
#DISCIMAGE:;
#LYRICSPATH:;
#CDTITLE:;
#MUSIC:Sounds So Good.ogg;
#OFFSET:0.777778;
#SAMPLESTART:36.900002;
#SAMPLELENGTH:20.000000;
#SELECTABLE:YES;
#DISPLAYBPM:154.000000;
#BPMS:0.000=154.260;
#STOPS:;
#DELAYS:;
#WARPS:;
#TIMESIGNATURES:0.000=4=4;
#TICKCOUNTS:0.000=4;
#COMBOS:0.000=1;
#SPEEDS:0.000=1.000=0.000=0;
#SCROLLS:0.000=1.000;
#FAKES:;
#LABELS:0.000=Song Start;
#BGCHANGES:;
#KEYSOUNDS:;
#ATTACKS:
;

//---------------dance-single - ----------------
#NOTEDATA:;
#CHARTNAME:;
#STEPSTYPE:dance-single;
#DESCRIPTION:;
#CHARTSTYLE:;
#DIFFICULTY:Hard;
#METER:12;
#RADARVALUES:0.576862,0.596322,0.327875,0.267477,0.038827,468.000000,430.000000,38.000000,31.000000,0.000000,0.000000,0.000000,0.000000,0.000000,0.576862,0.596322,0.327875,0.267477,0.038827,468.000000,430.000000,38.000000,31.000000,0.000000,0.000000,0.000000,0.000000,0.000000;
#CREDIT:;
#DISPLAYBPM:154.000000;
#NOTES:
0000
0000
0000
0000
,
0000
0000
0000
0000
,
0000
0000
0000
0000
,
0000
0000
0000
0000
,
0000
0000
0000
0000
,
0120
0000
1030
0000
1001
0000
0001
0010
,
0100
0000
1100
0000
0101
0002
1000
0000
,
0023
0031
0011
1000
,
0010
0000
1000
0001
1000
0000
0100
0000
0010
0000
0001
0000
0100
0000
0010
0000
,
2010
0000
3001
1000
0100
0010
0001
0000
,
1001
0000
0010
0000
1000
0001
0100
0000
,
0210
0000
1000
0000
0310
0100
0001
0100
,
1000
0100
0001
0000
1000
0010
0001
0000
,
0010
0001
1000
0010
0000
0100
0001
1000
,
2100
0000
3001
0000
0011
0001
0100
0000
,
2010
0000
0100
0000
3001
0010
1000
0010
,
0001
0100
0010
0000
1000
0100
0010
0000
,
0010
0001
0100
0010
1000
0100
0001
0000
,
1000
0001
1000
0100
0010
0100
0010
0001
,
0000
0200
0001
0000
0310
0100
1000
0100
,
0001
0010
0100
0000
1000
0001
0010
0000
,
1001
0000
0110
0000
1000
0001
0010
0100
,
2000
0000
3010
0100
0002
0000
1003
0010
,
0200
1000
1000
0000
0301
1000
0010
0100
,
0001
0010
0100
1000
0001
1000
1100
0000
,
1000
0010
0001
0010
1000
0100
0010
0001
,
0101
0000
1000
0010
0100
0010
1000
0000
,
0110
0000
0010
0100
0001
1000
0000
1001
,
0001
1000
0100
0000
0010
0001
1000
0000
,
0010
0001
0010
0100
0010
1000
0010
0000
,
0101
0000
1000
0001
0010
0100
1000
0000
,
1000
1000
0001
0000
0100
0001
0010
0000
,
0001
0010
0001
1000
0010
0100
0001
0000
,
0010
0001
0100
1000
0100
0001
1000
0000
,
2010
0000
3010
0100
0001
0000
1000
0100
,
0010
0010
0010
0000
0001
1000
0210
0000
,
0301
1000
0100
0010
0100
1000
0001
0000
,
0012
0000
1003
0000
0001
1000
0100
0010
,
0002
0000
0103
0000
0201
0000
0310
1000
,
0001
0100
1000
0000
0010
1000
0001
0100
,
1002
1003
0021
0130
,
0010
0001
0100
0010
1000
0100
0010
0001
,
1000
0010
0100
0001
1000
0100
1000
0100
,
0010
0001
0010
1000
0010
0000
0001
0100
,
1001
0000
0000
1000
0010
0100
0002
0000
0000
1003
0000
0000
,
0010
1000
0100
0001
0100
0000
1000
0010
,
0001
0010
1000
0000
0001
1000
0100
0010
,
0100
0001
0100
1000
0010
0000
0100
0001
,
0011
0000
0000
0001
0010
0100
2000
0000
0000
3001
0000
0000
,
1000
0010
0100
0001
0010
0001
1000
0100
,
0010
0100
0010
0001
0100
0010
1000
0000
,
0001
1000
0100
0010
0001
0100
1000
0100
,
0002
0000
0013
0100
1000
0001
0100
0000
,
0101
0000
1000
0001
0100
0010
0000
1010
,
1000
0100
0010
0001
0100
0010
0001
0000
,
1000
0001
0010
0100
1000
0001
0100
0000
,
1010
0001
1000
0100
1000
0010
0100
0000
,
0001
0001
0100
0000
0120
0000
1030
0100
,
0020
1000
1030
0010
0001
0100
0001
0000
,
1000
0100
0001
0100
0010
0100
1000
0000
,
1002
0000
0013
0100
2100
0000
3010
0100
,
0001
0001
0001
0000
1000
0100
1200
0000
,
0301
0100
1000
0010
1000
0001
0100
0010
,
1020
0000
0100
0000
1030
0010
0100
0001
,
0011
0000
0010
0000
0010
0100
0001
1000
,
0010
1000
0100
0000
1000
0010
0100
0001
,
1002
0103
0120
1030
,
0001
0010
0100
1000
0010
0100
0001
0000
,
1000
0001
0010
0001
0100
0010
1000
0000
,
0001
0010
0100
0010
0001
0100
1000
0000
,
0001
0000
0100
0000
0001
0000
1000
0000
0100
0000
1000
0000
0010
0000
0000
0100
0000
0000
0001
0000
0000
1000
0000
0000
,
2002
0000
0000
0000
,
0000
0000
0000
3003
;

//---------------dance-single - ----------------
#NOTEDATA:;
#CHARTNAME:;
#STEPSTYPE:dance-single;
#DESCRIPTION:;
#CHARTSTYLE:;
#DIFFICULTY:Medium;
#METER:10;
#RADARVALUES:0.477020,0.533551,0.388272,0.371016,0.000000,387.000000,342.000000,45.000000,43.000000,0.000000,0.000000,0.000000,0.000000,0.000000,0.477020,0.533551,0.388272,0.371016,0.000000,387.000000,342.000000,45.000000,43.000000,0.000000,0.000000,0.000000,0.000000,0.000000;
#CREDIT:;
#DISPLAYBPM:154.000000;
#NOTES:
0000
0000
0000
0000
,
0000
0000
0000
0000
,
0000
0000
0000
0000
,
0000
0000
0000
0000
,
0000
0000
0000
0000
,
0120
0000
1030
0000
1001
0000
0000
0001
,
1000
0100
1000
0000
0001
0200
0000
0000
,
0310
2000
0000
3000
1100
0000
0000
0000
,
1000
0010
0100
0001
0010
0100
1000
0000
,
0002
0000
1003
0020
0000
0130
0001
0000
,
0101
0000
0001
0000
1000
0100
0010
0000
,
0002
0000
0000
0000
1003
0010
0100
0001
,
1000
0000
0010
0000
0100
0001
1000
0000
,
0010
0000
1000
0100
1000
0000
0000
0001
,
0200
0310
1010
0000
,
2000
0000
0000
0000
3010
0100
0001
1000
,
0100
0000
0010
0000
0001
1000
0001
0000
,
2000
0000
3010
0200
0000
0301
2000
0000
,
3002
0000
1003
0020
0000
1030
0002
0000
,
0000
0203
0000
0000
0310
0100
0001
1000
,
0100
0000
0010
0000
0100
1000
0001
0000
,
0011
0000
1100
0000
0101
0000
1000
0001
,
2000
3100
0002
0103
,
1000
0010
0100
0000
0001
1000
0100
0000
,
0010
0001
1000
0001
0000
1000
0200
0000
,
1300
0010
0001
0010
1000
0000
0010
0100
,
0002
0203
0320
1030
,
1010
0000
1000
0100
0010
0001
0000
0101
,
0000
0000
0000
0000
1000
0010
0100
0000
,
0001
0010
1000
0010
0001
1000
0100
0000
,
1001
0110
1001
0110
,
1000
0200
0000
0000
1300
0001
0010
0000
,
0001
0000
0001
0000
1000
0001
0100
0000
,
0010
0100
0010
1000
0100
0001
0100
0000
,
1100
0101
1010
0011
,
1000
0100
1000
0000
1000
0001
1000
0000
,
0011
0000
0000
0000
1000
0001
0100
0000
,
2010
0000
3001
0000
0000
1000
0010
0100
,
0002
0000
1003
0000
1001
0000
0001
0100
,
1000
0100
0001
0000
0000
0010
0100
1000
,
0002
0013
2000
3100
,
1002
0100
1000
0100
,
1003
0001
1000
0000
0010
0100
0010
0100
,
0001
0010
1000
0010
0001
0000
1000
0001
,
0011
1010
0011
1010
,
0010
1000
0100
0001
0100
0000
1000
0010
,
0100
0001
0000
0000
1000
0100
1000
0100
,
0010
0001
0010
1000
0010
0000
0001
1000
,
1100
0101
1100
0101
,
0020
0000
0130
0010
1000
0100
0001
0000
,
1000
0010
0100
0001
0010
0100
1000
0000
,
0001
0100
1000
0100
0001
0000
1000
0100
,
2000
3020
0230
0301
,
0011
0000
0001
0100
0010
1000
0000
1100
,
0000
0000
0000
0000
0100
0010
0001
0000
,
1000
0100
0001
0100
0001
0100
1000
0000
,
0120
0000
1030
0001
0000
0100
0000
0000
,
0001
1000
0100
0000
2200
0000
0300
0010
,
0020
0000
3000
0000
0130
0001
1000
0000
,
0010
0001
0010
0100
0010
1000
0010
0000
,
1001
0011
0110
1100
,
0001
0010
0001
0000
0001
1000
0001
0000
,
1010
0000
0000
0000
1000
0001
0100
0000
,
0102
0000
1003
0000
0000
0010
0100
0001
,
2000
0000
3010
0000
0110
0000
0001
1000
,
0010
0200
0000
0000
0301
0100
0010
1000
,
2010
3001
0012
1003
,
1002
0100
1000
0100
,
0013
0001
0100
1000
,
0010
0100
0001
0000
0010
0100
1000
0000
,
0001
1000
0010
0000
1000
0100
0010
0001
,
2002
0000
0000
0000
,
0000
0000
0000
3003
;

//---------------dance-single - ----------------
#NOTEDATA:;
#CHARTNAME:;
#STEPSTYPE:dance-single;
#DESCRIPTION:;
#CHARTSTYLE:;
#DIFFICULTY:Easy;
#METER:8;
#RADARVALUES:0.321711,0.408010,0.250220,0.379644,0.000000,261.000000,232.000000,29.000000,44.000000,0.000000,0.000000,0.000000,0.000000,0.000000,0.321711,0.408010,0.250220,0.379644,0.000000,261.000000,232.000000,29.000000,44.000000,0.000000,0.000000,0.000000,0.000000,0.000000;
#CREDIT:;
#DISPLAYBPM:154.000000;
#NOTES:
0000
0000
0000
0000
,
0000
0000
0000
0000
,
0000
0000
0000
0000
,
0000
0000
0000
0000
,
0000
0000
0000
0000
,
0220
0330
1001
0000
,
1000
0001
0200
0300
,
0202
0303
1100
0000
,
0001
0010
0100
1000
,
0010
0000
0000
1000
0000
0000
0001
0000
,
1001
0000
0000
0000
0000
1000
0001
0000
,
0020
0000
0000
0000
0000
0031
1000
0000
,
1100
0000
0000
0001
,
1000
0000
0010
0100
0000
0000
0000
0001
,
2000
0000
3100
0000
,
0002
0000
0000
0000
0000
1003
0010
0000
,
0110
0000
0000
0000
0000
0010
0100
0000
,
0001
0000
0000
1000
0000
0000
0100
0000
,
1000
0000
0000
0010
0000
0000
0001
0000
,
0000
0200
0000
0000
0000
0310
1000
0000
,
1001
0000
0000
0000
0000
1000
0100
0000
,
1000
0000
0100
0000
0001
0000
1000
0010
,
2000
0000
0002
3003
,
2020
0000
0000
0000
,
3030
0000
1000
0001
0000
0000
0110
0000
,
0001
1000
0100
1000
,
0010
0010
0100
0100
,
0001
0000
1000
0010
0000
0100
0000
0110
,
0000
0000
0000
0000
0000
1000
0001
0000
,
1000
0010
0100
0001
,
1000
1000
0001
0001
,
2200
0000
3300
0000
1000
0001
0010
0000
,
0000
0000
0000
0000
0000
0001
0100
0000
,
0010
0000
0100
0000
0001
1000
0001
0000
,
0100
0100
1000
1000
,
0010
1001
0100
1001
,
0002
0003
2000
3000
,
0022
0000
0000
0000
0033
0000
1000
0010
,
1000
0000
0000
0000
1010
0000
0001
1000
,
0002
0000
0000
0000
0003
0000
0100
0010
,
0100
0000
0101
2100
,
0001
0001
0001
0001
,
0001
0000
0001
0000
3001
1000
0001
1000
,
0001
0100
0010
1000
,
0002
0023
0230
2300
,
3010
0100
0001
1000
,
0200
0000
0300
0000
1000
0001
1000
0001
,
1000
0100
0010
0001
,
2000
3020
0230
0302
,
0013
0001
1000
0100
,
1000
0000
0010
0100
0000
0000
0101
0000
,
0001
1000
0001
0000
0110
0000
1001
0000
,
1000
1000
0010
0010
,
1000
0000
0001
0100
0000
0010
0000
1010
,
0000
0000
0000
0000
0000
1000
0100
0000
,
1000
0000
0010
0000
0100
0001
0100
0000
,
0001
0000
1000
0100
0000
1000
0000
0000
,
1000
0001
0000
0000
0202
0000
0303
1000
,
0020
0000
0000
0000
0000
0130
0010
0000
,
1000
0100
1000
0000
0001
0100
0001
0000
,
0100
0100
0001
0001
,
1000
0110
1000
0110
,
0020
0030
0200
0300
,
2020
0000
0000
0000
3030
0000
1000
0100
,
1000
0000
0000
0000
0101
0000
0001
0010
,
0002
0000
0000
0000
0000
0000
0103
0010
,
2000
0000
0200
3300
,
2200
0000
0000
3300
,
0001
0001
0001
0001
,
1000
1000
1000
1000
,
0010
0000
0100
0000
0001
1000
0001
0000
,
2002
0000
0000
0000
,
0000
0000
0000
3003
;

//---------------dance-single - ----------------
#NOTEDATA:;
#CHARTNAME:;
#STEPSTYPE:dance-single;
#DESCRIPTION:;
#CHARTSTYLE:;
#DIFFICULTY:Beginner;
#METER:3;
#RADARVALUES:0.152844,0.219698,0.077654,0.103539,0.000000,124.000000,115.000000,9.000000,12.000000,0.000000,0.000000,0.000000,0.000000,0.000000,0.152844,0.219698,0.077654,0.103539,0.000000,124.000000,115.000000,9.000000,12.000000,0.000000,0.000000,0.000000,0.000000,0.000000;
#CREDIT:;
#DISPLAYBPM:154.000000;
#NOTES:
// measure 0
0000
0000
0000
0000
,  // measure 1
0000
0000
0000
0000
,  // measure 2
0000
0000
0000
0000
,  // measure 3
0000
0000
0000
0000
,  // measure 4
0000
0000
0000
0000
,  // measure 5
0110
0000
1001
0000
,  // measure 6
1000
0000
1000
0000
,  // measure 7
0001
0000
0001
0000
,  // measure 8
0100
0000
0010
0000
,  // measure 9
1000
0000
0001
0000
,  // measure 10
1001
0000
0000
0000
,  // measure 11
0020
0000
0000
0000
,  // measure 12
0030
0000
0000
0000
,  // measure 13
0100
0000
0001
0000
,  // measure 14
1000
0000
1000
0000
,  // measure 15
0002
0000
0000
0000
,  // measure 16
0003
0000
0000
0000
,  // measure 17
0100
0000
0001
0000
,  // measure 18
0010
0000
0001
0000
,  // measure 19
0200
0000
0000
0000
,  // measure 20
0300
0000
0000
0000
,  // measure 21
0010
0010
0010
0000
,  // measure 22
1000
0000
0001
0000
,  // measure 23
2002
0000
0000
3003
,  // measure 24
0000
0000
0001
0000
,  // measure 25
1000
0000
0100
0000
,  // measure 26
1000
1000
1000
0000
,  // measure 27
0010
0000
0100
0000
,  // measure 28
0001
0000
0000
0000
,  // measure 29
0010
0000
0001
0000
,  // measure 30
0100
0100
0100
0000
,  // measure 31
0001
0000
0010
0010
,  // measure 32
0000
0000
0000
0000
,  // measure 33
1000
0000
0100
0000
,  // measure 34
0010
0010
0010
0000
,  // measure 35
0001
0001
0001
0000
,  // measure 36
0100
0000
0000
0000
,  // measure 37
0110
0000
0000
0000
,  // measure 38
1000
0000
0100
0000
,  // measure 39
0001
0000
0000
0000
,  // measure 40
0100
0000
0010
0000
,  // measure 41
0220
0000
0000
0330
,  // measure 42
0000
0000
0001
0001
,  // measure 43
0001
0000
1000
0000
,  // measure 44
0100
0100
0100
0000
,  // measure 45
1000
0000
0010
0000
,  // measure 46
1000
0000
0001
0001
,  // measure 47
0001
0000
0100
0000
,  // measure 48
0010
0010
0010
0000
,  // measure 49
1000
0000
0100
0000
,  // measure 50
1000
0000
0001
0000
,  // measure 51
0010
0000
0001
0000
,  // measure 52
1000
1000
1000
0000
,  // measure 53
0100
0000
1000
0000
,  // measure 54
0001
0000
0000
0000
,  // measure 55
0100
0000
0010
0000
,  // measure 56
1000
1000
1000
0000
,  // measure 57
0001
0000
1000
0000
,  // measure 58
0020
0000
0030
0000
,  // measure 59
0100
0000
0010
0000
,  // measure 60
1000
1000
1000
0000
,  // measure 61
0100
0100
0100
0000
,  // measure 62
0010
0000
0000
0000
,  // measure 63
1001
0000
0000
0000
,  // measure 64
0010
0000
0100
0000
,  // measure 65
0001
0000
0000
0000
,  // measure 66
1000
0000
0001
0000
,  // measure 67
0220
0000
0000
0000
,  // measure 68
0000
0000
0000
0000
,  // measure 69
0330
0000
0000
0000
,  // measure 70
0000
0000
0000
0000
,  // measure 71
2002
0000
0000
0000
,  // measure 72
0000
0000
0000
3003
;
