#VERSION:0.83;
#TITLE:Sockem;
#SUBTITLE:;
#ARTIST:Steve Porter;
#TITLETRANSLIT:;
#SUBTITLETRANSLIT:;
#ARTISTTRANSLIT:;
#GENRE:;
#ORIGIN:;
#CREDIT:;
#BANNER:Sockem.png;
#BACKGROUND:Sockem-bg.png;
#PREVIEWVID:;
#JACKET:Sockem-jacket.png;
#CDIMAGE:;
#DISCIMAGE:;
#LYRICSPATH:;
#CDTITLE:;
#MUSIC:Sockem.ogg;
#OFFSET:0.000000;
#SAMPLESTART:69.390999;
#SAMPLELENGTH:20.000000;
#SELECTABLE:YES;
#DISPLAYBPM:128.000000;
#BPMS:0.000=127.700,
4.000=128.000;
#STOPS:;
#DELAYS:;
#WARPS:;
#TIMESIGNATURES:0.000=4=4;
#TICKCOUNTS:0.000=4;
#COMBOS:0.000=1;
#SPEEDS:0.000=1.000=0.000=0;
#SCROLLS:0.000=1.000;
#FAKES:;
#LABELS:0.000=Song Start;
#BGCHANGES:;
#KEYSOUNDS:;
#ATTACKS:
;

//---------------dance-single - ----------------
#NOTEDATA:;
#CHARTNAME:;
#STEPSTYPE:dance-single;
#DESCRIPTION:;
#CHARTSTYLE:;
#DIFFICULTY:Beginner;
#METER:2;
#RADARVALUES:0.149269,0.177822,0.000000,0.009586,0.000000,109.000000,109.000000,0.000000,1.000000,0.000000,0.000000,0.000000,0.000000,0.000000,0.149269,0.177822,0.000000,0.009586,0.000000,109.000000,109.000000,0.000000,1.000000,0.000000,0.000000,0.000000,0.000000,0.000000;
#CREDIT:;
#DISPLAYBPM:128.000000;
#NOTES:
0000
0000
0000
0000
,
0000
0000
0000
0000
,
0000
0000
0000
0000
,
1000
0000
0010
0000
,
1000
0000
0001
0000
,
0010
0000
0010
0000
,
0010
0000
0010
0000
,
0100
0000
0100
0000
,
0100
0000
0000
0000
,
0001
0000
1000
0000
,
0100
0000
1000
0000
,
1000
0000
1000
0000
,
0001
0000
0000
0000
,
0010
0010
0000
0000
,
0100
0100
0000
0000
,
0001
0001
0000
0000
,
1000
0000
0001
0000
,
1000
1000
0000
0000
,
0010
0010
0000
0000
,
0100
0100
0000
0000
,
0010
0000
0100
0000
,
0001
0000
0000
0000
,
1000
0000
0000
0000
,
0001
0000
0000
0000
,
0100
0000
0000
0000
,
0010
0010
0010
0000
,
0100
0000
0100
0000
,
0010
0010
0010
0000
,
1000
0000
1000
0000
,
0001
0001
0001
0000
,
1000
1000
1000
0000
,
0001
0000
1000
0000
,
0010
0010
0010
0010
,
0010
0000
0100
0000
,
0100
0000
0100
0000
,
0100
0000
0100
0000
,
0020
0000
0000
0030
,
0010
0000
0100
0000
,
0001
0001
0001
0000
,
1000
0000
0100
0000
,
0010
0010
0010
0000
,
0100
0000
0100
0000
,
1000
1000
1000
0000
,
0010
0000
0100
0000
,
0100
0100
0100
0000
,
0001
0000
1000
0000
,
0001
0001
0001
0000
,
1000
0000
0001
0000
,
1000
1000
1000
0000
,
0010
0000
1000
0000
,
0100
0100
0100
0000
,
0010
0000
0001
0000
,
0100
0100
0100
0100
,
0100
0000
0000
0000
;

//---------------dance-single - ----------------
#NOTEDATA:;
#CHARTNAME:;
#STEPSTYPE:dance-single;
#DESCRIPTION:;
#CHARTSTYLE:;
#DIFFICULTY:Easy;
#METER:5;
#RADARVALUES:0.213632,0.254031,0.057516,0.220480,0.000000,156.000000,150.000000,6.000000,23.000000,0.000000,0.000000,0.000000,0.000000,0.000000,0.213632,0.254031,0.057516,0.220480,0.000000,156.000000,150.000000,6.000000,23.000000,0.000000,0.000000,0.000000,0.000000,0.000000;
#CREDIT:;
#DISPLAYBPM:128.000000;
#NOTES:
0000
0000
0000
0000
,
0000
0000
0000
0000
,
0000
0000
0000
0000
,
0001
0000
0010
0000
,
0001
0100
0010
0000
,
1000
0000
0001
0000
,
0100
0000
0010
1000
,
0100
0000
0001
0000
,
0100
0001
0010
0001
,
1000
0000
0001
0100
,
0010
0000
0100
0000
,
0010
0000
1000
0100
,
0001
1000
0010
0100
,
1000
0000
0002
1003
,
0001
0000
0200
1300
,
0100
0000
1000
0010
,
0100
0001
1000
0001
,
1000
0000
0020
1030
,
0010
0000
2000
3001
,
1000
0000
0200
0310
,
1000
0001
0100
0010
,
2000
0000
3001
0000
,
0010
1000
0100
1000
,
0002
0000
1003
0000
,
0001
0010
0100
0001
,
2000
3000
0002
0003
,
0200
0000
0310
0000
,
0002
0003
0200
0300
,
0020
0000
1030
0000
,
1000
0001
1000
1001
,
1000
0001
1000
0000
,
0010
0100
0010
0110
,
0100
0010
0100
0000
,
1000
1000
0100
0100
,
0010
0010
0001
0001
,
0200
0300
2000
3000
,
0010
0100
0001
1000
,
1001
0000
0010
0100
,
2000
0000
3010
0100
,
0110
0000
0100
0010
,
1000
0001
0100
1000
,
1001
0000
1000
0100
,
0002
0000
0013
0100
,
0110
0000
0001
1000
,
0010
0100
0001
0010
,
0200
0000
0301
0000
,
0020
0000
1030
0000
,
0200
0000
0310
1000
,
0001
0100
0010
1000
,
0002
0000
0013
0000
,
2000
0000
3010
0000
,
2000
0000
3100
0000
,
1000
0001
0010
0100
,
1000
0000
0000
0000
;

//---------------dance-single - ----------------
#NOTEDATA:;
#CHARTNAME:;
#STEPSTYPE:dance-single;
#DESCRIPTION:;
#CHARTSTYLE:;
#DIFFICULTY:Medium;
#METER:8;
#RADARVALUES:0.347838,0.355643,0.086275,0.124619,0.000000,254.000000,245.000000,9.000000,13.000000,0.000000,0.000000,0.000000,0.000000,0.000000,0.347838,0.355643,0.086275,0.124619,0.000000,254.000000,245.000000,9.000000,13.000000,0.000000,0.000000,0.000000,0.000000,0.000000;
#CREDIT:;
#DISPLAYBPM:128.000000;
#NOTES:
0000
0000
0000
0000
,
0000
0000
0000
0000
,
0000
0000
0000
0000
,
1000
1000
0000
0000
1000
1000
0000
0000
,
0001
0001
0000
0000
1000
1000
0000
0000
,
0010
0100
0010
0100
,
1001
0000
1000
0100
,
0010
0010
0100
1000
,
0001
0000
0010
0100
1000
0000
1000
0000
,
0001
0000
1000
0001
,
0100
0010
1000
1000
,
0010
0000
0100
0000
1000
0100
0010
0000
,
0001
0100
0010
0000
1000
0100
0010
0001
,
1000
0100
0010
0000
0010
0000
1010
0000
,
1000
0001
0010
0000
0001
0000
1010
0000
,
0010
1000
0010
0000
0100
0000
0001
0000
,
0001
0100
0010
0000
1000
0100
0010
0000
,
0001
1000
0010
0000
0010
0000
0011
0000
,
1000
0010
0100
0000
1000
0000
0101
0000
,
1000
0001
1000
0000
0100
0000
1001
0000
,
1000
0001
0010
0000
0001
0100
0010
0000
,
0200
0301
2000
3001
,
2000
3100
2000
3010
,
0100
0001
0010
0000
0200
0000
0301
0000
,
0020
1030
0002
0103
,
0010
1000
0000
0100
0000
0001
0000
0100
,
0000
1000
0000
0001
0010
0001
0000
1000
,
0000
0010
0000
1000
0000
0100
0000
0010
,
0000
0001
0000
0100
1000
0100
0000
0010
,
0100
0000
0100
0000
0100
0001
0100
0010
,
0000
1000
0000
0100
0000
0001
0000
0100
,
0001
1000
0001
0100
,
0020
0000
0230
0000
0320
0000
1030
0001
,
1000
1000
0100
0000
0010
0010
0001
0000
,
0100
0100
0010
0000
0001
0001
1000
0000
,
0100
0010
0001
1000
,
0001
0010
0100
1000
0001
0100
1001
0000
,
1000
0100
0010
0000
0000
1000
0001
0000
,
0100
0010
1000
0000
0000
0100
0001
0000
,
0010
0100
1000
0000
0000
0001
0100
0000
,
0010
1000
0010
0100
0010
0000
0110
0000
,
1000
0001
0010
0000
0000
1000
0001
0000
,
0100
0001
0010
0000
0000
0100
0010
0000
,
1000
0001
1000
0000
0000
0010
0100
0000
,
1000
0100
0010
0001
0010
0100
1000
0000
,
1000
0001
0010
0000
0002
0000
1003
0000
,
1000
0001
0001
1000
,
0010
1000
0001
0000
0200
0000
0310
0000
,
0001
0100
0010
1000
,
0100
1000
0001
0000
0200
0000
0301
0000
,
0001
0100
0100
0001
,
0001
0100
1000
0000
0100
0000
0010
0000
,
0001
0010
0100
0000
1000
0010
0100
0000
,
0110
0000
0000
0000
;

//---------------dance-single - ----------------
#NOTEDATA:;
#CHARTNAME:;
#STEPSTYPE:dance-single;
#DESCRIPTION:;
#CHARTSTYLE:;
#DIFFICULTY:Hard;
#METER:12;
#RADARVALUES:0.508062,0.558868,0.182135,0.134205,0.426580,371.000000,352.000000,19.000000,14.000000,0.000000,0.000000,0.000000,0.000000,0.000000,0.508062,0.558868,0.182135,0.134205,0.426580,371.000000,352.000000,19.000000,14.000000,0.000000,0.000000,0.000000,0.000000,0.000000;
#CREDIT:;
#DISPLAYBPM:128.000000;
#NOTES:
0000
0000
0000
0000
,
0000
0000
0000
0000
,
0000
0000
0000
0000
,
1000
0001
0010
0001
,
0100
0010
0200
0310
,
0010
0000
0000
1000
0000
0000
0001
0000
0000
0010
0000
0100
,
0000
0010
0000
0000
0000
0000
0000
0000
0000
0000
0000
0000
0001
0000
0000
0000
0000
0000
1000
0000
0000
0000
0010
0000
,
0000
0100
0000
0000
0000
0000
0000
0000
0000
0000
0000
0000
0010
0000
0000
0100
0000
0000
0010
0000
0000
1000
0100
0000
,
0000
0010
0000
0000
0000
0000
0001
0000
0000
0010
0000
0000
0100
0000
0000
1000
0000
0000
0001
0000
0000
0100
0010
0000
,
0000
0100
0000
0000
0000
0000
0000
0000
0000
0000
0000
0000
0010
0000
0000
0000
0000
0000
1000
0000
0000
0000
0010
0000
,
0000
1000
0000
0000
0000
0000
0000
0000
0000
0000
0000
0000
0001
0000
0000
0000
0000
0000
1000
0000
0000
0000
0010
0000
,
0000
0100
0000
0000
0000
0000
0000
0000
0000
0000
0000
0000
0001
0000
0000
0100
0000
0000
0010
0000
0000
1000
0100
0000
,
0000
0010
0000
0000
0000
0000
0001
0000
0000
0100
0000
0000
0010
0000
0000
1000
0000
0000
0010
0000
0000
0100
0000
0000
,
0001
0000
0010
0001
0000
0010
0000
0000
0000
0001
0000
0000
1000
0000
0000
0001
0000
0000
1000
0000
0000
0001
0000
0000
,
0010
0000
0001
1000
0000
0001
0000
0000
0000
0100
0000
0000
0010
0000
0000
1000
0000
0000
0001
0000
0000
1000
0000
0000
,
0010
0000
1000
0100
0000
0010
0000
0000
0000
0100
0000
0000
1000
0000
0000
0100
0000
0000
1000
0000
0000
0010
0000
0000
,
1010
0000
0000
1000
0100
0010
0001
1000
,
0001
0000
0010
0001
0000
0010
0000
0000
0000
0001
0000
0000
0010
0000
0000
0001
0000
0000
0010
0000
0000
0001
0000
0000
,
1000
0000
0010
1000
0000
0010
0000
0000
0000
0100
0000
0000
0001
0000
0000
0010
0000
0000
0001
0000
0000
0100
0000
0000
,
0010
0000
1000
0100
0000
1000
0000
0000
0000
0001
0000
0000
1000
0000
0000
0001
0000
0000
1000
0000
0000
0010
0000
0000
,
1000
0000
0100
1000
0000
0100
0000
0000
0000
0010
0000
0000
1000
0000
0000
0001
0000
0000
0100
0000
0000
0010
0000
0000
,
1000
0000
0100
0000
0000
0010
0000
0000
0001
0000
0000
1000
0000
0000
0001
0000
0000
0010
0000
0000
0100
0000
0000
0000
,
0010
0000
0001
0000
0000
0100
0000
0000
0010
0000
0000
1000
0000
0000
0100
0000
0000
0010
0000
0000
0001
0000
0000
0000
,
0100
0000
0010
0000
0000
0100
0000
0000
0001
0000
0000
0100
0000
0000
0010
0000
0000
1000
0000
0000
0001
0000
0000
0000
,
1000
0000
0100
0000
0000
0010
0000
0000
0001
0000
0000
1000
0000
0000
0100
0000
0000
0010
0000
0000
0001
0000
0000
0000
,
1000
0001
0001
0200
0000
0310
0010
2000
,
0000
3100
0100
2000
0000
3010
0010
0200
,
0000
0301
0001
0002
0000
0013
0100
2000
,
0000
3100
0010
0002
0000
1003
0000
0010
,
1000
0000
0000
0001
0100
0000
0000
0001
0100
0000
0000
0000
0101
0000
0002
0000
,
0000
0103
0010
2000
0000
3001
0000
0001
,
0010
0000
0000
0001
1000
0000
0000
0001
1000
0000
0000
0000
0110
0000
0000
0000
,
0101
1010
1100
0011
,
0011
0001
0011
0000
1010
1000
1010
0000
,
1100
0100
1100
0000
0011
0010
0011
0000
,
0100
0010
1000
0001
0010
0001
0100
0001
,
1001
0000
1100
0000
1001
0100
0101
0001
,
0010
0000
0001
0100
0000
0000
0010
0000
0000
0100
0000
0000
0001
0000
0000
0010
0000
0100
0000
0000
1000
0000
0000
0001
,
0000
0000
1000
0010
0000
0000
0100
0000
0000
0010
0000
0000
1000
0000
0000
0100
0000
0010
0000
0000
0100
0000
0000
1000
,
0000
0000
0010
1000
0000
0000
0001
0000
0000
0010
0000
0000
0010
0000
0000
0001
0000
1000
0000
0000
0100
0000
0000
1000
,
0000
0000
0001
0100
0000
0000
0010
0000
0000
0100
0000
0000
0001
0000
0000
0100
0000
0010
0000
0000
1000
0000
0000
0010
,
0000
0000
0100
0001
0000
0000
0010
0000
0000
0001
0000
0000
0010
0000
0000
0100
0000
1000
0000
0000
0010
0000
0000
0100
,
0000
0000
0001
1000
0000
0000
0100
0000
0000
0010
0000
0000
0010
0000
0000
0001
0000
1000
0000
0000
0010
0000
0000
1000
,
0000
0000
0100
0010
0000
0000
0100
0000
0000
0010
0000
0000
0100
0000
0000
0001
0000
1000
0000
0000
0010
0000
0000
0100
,
0000
0000
0001
1000
0000
0000
0100
0000
0000
0010
0000
0000
0100
0000
0000
0000
0000
0000
0100
0000
0000
0000
0000
0000
,
1000
0010
0100
1000
0002
0000
1003
0010
,
0000
0100
0001
0100
0020
0000
1030
0010
,
0000
0100
0001
0010
2000
0000
3100
0010
,
0100
0001
0010
0010
1000
0010
0010
0001
,
1000
0100
0010
0100
2000
0000
3010
0100
,
0000
0100
0001
0100
1000
0100
0001
0010
,
0000
0100
0010
0001
1000
0100
1000
0010
,
0100
0001
1000
1000
0010
0001
0001
0100
,
0010
0000
0000
0000
;

//---------------dance-double - ----------------
#NOTEDATA:;
#CHARTNAME:;
#STEPSTYPE:dance-double;
#DESCRIPTION:;
#CHARTSTYLE:;
#DIFFICULTY:Easy;
#METER:5;
#RADARVALUES:0.213632,0.254031,0.057516,0.220480,0.000000,156.000000,150.000000,6.000000,23.000000,0.000000,0.000000,0.000000,0.000000,0.000000,0.213632,0.254031,0.057516,0.220480,0.000000,156.000000,150.000000,6.000000,23.000000,0.000000,0.000000,0.000000,0.000000,0.000000;
#CREDIT:;
#DISPLAYBPM:128.000000;
#NOTES:
00000000
00000000
00000000
00000000
,
00000000
00000000
00000000
00000000
,
00000000
00000000
00000000
00000000
,
00000010
00000000
00001000
00000000
,
00000001
00000100
00000010
00000000
,
00010000
00000000
00001000
00000000
,
00100000
00000000
00010000
01000000
,
00010000
00000000
10000000
00000000
,
01000000
10000000
00010000
00100000
,
01000000
00000000
00001000
00010000
,
00000100
00000000
00001000
00000000
,
00000010
00000000
00000100
00001000
,
00000001
00000010
00000001
00000100
,
00000010
00000000
00000200
00010300
,
00001000
00000000
00020000
00031000
,
00100000
00000000
00010000
01000000
,
10000000
00100000
01000000
00100000
,
10000000
00000000
00020000
00130000
,
00001000
00000000
00020000
00030100
,
00001000
00000000
00000002
00000103
,
00000010
00000001
00001000
00000100
,
00000020
00000000
00000031
00000000
,
00000100
00000010
00001000
00000100
,
00020000
00000000
00031000
00000000
,
01000000
00100000
00010000
10000000
,
00200000
00300000
02000000
03000000
,
00020000
00000000
10030000
00000000
,
02000000
03000000
00200000
00300000
,
20000000
00000000
30010000
00000000
,
00100000
00001000
00010000
00011000
,
00001000
00000100
00000010
00000000
,
00001000
00000001
00001000
00001001
,
00000100
00000010
00000100
00000000
,
00000100
00000100
00010000
00010000
,
00001000
00001000
00100000
00100000
,
00020000
00030000
02000000
03000000
,
10000000
00100000
01000000
00100000
,
01100000
00000000
01000000
00001000
,
00020000
00000000
00031000
00010000
,
00011000
00000000
00000100
00001000
,
00000010
00000001
00001000
00000001
,
00001001
00000000
00000100
00000010
,
00000002
00000000
00000103
00000010
,
00000110
00000000
00000010
00010000
,
00001000
00010000
01000000
00100000
,
00020000
00000000
01030000
00000000
,
00200000
00000000
01300000
00000000
,
20000000
00000000
30010000
00100000
,
00001000
00010000
00000100
00000010
,
00002000
00000000
00003100
00000000
,
00000020
00000000
00000130
00000000
,
00000002
00000000
00001003
00000000
,
00000010
00001000
00000100
00010000
,
00001000
00000000
00000000
00000000
;

//---------------dance-double - ----------------
#NOTEDATA:;
#CHARTNAME:;
#STEPSTYPE:dance-double;
#DESCRIPTION:;
#CHARTSTYLE:;
#DIFFICULTY:Medium;
#METER:8;
#RADARVALUES:0.346468,0.355643,0.086275,0.124619,0.000000,253.000000,244.000000,9.000000,13.000000,0.000000,0.000000,0.000000,0.000000,0.000000,0.346468,0.355643,0.086275,0.124619,0.000000,253.000000,244.000000,9.000000,13.000000,0.000000,0.000000,0.000000,0.000000,0.000000;
#CREDIT:;
#DISPLAYBPM:128.000000;
#NOTES:
00000000
00000000
00000000
00000000
,
00000000
00000000
00000000
00000000
,
00000000
00000000
00000000
00000000
,
00001000
00001000
00000000
00000000
00000100
00000100
00000000
00000000
,
00000001
00000001
00000000
00000000
00000010
00000010
00000000
00000000
,
00000100
00010000
00001000
00100000
,
00110000
00000000
01000000
10000000
,
00010000
00100000
10000000
00010000
,
01000000
00000000
00100000
01000000
00010000
00000000
00100000
00000000
,
01000000
00000000
00001000
00010000
,
00000100
00001000
00000010
00000010
,
00000100
00000000
00000001
00000000
00000010
00000100
00001000
00000000
,
00000100
00000010
00000001
00000000
00000100
00000010
00001000
00000100
,
00010000
00001000
00010000
00000000
00000100
00000000
00001100
00000000
,
00010000
00001000
00100000
00000000
00010000
00000000
00110000
00000000
,
01000000
00010000
00100000
00000000
01000000
00000000
10000000
00000000
,
00100000
01000000
00010000
00000000
00100000
00001000
00010000
00000000
,
00001000
00000100
00000010
00000000
00000100
00000000
00000110
00000000
,
00000001
00000100
00000001
00000000
00001000
00000000
00000101
00000000
,
00001000
00000100
00001000
00000000
00000001
00000000
00011000
00000000
,
00010000
00001000
00100000
00000000
01000000
00100000
00010000
00000000
,
02000000
03100000
00020000
10030000
,
20000000
30100000
00020000
01030000
,
00001000
00010000
00001000
00000000
00020000
00000000
00030100
00000000
,
00000020
00000130
00000002
00000103
,
00000010
00001000
00000000
00000001
00000000
00000100
00000000
00000010
,
00000000
00000001
00000000
00001000
00000100
00001000
00000000
00000100
,
00000000
00010000
00000000
00001000
00000000
00100000
00000000
00010000
,
00000000
01000000
00000000
00100000
01000000
00100000
00000000
00010000
,
10000000
00000000
10000000
00000000
10000000
01000000
00100000
00010000
,
00000000
01000000
00000000
00100000
00000000
01000000
00000000
00100000
,
01000000
00001000
00010000
00001000
,
00020000
00000000
00030200
00000000
00002300
00000000
00003000
00000010
,
00000100
00000100
00000001
00000000
00001000
00001000
00000010
00000000
,
00000001
00000001
00000100
00000000
00000010
00000010
00010000
00000000
,
00001000
00010000
01000000
00100000
,
00010000
01000000
00100000
00010000
10000000
01000000
01100000
00000000
,
00010000
10000000
00010000
00000000
00000000
00100000
00001000
00000000
,
00010000
00000100
00000010
00000000
00000000
00001000
00000001
00000000
,
00000100
00000010
00001000
00000000
00000000
00000100
00000010
00000000
,
00000001
00000100
00001000
00010000
00001000
00000000
00011000
00000000
,
00001000
00010000
01000000
00000000
00000000
00100000
01000000
00000000
,
00010000
01000000
00100000
00000000
00000000
10000000
00010000
00000000
,
01000000
00100000
10000000
00000000
00000000
01000000
00100000
00000000
,
00001000
00010000
00000100
00001000
00000010
00000100
00000001
00000000
,
00000100
00000010
00001000
00000000
00000002
00000000
00001003
00000000
,
00000100
00000010
00000010
00000100
,
00000010
00000001
00000100
00000000
00000020
00000000
00001030
00000000
,
00000100
00010000
00001000
01000000
,
00100000
01000000
00010000
00000000
20000000
00000000
30010000
00000000
,
00100000
01000000
01000000
00100000
,
10000000
00010000
00100000
00000000
00001000
00000000
00010000
00000000
,
00000100
00001000
00000010
00000000
00000100
00000001
00000010
00000000
,
00000011
00000000
00000000
00000000
;

//---------------dance-double - ----------------
#NOTEDATA:;
#CHARTNAME:;
#STEPSTYPE:dance-double;
#DESCRIPTION:;
#CHARTSTYLE:;
#DIFFICULTY:Hard;
#METER:12;
#RADARVALUES:0.483412,0.482659,0.277996,0.047930,0.115033,353.000000,324.000000,29.000000,5.000000,0.000000,0.000000,0.000000,0.000000,0.000000,0.483412,0.482659,0.277996,0.047930,0.115033,353.000000,324.000000,29.000000,5.000000,0.000000,0.000000,0.000000,0.000000,0.000000;
#CREDIT:;
#DISPLAYBPM:128.000000;
#NOTES:
00000000
00000000
00000000
00000000
,
00000000
00000000
00000000
00000000
,
00000000
00000000
00000000
00000000
,
01100000
00000000
00000000
00000000
00000000
00000000
00010000
00000000
00000000
00000000
00000000
00000000
00011000
00000000
00000000
00000000
00000000
00000000
00000100
00000000
00000000
00000010
00000000
00000001
,
00000000
00000000
00000001
00000200
00000000
00000000
00000000
00000000
00000000
00000000
00000000
00000000
00000300
00000000
00000000
00000000
00000000
00000000
00001001
00000000
00000000
00000000
00000000
00000000
,
00000100
00000000
00000000
00000000
00000000
00000000
00000010
00000000
00000000
00000000
00000000
00000000
00000100
00000000
00000000
00000000
00000000
00000000
00000010
00000000
00000000
00000000
00000000
00001100
,
00000000
00000000
00000110
00000000
00000000
00000000
00000001
00000000
00000000
00000000
00000000
00000000
00001000
00000000
00000000
00000000
00000000
00000000
00000001
00000000
00000000
00000000
00000000
00001100
,
00000000
00000000
00011000
00000000
00000000
00000000
00001000
00000000
00000000
00000000
00000000
00000000
00000100
00000000
00000000
00000010
00000000
00000000
00001000
00000000
00000000
00000100
00000000
00001100
,
00000000
00000000
00000101
00000000
00000000
00000000
00000010
00000000
00000000
00000001
00000000
00000000
00000100
00000000
00000000
00001000
00000000
00000000
00010000
00000000
00000000
01000000
00000000
00000000
,
00100000
00000000
00000000
00000000
00000000
00000000
01000000
00000000
00000000
00000000
00000000
00000000
00100000
00000000
00000000
00000000
00000000
00000000
01000000
00000000
00000000
00000000
00000000
10100000
,
00000000
00000000
01100000
00000000
00000000
00000000
00010000
00000000
00000000
00000000
00000000
00000000
10000000
00000000
00000000
00000000
00000000
00000000
00010000
00000000
00000000
00000000
00000000
01010000
,
00000000
00000000
00011000
00000000
00000000
00000000
00010000
00000000
00000000
00000000
00000000
00000000
01000000
00000000
00000000
00100000
00000000
00000000
00010000
00000000
00000000
01000000
00000000
01010000
,
00000000
00000000
11000000
00000000
00000000
00000000
00100000
00000000
00000000
10000000
00000000
00000000
01000000
00000000
00000000
00010000
00000000
00000000
00001000
00000000
00000000
00000100
00000000
00000000
,
00000001
00000010
00000001
00000000
00001000
00000100
00001000
00000000
,
00000001
00000100
00000001
00000000
00000100
00001000
00010000
00000000
,
01000000
10000000
01000000
00000000
00100000
00010000
00100000
00000000
,
01000000
10000000
00100000
00010000
00001000
00000010
00000001
00000100
,
00000001
00000010
00000001
00000000
00001000
00000100
00001000
00000000
,
00000001
00000100
00000001
00000000
00000100
00001000
00010000
00000000
,
01000000
10000000
01000000
00000000
00100000
00010000
00100000
00000000
,
01000000
10000000
00100000
00010000
00001000
00000010
00000001
00000100
,
00002000
01000000
00010000
01003000
,
01100000
10100000
10000000
01000000
00200000
00000000
00310000
00000000
,
10010000
11000000
01000000
00010000
00002000
00000000
00013000
00000000
,
00011000
00010100
00010000
00001000
00000200
00000000
00000310
00000000
,
00001000
00000000
00000001
00000000
00001000
00000000
00000000
00000110
00000000
00000000
00000001
00000000
00000100
00000000
00000000
00000000
,
00000010
00000000
00001000
00000000
00000010
00000000
00000000
00000101
00000000
00000000
00001000
00000000
00000100
00000000
00000000
00000000
,
00010000
00000000
00001000
00000000
00010000
00000000
00000000
01001000
00000000
00000000
00010000
00000000
00100000
00000000
00000000
00000000
,
00010000
00000000
10000000
00000000
00010000
00000000
00000000
01100000
00000000
00000000
10000000
00000000
01000000
00000000
00100000
00000000
,
01000000
10000000
00100000
00000000
00010000
00001000
00000000
00000100
,
00000001
00000010
00001000
00000000
00000010
00000001
00000000
00000100
,
00001000
00010000
00100000
00000000
10000000
01000000
00000000
00010000
,
01000000
10000000
00100000
00000000
00010000
00001000
00000010
00000001
,
00000100
00001000
00000100
00000001
00001000
00000100
00001000
00000100
,
00010000
01000000
10000000
01000000
00100000
00010000
00100000
00010000
,
10000000
00100000
00010000
00001000
00000010
00000100
00000010
00000100
,
00001000
00000100
00000001
00000100
00010000
00001000
00010000
00000000
,
00000100
00000010
00000001
00000000
00000001
00000010
00000100
00000000
,
00010000
00001000
00000100
00000000
00000100
00001000
00010000
00000000
,
00100000
01000000
10000000
00000000
10000000
01000000
00100000
00000000
,
10000000
01000000
00100000
00010000
00001000
00000100
00000010
00000001
,
00000100
00000010
00000001
00000000
00000001
00000010
00000100
00000000
,
00000100
00001000
00010000
00000000
00010000
00001000
00000100
00000000
,
00001000
00010000
00100000
00000000
00100000
00010000
00001000
00000000
,
00011000
00000000
00000000
00010000
01000000
00000000
00000000
01000000
10000000
00000000
00000000
10000000
00100000
00000000
01100000
00000000
,
00100000
10000000
00100000
01000000
00010000
01000000
00100000
01000000
,
00000000
00010000
00100000
00001000
00010000
00001000
00000100
00001000
,
00000000
00000100
00000001
00000100
00000010
00001000
00000010
00000100
,
00000001
00000010
00000100
00001000
00010000
00100000
01000000
10000000
,
00000000
01000000
00010000
01000000
10000000
01000000
00100000
01000000
,
00000000
00100000
00001000
00010000
00001000
00000100
00000010
00000100
,
00000000
00000001
00000010
00000001
00001000
00000100
00001000
00000010
,
00000110
00000000
00000000
00000100
00001000
00000000
00000000
00001000
00010000
00000000
00000000
00010000
01000000
00000000
00100000
00000000
,
10010000
00000000
00000000
00000000
;

//---------------dance-single - ----------------
#NOTEDATA:;
#CHARTNAME:;
#STEPSTYPE:dance-single;
#DESCRIPTION:;
#CHARTSTYLE:;
#DIFFICULTY:Challenge;
#METER:14;
#RADARVALUES:0.701153,0.767485,0.728542,0.460132,0.661439,512.000000,436.000000,76.000000,48.000000,0.000000,0.000000,0.000000,0.000000,0.000000,0.701153,0.767485,0.728542,0.460132,0.661439,512.000000,436.000000,76.000000,48.000000,0.000000,0.000000,0.000000,0.000000,0.000000;
#CREDIT:;
#DISPLAYBPM:128.000000;
#NOTES:
0000
0000
0000
0000
,
0000
0000
0000
0000
,
0000
0000
0000
0000
,
0000
0000
0000
0000
,
0000
0000
0000
0000
,
0010
0000
1000
0010
0000
0000
0100
0000
0000
0100
0000
0000
0110
0000
0000
0000
0000
0000
1001
0000
0000
0000
0000
0010
,
1000
0000
0010
0100
0000
0000
0001
0000
0000
0000
0000
0000
0011
0000
0000
0000
0000
0000
1100
0000
0000
0000
0000
0001
,
0100
0000
0001
1000
0000
0000
0010
0000
0000
0000
0000
0000
1010
0000
0000
0101
0000
0000
1001
0000
0000
1000
0000
0100
,
0010
0000
0100
0010
0000
0000
0110
0000
0000
1100
0000
0000
1010
0000
0000
1001
0000
0000
0011
0000
0000
0010
0000
0001
,
1000
0000
0001
1000
0000
0000
0100
0000
0000
0100
0000
0000
0110
0000
0000
0000
0000
0000
0011
0000
0000
0000
0000
0001
,
0010
0000
0001
1000
0000
0000
0100
0000
0000
0000
0000
0000
1001
0000
0000
0000
0000
0000
1010
0000
0000
0000
0000
0010
,
0100
0000
0010
1000
0000
0000
0001
0000
0000
0000
0000
0000
0011
0000
0000
1100
0000
0000
0101
0000
0000
0001
0000
1000
,
0010
0000
1000
0100
0000
0000
0110
0000
0000
1100
0000
0000
1010
0000
0000
1001
0000
0000
0011
0000
0000
0010
0000
0100
,
1000
0000
0010
1000
0000
0010
0000
0000
0100
0001
0000
0100
0000
0000
0001
1000
0000
0000
0010
0000
0000
1001
0000
0000
,
0010
0000
0100
0010
0000
0100
0000
0000
0001
1000
0000
0001
0000
0000
1000
0100
0000
0000
0010
0000
0000
0101
0000
0000
,
0001
0000
1000
0001
0000
1000
0000
0000
0010
0100
0000
0010
0000
0000
0100
0001
0000
0000
1000
0000
0000
0011
0000
0000
,
0010
0000
0001
0010
0000
0001
0000
0000
1000
0100
0000
1000
0000
0000
0010
0100
0000
0000
0001
0000
0000
0110
0000
0000
,
0100
0000
0010
1000
0000
0001
0000
0000
0010
0001
0000
0100
0000
0000
0001
1000
0000
0000
1010
0000
0000
0110
0000
0000
,
0010
0000
1000
0001
0000
0100
0000
0000
0001
0010
0000
0100
0000
0000
1000
0001
0000
0000
1100
0000
0000
1001
0000
0000
,
0010
0000
1000
0100
0000
1000
0000
0000
0001
0010
0000
0100
0000
0000
0010
0001
0000
0000
0101
0000
0000
0011
0000
0000
,
0001
0000
0100
0010
0000
1000
0000
0000
0010
1000
0000
0001
0000
0000
0100
0010
0000
0000
1001
0000
0000
0110
0000
0000
,
1000
0000
0002
0000
0000
0010
0000
0000
0100
0000
0000
0010
0000
0000
1000
0000
0000
0100
0000
0000
1003
0001
0000
0000
,
0100
0000
0020
0000
0000
1000
0000
0000
0001
0000
0000
0100
0000
0000
0001
0000
0000
0100
0000
0000
1030
0010
0000
0000
,
1000
0000
0200
0000
0000
1000
0000
0000
0001
0000
0000
1000
0000
0000
0010
0000
0000
0001
0000
0000
0310
0100
0000
0000
,
0001
0000
2000
0000
0000
0010
0000
0000
0100
0000
0000
0001
0000
0000
0010
0000
0000
0100
0000
0000
3001
1000
0000
0000
,
1001
1100
0010
0001
1001
0101
1000
0100
,
0110
0011
1000
0010
0110
1010
0001
0100
,
0101
1100
0001
1000
1010
0011
0100
0010
,
1010
1100
0001
0010
0101
0011
0100
1000
,
0010
0000
0000
1000
0100
0000
0000
0001
0100
0000
0000
0010
1000
0000
0001
0000
,
0100
0000
0000
0001
0010
0000
0000
1000
0010
0000
0000
0100
0001
0000
1000
0000
,
0001
0000
0000
1000
0010
0000
0000
0100
0001
0000
0000
1000
0010
0000
0100
0000
,
1000
0000
0000
0100
0001
0000
0000
0010
0100
0000
0000
0010
0001
0000
1000
0000
,
0010
0000
0010
0000
1000
0000
1000
0000
0001
0000
1000
0000
1100
0000
0000
0100
,
0010
0000
0010
0000
0100
0000
0100
0000
1000
0000
0010
0000
0101
0000
0000
0001
,
0010
0000
0010
0000
0011
0000
0000
0001
1000
0000
1000
0000
1010
0000
0000
0100
,
1000
0001
1000
0001
1000
0001
1000
0001
1000
0001
1000
0001
1000
0001
1000
0001
,
0010
0000
0010
0100
0000
0000
1000
0000
0000
1000
0000
0000
0001
0000
0000
0001
0000
0100
0000
0000
0010
0000
0000
1000
,
0000
0000
1000
0100
0000
0000
0010
0000
0000
0010
0000
0000
0001
0000
0000
0001
0000
0000
0001
0000
1000
0000
0000
0100
,
1000
0000
1000
0001
0000
0000
0010
0000
0000
0010
0000
0000
0100
0000
0000
0100
0000
1000
0000
0000
0001
0000
0000
0010
,
0000
0000
0001
0100
0000
0000
0010
0000
0000
0010
0000
0000
1000
0000
0000
1000
0000
0100
0000
0000
0010
0000
0000
0001
,
0100
0000
0100
0010
0000
0000
1010
0000
0000
0001
0000
0000
0110
0000
0000
0010
0000
1000
0000
0000
0001
0000
0000
1000
,
0001
0000
0001
0010
0000
0000
0110
0000
0000
0100
0000
0000
1100
0000
0000
0010
0000
1000
0000
0000
0001
0000
0000
0100
,
0001
0000
0001
1000
0000
0000
1001
0000
0000
0010
0000
0000
0101
0000
0000
0001
0000
1000
0000
0000
0100
0000
0000
0010
,
0000
0000
0001
0100
0000
0000
0110
0000
0000
1001
0000
0000
2000
0000
0000
3200
0000
0000
0320
0000
0000
0032
0000
0000
,
0003
0101
1001
0100
0020
0230
0302
2003
,
3000
1100
0011
0010
0002
2003
3020
0230
,
0300
0110
1010
0010
2000
3200
0302
2003
,
3020
0032
2003
3200
0302
2003
3020
0032
,
0003
0011
0101
0001
2000
3002
0023
0230
,
0300
1100
0110
0010
0200
0320
0032
2003
,
3000
1001
1010
0100
2000
3020
0032
2003
,
3200
0302
2003
3002
2003
3020
0230
0302
,
0013
0000
0000
0010
0000
0000
0001
1000
0001
1000
0000
0000
0000
0000
0000
0000
0000
0000
0000
0000
0000
0000
0000
0000
;

//---------------dance-double - ----------------
#NOTEDATA:;
#CHARTNAME:;
#STEPSTYPE:dance-double;
#DESCRIPTION:;
#CHARTSTYLE:;
#DIFFICULTY:Challenge;
#METER:14;
#RADARVALUES:0.645006,0.690736,0.325926,0.575164,0.642267,471.000000,437.000000,34.000000,60.000000,0.000000,0.000000,0.000000,0.000000,0.000000,0.645006,0.690736,0.325926,0.575164,0.642267,471.000000,437.000000,34.000000,60.000000,0.000000,0.000000,0.000000,0.000000,0.000000;
#CREDIT:;
#DISPLAYBPM:128.000000;
#NOTES:
// measure 0
00000000
00000000
00000000
00000000
,  // measure 1
00000000
00000000
00000000
00000000
,  // measure 2
00000000
00000000
00000000
00000000
,  // measure 3
00000000
00000000
00000000
00000000
,  // measure 4
00000000
00000000
00000000
00000000
,  // measure 5
00000010
00000000
00000001
00000100
00000000
00000000
00001000
00000000
00000000
00000001
00000000
00000000
00001100
00000000
00000000
00000000
00000000
00000000
00110000
00000000
00000000
00000000
00000000
00011000
,  // measure 6
00000000
00000000
00001000
01000000
00000000
00000000
00100000
00000000
00000000
10000000
00000000
00000000
10100000
00000000
00000000
00000000
00000000
00000000
01001000
00000000
00000000
00000000
00000000
00011000
,  // measure 7
00000000
00000000
00010000
00000010
00000000
00000000
00001000
00000000
00000000
00000100
00000000
00000000
00000011
00000000
00000000
00000101
00000000
00000000
00001001
00000000
00000000
00100000
00000000
00001000
,  // measure 8
00000000
00000000
00010000
00000001
00000000
00000000
00000100
00000000
00000000
00000100
00000000
00000000
00000110
00000000
00000000
00010010
00000000
00000000
00011000
00000000
00000000
00001000
00000000
01000000
,  // measure 9
00000000
00000000
00100000
10000000
00000000
00000000
00010000
00000000
00000000
01000000
00000000
00000000
01100000
00000000
00000000
00000000
00000000
00000000
10010000
00000000
00000000
00000000
00000000
00001000
,  // measure 10
01000000
00000000
00001000
00010000
00000000
00000000
00000100
00000000
00000000
00001000
00000000
00000000
00001001
00000000
00000000
00000000
00000000
00000000
00010010
00000000
00000000
00000000
00000000
00000100
,  // measure 11
00001000
00000000
00000001
00000100
00000000
00000000
00000010
00000000
00000000
00010000
00000000
00000000
00011000
00000000
00000000
01001000
00000000
00000000
10010000
00000000
00000000
00100000
00000000
01000000
,  // measure 12
00000000
00000000
00010000
10000000
00000000
00000000
01000000
00000000
00000000
01000000
00000000
00000000
00110000
00000000
00000000
00011000
00000000
00000000
00001100
00000000
00000000
00000010
00000000
00000100
,  // measure 13
00000010
00000000
00001000
00000000
00000000
00001000
00000001
00000000
00000000
00000001
00010000
00000000
00000000
00010000
00000000
00000100
00000000
00000000
02000000
00000000
00000000
03200000
00000000
00000000
,  // measure 14
10300000
00000000
00100000
00000000
00000000
00100000
01000000
00000000
00000000
01000000
00000000
00010000
00000000
00000000
00010000
00100000
00000000
00000000
00002000
00000000
00000000
00023000
00000000
00000000
,  // measure 15
00030010
00000000
00010000
00000000
00000000
00010000
00001000
00000000
00000000
00001000
00000000
00100000
00000000
00000000
00100000
01000000
00000000
00000000
20000000
00000000
00000000
30020000
00000000
00000000
,  // measure 16
01030000
00000000
00001000
00000000
00000000
00001000
00000100
00000000
00000000
00000100
00000000
00000001
00000000
00000000
00000001
00001000
00000000
00000000
00000020
00000000
00000000
00000230
00000000
00000000
,  // measure 17
00000301
00000000
00001000
00000000
00000000
00001000
00000010
00000000
00000000
00000010
00100000
00000000
00000000
00100000
00000000
00010000
00000000
00000000
02000000
00000000
00000000
03002000
00000000
00000000
,  // measure 18
10003000
00000000
00100000
00000000
00000000
00100000
01000000
00000000
00000000
01000000
00000000
00000100
00000000
00000000
00000100
00010000
00000000
00000000
00002000
00000000
00000000
00203000
00000000
00000000
,  // measure 19
00310000
00000000
10000000
00000000
00000000
10000000
00100000
00000000
00000000
00100000
00000000
01000000
00000000
00000000
01000000
00010000
00000000
00000000
20000000
00000000
00000000
30200000
00000000
00000000
,  // measure 20
00301000
00000000
00100000
00000000
00000000
00100000
01000000
00000000
00000000
01000000
00000000
00010000
00000000
00000000
00010000
00100000
00000000
00000000
00000020
00000000
00000000
00002030
00000000
00000000
,  // measure 21
00003100
00000000
00001000
00000001
00000000
00000100
00000000
00000000
00000010
00000000
00000000
00001000
00000000
00000000
00000100
00000000
00000000
00000010
00000000
00000000
00000001
00001000
00000000
00000000
,  // measure 22
00000100
00000000
00010000
00001000
00000000
00100000
00000000
00000000
00001000
00000000
00000000
01000000
00000000
00000000
00100000
00000000
00000000
10000000
00000000
00000000
01000000
00100000
00000000
00000000
,  // measure 23
00010000
00000000
10000000
00100000
00000000
01000000
00000000
00000000
00001000
00000000
00000000
00010000
00000000
00000000
00000100
00000000
00000000
00000010
00000000
00000000
00000001
00001000
00000000
00000000
,  // measure 24
00000010
00000000
00001000
00000001
00000000
00000010
00000000
00000000
00000100
00000000
00000000
00010000
00000000
00000000
00001000
00000000
00000000
01000000
00000000
00000000
00010000
00100000
00000000
00000000
,  // measure 25
01010000
01000000
00100000
10100000
10000000
01000000
00100000
00101000
,  // measure 26
00001000
01000000
00100000
01100000
01000000
00001000
00010000
00010010
,  // measure 27
00000010
00001000
00000100
00011000
00010000
00000010
00000100
00001010
,  // measure 28
00001000
00000100
00000010
00000011
00000001
00001000
00000100
00010000
,  // measure 29
00010100
00000000
00000000
00010000
00001000
00000000
00000000
00001000
10000000
00000000
00000000
00100000
01000000
00000000
00010000
00000000
,  // measure 30
00110000
00000000
00000000
00100000
00001000
00000000
00000000
00001000
01000000
00000000
00000000
01000000
00100000
00000000
10000000
00000000
,  // measure 31
10010000
00000000
00000000
10000000
00010000
00000000
00000000
00010000
01000000
00000000
00000000
01000000
00001000
00000000
00010000
00000000
,  // measure 32
00010100
00000000
00000000
00000100
00000010
00000000
00000000
00000010
00000001
00000000
00000000
00000001
00010000
00000000
00000100
00000000
,  // measure 33
00001000
00000010
00000100
00000001
00000010
00001000
00000010
00000100
,  // measure 34
00000010
00010000
00100000
10000000
00010000
01000000
00001000
00010000
,  // measure 35
01000000
00100000
00001000
01000000
00100000
00010000
00100000
10000000
,  // measure 36
00001000
00010000
00001000
00010000
00001000
00010000
00001000
00010000
00001000
00010000
00001000
00010000
00001000
00010000
00001000
00010000
,  // measure 37
00000100
00000000
00000100
00001000
00000000
00000000
00000010
00000000
00000000
00000100
00000000
00000000
00000001
00000000
00000010
00000001
00000000
00001000
00000000
00000000
00000100
00000000
00000000
00010000
,  // measure 38
00000000
00000000
00001000
01000000
00000000
00000000
00100000
00000000
00000000
01000000
00000000
00000000
00001000
00000000
00010000
00001000
00000000
00100000
00000000
00000000
01000000
00000000
00000000
10000000
,  // measure 39
00010000
00000000
00010000
01000000
00000000
00000000
00001000
00000000
00000000
00100000
00000000
00000000
00000010
00000000
00000100
00000010
00000000
00001000
00000000
00000000
00000001
00000000
00000000
00000010
,  // measure 40
00000000
00000000
00000001
00010000
00000000
00000000
00000010
00000000
00000000
00000100
00000000
00000000
00000010
00000000
00001000
00000001
00000000
00000010
00000000
00000000
00000100
00000000
00000000
01000000
,  // measure 41
00001000
00000000
00001000
00100000
00000000
00000000
00010000
00000000
00000000
10000000
00000000
00000000
00100000
00000000
10000000
01000000
00000000
00010000
00000000
00000000
00001000
00000000
00000000
01000000
,  // measure 42
00000000
00000000
00100000
01000000
00000000
00000000
00001000
00000000
00000000
00010000
00000000
00000000
00000001
00000000
00001000
00000100
00000000
00000010
00000000
00000000
00000001
00000000
00000000
00000100
,  // measure 43
00000010
00000000
00000010
00010000
00000000
00000000
00000100
00000000
00000000
00000010
00000000
00000000
00000100
00000000
00001000
00000001
00000000
00000010
00000000
00000000
00000001
00000000
00000000
00010000
,  // measure 44
00000000
00000000
00001000
00100000
00000000
00000000
01000000
00000000
00000000
10000000
00000000
00000000
00200000
00000000
00000000
02300000
00000000
00000000
03002000
00000000
00000000
00023000
00000000
00000000
,  // measure 45
00000000
00000100
00030100
00010000
00002000
02003000
03200000
20300000
,  // measure 46
00000000
00010000
30010000
10000000
02000000
03200000
00302000
00023000
,  // measure 47
00000000
00000010
00030010
00000100
00000002
00000023
00002030
00003002
,  // measure 48
00000203
00002300
00023000
00230000
20300000
30020000
02030000
23000000
,  // measure 49
00000000
00001000
30001000
01000000
00200000
02300000
03020000
20030000
,  // measure 50
00000000
00100000
30100000
01000000
00002000
00023000
00030020
00000230
,  // measure 51
00000000
00000001
00000301
00001000
00000002
00000023
00000230
00002300
,  // measure 52
00003020
00020030
00030200
00000320
00000032
00002003
00003200
02000300
,  // measure 53
03100000
00000000
00000000
00100000
00000000
00000000
10000000
00010000
10000000
00010000
00000000
00000000
00000000
00000000
00000000
00000000
00000000
00000000
00000000
00000000
00000000
00000000
00000000
00000000
;
