#VERSION:0.83;
#TITLE:So into you;
#SUBTITLE:;
#ARTIST:braven ft. renko;
#TITLETRANSLIT:;
#SUBTITLETRANSLIT:;
#ARTISTTRANSLIT:;
#GENRE:;
#ORIGIN:;
#CREDIT:;
#BANNER:So into you-bn.png;
#BACKGROUND:So into you-bg.png;
#PREVIEWVID:;
#JACKET:So into you-jacket.png;
#CDIMAGE:;
#DISCIMAGE:;
#LYRICSPATH:;
#CDTITLE:;
#MUSIC:So into you.ogg;
#OFFSET:0.000000;
#SAMPLESTART:41.143002;
#SAMPLELENGTH:20.000000;
#SELECTABLE:YES;
#DISPLAYBPM:140.000000;
#BPMS:0.000=140.000;
#STOPS:;
#DELAYS:;
#WARPS:;
#TIMESIGNATURES:0.000=4=4;
#TICKCOUNTS:0.000=4;
#COMBOS:0.000=1;
#SPEEDS:0.000=1.000=0.000=0;
#SCROLLS:0.000=1.000;
#FAKES:;
#LABELS:0.000=Song Start;
#BGCHANGES:;
#KEYSOUNDS:;
#ATTACKS:
;

//---------------dance-single - ----------------
#NOTEDATA:;
#CHARTNAME:;
#STEPSTYPE:dance-single;
#DESCRIPTION:;
#CHARTSTYLE:;
#DIFFICULTY:Hard;
#METER:13;
#RADARVALUES:0.631474,0.603687,0.925878,0.306137,0.309870,592.000000,468.000000,124.000000,41.000000,0.000000,0.000000,0.000000,0.000000,0.000000,0.631474,0.603687,0.925878,0.306137,0.309870,592.000000,468.000000,124.000000,41.000000,0.000000,0.000000,0.000000,0.000000,0.000000;
#CREDIT:;
#DISPLAYBPM:140.000000;
#NOTES:
0000
0000
0000
0000
,
0000
0000
0000
0000
,
0202
0000
0000
0303
,
2020
0000
0000
3030
,
1001
0000
0010
0100
0110
0000
0001
1000
,
1100
0000
1000
0100
0012
0000
0103
0000
,
0020
0000
1030
0001
0200
0000
0301
0000
,
1000
0100
0010
0001
0100
0010
1000
0000
0000
0110
0000
0000
,
0101
0000
0000
0000
0010
0000
1000
0100
0000
1000
0100
0000
0010
0000
0001
0000
,
0011
0000
0000
0000
1000
0000
0001
0100
0000
0001
0100
0000
0010
0000
1000
0000
,
1100
0000
0000
0000
0001
0000
1000
0010
0000
1000
0010
0000
0100
0000
0001
0000
,
0101
0000
0000
0000
1000
0000
0010
0100
0000
0010
0100
0000
0001
0000
1000
0000
,
1001
0000
0000
0000
0100
0000
1000
0010
0000
1000
0100
0000
0010
0000
0001
0000
,
0011
0000
0000
0000
0010
0000
0001
1000
0000
0001
0010
0000
0100
0000
1000
0000
,
1100
0000
0000
0000
0010
0000
0100
0001
0000
0100
0010
0000
1000
0000
0001
0000
,
0110
0000
0000
0000
0010
0000
0001
1000
0000
0001
0010
0000
0100
0000
1000
0000
,
2020
0000
0000
0000
3030
0000
1000
0001
1000
0000
0010
0000
0100
0000
0001
0000
,
0022
0000
0030
1000
1000
0000
0103
0000
,
0220
0000
0000
0000
0330
0000
0000
0000
1000
0000
0000
0001
0100
0000
0000
0010
,
1000
0000
0000
0001
0010
0000
0000
0001
0100
0000
0010
0000
1000
0000
0001
0000
,
2200
0000
0000
0000
3300
0000
0001
0100
0001
0000
0010
0000
0100
0000
1000
0000
,
2001
0010
0100
3010
,
0102
0000
0000
0000
0013
0000
0000
0000
0001
0000
0000
0001
1000
0000
0000
1000
,
0001
0000
0000
0100
0010
0000
0000
1000
0100
0000
0010
0000
1001
0000
0000
0000
,
1100
0000
0010
0001
0101
0000
1000
0100
,
0011
0000
1000
0001
1010
0000
0100
0010
,
0001
1000
0010
1000
0100
0010
0001
0200
,
1000
0301
0011
0110
,
1100
0000
0010
0100
1001
0000
0001
1000
,
0100
0001
0100
1000
0002
0000
0013
0100
,
0210
0000
0320
0000
0031
0100
1000
0000
,
0001
0010
0100
1000
0010
0100
0001
0000
0000
1010
0000
0000
,
1100
0000
0000
0000
0101
0000
0000
0000
1100
0000
0001
0010
0000
0100
1000
0000
,
1001
0000
0000
0000
0110
0000
0000
0000
1001
0000
0010
0100
0001
0000
0000
0000
,
0011
0000
0000
0000
1100
0000
0000
0000
0011
0000
1000
0001
0000
0100
0010
0000
,
1010
1100
0011
0101
,
0011
0000
0000
0000
1010
0000
0000
0000
0011
0000
0100
0010
0000
1000
0001
0000
,
1001
0000
0000
0000
0110
0000
0000
0000
1001
0000
1000
0001
0010
0000
0000
0000
,
0101
0000
0000
0000
1010
0000
0000
0000
0101
0000
0001
0100
0000
0010
1000
0000
,
1100
0011
0101
1010
,
0001
0000
0010
0000
0100
0000
1000
0000
0010
0000
0100
0001
0000
1000
0100
0000
,
1000
0000
0010
0000
0100
0000
0001
0000
0010
0000
0100
1000
0002
0000
0000
0000
,
0013
0000
0100
0000
1000
0000
0010
0000
0100
0000
0001
0010
0000
0100
1000
0000
,
1100
0101
0011
1010
,
0102
0000
0000
0000
1000
0000
0000
0010
0000
0000
0203
0000
0000
0000
0301
0000
,
2001
0000
0000
0000
0010
0000
0000
0100
0000
0000
3002
0000
0000
0000
1003
0000
,
2100
0000
0000
0000
3002
0000
0000
0000
1003
0000
0000
0010
1000
0000
0000
0100
,
0010
0000
0000
0001
0100
0000
0000
0001
1000
0000
0010
0000
0100
0000
0001
0000
,
0012
0000
0000
0000
0010
0000
0000
0100
0000
0000
2003
0000
0000
0000
3001
0000
,
0200
0000
0000
0000
0310
0000
2000
0000
0000
0000
3001
0010
0001
0000
0000
1000
,
0002
0000
0000
0000
0013
0000
0100
0000
1000
0000
0000
0001
1000
0000
0000
0010
,
0100
0000
0000
0100
0010
0000
0000
0010
1000
0000
0001
0000
0110
0000
0000
0000
,
1001
0000
0010
1000
1010
0000
0100
0001
,
0011
0000
1000
0001
1010
0000
0010
0100
,
0001
0010
0100
0010
0001
0100
0010
2000
,
0010
3001
1000
0101
,
0110
0000
0001
0010
1100
0000
1000
0100
,
0001
0010
0001
0100
1000
0000
0010
0100
,
0001
0010
0100
1000
0010
0100
0001
1000
,
1100
0110
0011
1001
,
1010
0000
0000
0000
0101
0000
0000
0000
0011
0000
0010
0100
0000
1000
0001
0000
,
0011
0000
0000
0000
1001
0000
0000
0000
0110
0000
0010
1000
0100
0000
0000
0000
,
0011
0000
0000
0000
1100
0000
0000
0000
0101
0000
0001
1000
0000
0010
0100
0000
,
1001
1100
0101
0011
,
0110
0000
0000
0000
1100
0000
0000
0000
1001
0000
0001
1000
0000
0100
0010
0000
,
1100
0000
0000
0000
0110
0000
0000
0000
0011
0000
0010
0001
0100
0000
0000
0000
,
1001
0000
0000
0000
0011
0000
0000
0000
0101
0000
1000
0010
0000
0100
0001
0000
,
1001
1100
0110
0011
,
2020
0000
0000
0000
3030
0000
0000
0000
0010
0000
1000
0001
0000
0010
0100
0000
,
0022
0000
0000
0000
0033
0000
0000
0000
0100
0000
0001
1000
0000
0001
0010
0000
,
2200
0000
0000
0000
3300
0000
0000
0000
0010
0000
1000
0001
0000
1000
0010
0000
,
0110
0000
0001
0010
0001
0100
0010
1000
,
1100
0000
0000
0000
0101
0000
0000
0000
0110
0000
0001
0010
0000
0100
1000
0000
,
1001
0000
0000
0000
0011
0000
0000
0000
0110
0000
1000
0001
0100
0000
0000
0000
,
0101
0000
0000
0000
1010
0000
0000
0000
1100
0000
0001
0100
0000
0010
1000
0000
,
1001
0011
0110
1100
,
0102
0100
0000
0010
0000
1003
0000
1001
,
0110
0000
0000
0000
;

//---------------dance-single - ----------------
#NOTEDATA:;
#CHARTNAME:;
#STEPSTYPE:dance-single;
#DESCRIPTION:;
#CHARTSTYLE:;
#DIFFICULTY:Medium;
#METER:10;
#RADARVALUES:0.515206,0.546193,1.090146,0.358404,0.026134,483.000000,337.000000,146.000000,48.000000,0.000000,0.000000,0.000000,0.000000,0.000000,0.515206,0.546193,1.090146,0.358404,0.026134,483.000000,337.000000,146.000000,48.000000,0.000000,0.000000,0.000000,0.000000,0.000000;
#CREDIT:;
#DISPLAYBPM:140.000000;
#NOTES:
0000
0000
0000
0000
,
0000
0000
0000
0000
,
2200
0000
0000
3300
,
0022
0000
0000
0033
,
1001
0100
1010
0001
,
0011
0100
1010
0001
,
1000
0001
0010
0100
,
1100
0101
0011
1010
,
0110
0000
0000
0000
0001
0000
0000
0010
0000
0000
0100
0000
0000
0000
1000
0000
,
1100
0000
0000
0000
0010
0000
0000
0100
0000
0000
0001
0000
0000
0000
1000
0000
,
1010
0000
0000
0000
0001
0000
0000
1000
0000
0000
0100
0000
0000
0000
0010
0000
,
0011
0000
0000
0000
0100
0000
0000
0010
0000
0000
1000
0000
0000
0000
0001
0000
,
1001
0000
0000
0000
1000
0000
0000
0010
0000
0000
0100
0000
0000
0000
0001
0000
,
0101
0000
0000
0000
1000
0000
0000
0001
0000
0000
0100
0000
0000
0000
0010
0000
,
0110
0000
0000
0000
0100
0000
0000
0001
0000
0000
1000
0000
0000
0000
0010
0000
,
1010
1001
0110
0101
,
2200
0000
3300
0000
1000
0010
0100
0001
,
0022
0030
1000
0013
,
2002
3003
2000
3020
,
0230
0000
0302
0000
0013
0100
1000
0001
,
0202
0000
0303
0000
0010
0001
1000
0100
,
0220
0000
0000
0330
,
2200
3300
0020
0230
,
0302
0000
2003
0000
3100
0010
1001
0000
,
0011
1000
1100
0010
,
1001
0100
0101
0001
,
0011
0000
1010
0000
0001
0100
0010
2000
,
0000
0001
0010
3100
,
1100
0010
0110
0100
,
1010
0001
0101
1000
,
0010
0100
0010
1000
0002
0000
0013
0100
,
2000
0001
0100
3010
,
1100
0000
0011
0000
1100
0000
0010
0100
,
0110
0000
1001
0000
0110
1000
0100
0000
,
1010
0000
0101
0000
1010
0000
0001
0010
,
0110
1100
0101
1001
,
0011
0000
1010
0000
0011
0000
1000
0001
,
1001
0000
0110
0000
1001
0010
0100
0000
,
0101
0000
1100
0000
0101
0000
0010
1000
,
1100
0011
1001
0110
,
1100
0000
0110
0000
0011
0000
0100
0010
,
1010
0000
1001
0000
0101
1000
0001
0000
,
0011
0000
0101
0000
1001
0000
0001
1000
,
1100
0110
0011
0101
,
2020
0000
3030
0001
1000
0010
0100
0001
,
2000
0100
0010
3001
,
0022
0033
2000
3002
,
0023
0000
0230
0000
0310
0100
1000
0001
,
2002
0000
3003
0000
0001
0010
0100
1000
,
0002
0100
0010
1003
,
2200
3300
0002
2003
,
3020
0000
0230
0000
0301
0010
0110
0000
,
1001
0010
1100
0001
,
0110
1000
0101
0100
,
0011
0000
1100
0000
0010
1000
0001
0200
,
0000
1000
0001
0310
,
0110
0001
1010
0100
,
1001
0010
0101
1000
,
0001
1000
0010
0200
0000
0310
1000
0002
,
0010
0010
0103
0110
,
0101
0000
1100
0000
0101
0000
0010
1000
,
0110
0000
1001
0000
0110
0001
0100
0000
,
1010
0000
0011
0000
1010
0000
0100
0010
,
0011
1100
0101
1010
,
1100
0000
0011
0000
1100
0000
0001
0100
,
0110
0000
1001
0000
0110
1000
0010
0000
,
1010
0000
0011
0000
1010
0000
0100
0010
,
1010
1100
0110
0011
,
1100
0000
0110
0000
0011
0000
1000
0001
,
1001
0000
0110
0000
1010
0001
0010
0000
,
1100
0000
0011
0000
0101
0000
0010
0100
,
0110
0101
1100
0011
,
1001
0000
0110
0000
1001
1000
0100
0010
,
0011
0000
0110
0000
1100
0001
0010
0000
,
0101
0000
1010
0000
0110
0010
1000
0100
,
0110
0011
1100
0101
,
1000
0001
0000
0010
0000
0100
0000
0010
,
1001
0000
0000
0000
;

//---------------dance-single - ----------------
#NOTEDATA:;
#CHARTNAME:;
#STEPSTYPE:dance-single;
#DESCRIPTION:;
#CHARTSTYLE:;
#DIFFICULTY:Easy;
#METER:7;
#RADARVALUES:0.438405,0.517446,0.970678,0.141868,0.000000,411.000000,281.000000,130.000000,19.000000,0.000000,0.000000,0.000000,0.000000,0.000000,0.438405,0.517446,0.970678,0.141868,0.000000,411.000000,281.000000,130.000000,19.000000,0.000000,0.000000,0.000000,0.000000,0.000000;
#CREDIT:;
#DISPLAYBPM:140.000000;
#NOTES:
0000
0000
0000
0000
,
0000
0000
0000
0000
,
0220
0000
0000
0330
,
2002
0000
0000
3003
,
0001
0001
1000
1000
,
0010
0100
0002
0003
,
0020
0000
0000
0030
,
0001
1000
0001
1000
,
1010
0100
0010
0001
,
0101
1000
0010
0100
,
0110
0010
1000
0001
,
0011
1000
0100
0010
,
0110
1000
0001
0100
,
1010
0010
1000
0100
,
1001
0010
0100
0010
,
0101
1000
0001
0010
,
2200
0300
0001
3010
,
0202
0000
0000
0303
,
0220
0330
0001
0001
,
1000
1000
0010
0100
,
2020
3000
0100
1030
,
0202
0000
0000
0303
,
2002
3003
0010
0010
,
0100
0001
1000
1100
,
0001
0001
1000
1000
,
0010
0010
0100
0100
,
0001
0010
0100
1000
,
0001
0100
0110
1001
,
0010
1000
0100
0001
,
0010
0100
0010
0001
,
0100
1000
0001
0010
,
0110
1001
0110
1001
,
1100
1100
1100
0001
,
0011
0011
0011
0100
,
0110
0110
0110
0001
,
0011
1100
0011
1100
,
1001
1001
1001
0010
,
0110
0110
0110
1000
,
1100
1100
1100
0010
,
1010
0101
1010
0101
,
1010
1010
1010
0001
,
0011
0011
0011
0100
,
0101
0101
0101
0010
,
1100
0011
0101
1010
,
0110
0010
1000
0001
,
0011
1000
0100
0010
,
1001
0001
0100
1000
,
0010
0010
0100
0100
,
0110
0001
0010
1000
,
1100
0010
0100
0001
,
0011
0100
1000
0001
,
0100
0010
0100
1001
,
0001
0001
0010
0010
,
0100
0100
1000
1000
,
0010
1000
0100
0001
,
0010
0100
1100
0101
,
0001
0010
1000
0100
,
0010
0001
0100
1000
,
0010
0100
0010
1000
,
1100
0011
1100
0011
,
1001
1001
1001
0010
,
1100
1100
1100
0001
,
0011
0011
0011
0100
,
1100
0011
0101
1010
,
0101
0101
0101
1000
,
0110
0110
0110
0001
,
1001
1001
1001
1000
,
1100
0110
0011
0101
,
1100
1100
1100
0100
,
0011
0011
0011
1000
,
0110
0110
0110
0001
,
0011
0110
1100
0101
,
1001
1001
1001
0110
,
1010
1010
1010
1100
,
0011
0011
0011
0101
,
1001
0110
1001
0110
,
2000
0010
0100
3001
,
0100
0000
0000
0000
;

//---------------dance-single - ----------------
#NOTEDATA:;
#CHARTNAME:;
#STEPSTYPE:dance-single;
#DESCRIPTION:;
#CHARTSTYLE:;
#DIFFICULTY:Beginner;
#METER:5;
#RADARVALUES:0.205869,0.287470,0.433072,0.000000,0.000000,193.000000,135.000000,58.000000,0.000000,0.000000,0.000000,0.000000,0.000000,0.000000,0.205869,0.287470,0.433072,0.000000,0.000000,193.000000,135.000000,58.000000,0.000000,0.000000,0.000000,0.000000,0.000000,0.000000;
#CREDIT:;
#DISPLAYBPM:140.000000;
#NOTES:
// measure 0
0000
0000
0000
0000
,  // measure 1
0000
0000
0000
0000
,  // measure 2
1001
0000
0000
0000
,  // measure 3
0110
0000
0000
0000
,  // measure 4
0001
0000
0001
0000
,  // measure 5
1000
0000
1000
0000
,  // measure 6
0010
0000
0000
0000
,  // measure 7
0110
0000
1001
0000
,  // measure 8
1001
0000
0001
0000
,  // measure 9
0110
0000
1000
0000
,  // measure 10
1001
0000
0010
0000
,  // measure 11
0110
0000
0100
0000
,  // measure 12
0110
0000
0001
0000
,  // measure 13
1001
0000
0010
0000
,  // measure 14
0110
0000
0100
0000
,  // measure 15
1001
0000
1000
0000
,  // measure 16
1001
0000
0000
0000
,  // measure 17
0010
0000
0000
0000
,  // measure 18
0100
0000
0000
0000
,  // measure 19
0001
0000
1000
0000
,  // measure 20
0110
0000
0000
0000
,  // measure 21
0010
0000
0000
0000
,  // measure 22
0100
0000
0000
0000
,  // measure 23
0001
0000
1000
0000
,  // measure 24
0100
0000
0100
0000
,  // measure 25
0010
0000
0010
0000
,  // measure 26
0001
0000
0100
0000
,  // measure 27
1000
0000
1001
0000
,  // measure 28
0010
0000
1000
0000
,  // measure 29
0100
0000
0001
0000
,  // measure 30
1000
0000
0001
0000
,  // measure 31
0100
0000
0110
0000
,  // measure 32
1001
0000
0010
0000
,  // measure 33
1001
0000
0100
0000
,  // measure 34
0110
0000
0001
0000
,  // measure 35
0110
0000
1000
0000
,  // measure 36
1001
0000
1000
0000
,  // measure 37
1001
0000
0010
0000
,  // measure 38
0110
0000
0100
0000
,  // measure 39
0110
0000
0001
0000
,  // measure 40
1001
0000
0010
0000
,  // measure 41
0110
0000
0100
0000
,  // measure 42
0110
0000
0001
0000
,  // measure 43
1001
0000
1000
0000
,  // measure 44
1001
0000
0000
0000
,  // measure 45
0100
0000
0000
0000
,  // measure 46
0010
0000
0000
0000
,  // measure 47
0001
0000
1000
0000
,  // measure 48
0110
0000
0000
0000
,  // measure 49
0001
0000
0000
0000
,  // measure 50
0010
0000
0000
0000
,  // measure 51
0100
0000
1000
0000
,  // measure 52
0010
0000
0010
0000
,  // measure 53
0100
0000
0100
0000
,  // measure 54
0001
0000
1000
0000
,  // measure 55
0100
0000
0110
0000
,  // measure 56
0010
0000
0010
0000
,  // measure 57
0100
0000
0100
0000
,  // measure 58
1000
0000
0001
0000
,  // measure 59
0010
0000
1001
0000
,  // measure 60
1001
0000
0010
0000
,  // measure 61
1001
0000
0100
0000
,  // measure 62
1001
0000
0001
0000
,  // measure 63
1001
0000
1000
0000
,  // measure 64
0110
0000
0010
0000
,  // measure 65
0110
0000
1000
0000
,  // measure 66
0110
0000
0001
0000
,  // measure 67
0110
0000
0100
0000
,  // measure 68
1001
0000
1001
0000
,  // measure 69
0110
0000
0110
0000
,  // measure 70
1001
0000
1001
0000
,  // measure 71
0110
0000
0110
0000
,  // measure 72
1001
0000
0110
0000
,  // measure 73
1001
0000
0110
0000
,  // measure 74
1001
0000
0110
0000
,  // measure 75
1001
0000
0110
0000
,  // measure 76
0110
0000
0000
0000
,  // measure 77
1001
0000
0000
0000
;
