#TITLE:So Sick;
#SUBTITLE:;
#ARTIST:Ne-Yo;
#TITLETRANSLIT:;
#SUBTITLETRANSLIT:;
#ARTISTTRANSLIT:;
#GENRE:;
#CREDIT:;
#BANNER:So Sick-bn.png;
#BACKGROUND:So Sick-bg.png;
#LYRICSPATH:;
#CDTITLE:;
#MUSIC:So Sick.ogg;
#OFFSET:0.000000;
#SAMPLESTART:60.000000;
#SAMPLELENGTH:20.000000;
#SELECTABLE:YES;
#DISPLAYBPM:95.000000;
#BPMS:0.000000=95.000000
;
#STOPS:
;
#BGCHANGES:;
#KEYSOUNDS:;
#ATTACKS:;

//---------------dance-single - ----------------
#NOTES:
     dance-single:
     :
     Hard:
     11:
     0.406218,0.434670,0.095314,0.127085,0.436855,358.000000,346.000000,12.000000,16.000000,0.000000,0.000000,0.406218,0.434670,0.095314,0.127085,0.436855,358.000000,346.000000,12.000000,16.000000,0.000000,0.000000:
0000
0000
0000
0000
,
0000
0000
0000
0000
,
0000
0000
0000
0000
,
0000
0000
0000
0000
0000
0000
1000
0001
,
0010
0000
0000
0001
0000
1000
0000
0000
0020
0000
0000
0230
0000
0000
0302
0000
,
1000
0000
0000
0010
0000
0000
1003
0000
0001
0000
0000
0100
0000
0000
0001
0000
,
0000
1000
0100
0000
1000
0100
0000
1000
0001
0000
0100
0001
0000
0100
0001
0000
,
0000
0010
0001
0000
0010
0001
0000
1000
0010
0000
1000
0100
1000
0000
0001
0000
,
0100
0000
0001
1000
0000
0001
1000
0000
0010
0000
0000
0000
0110
0000
0000
0000
,
0001
0000
1000
0100
0000
1000
0100
0000
0010
0000
0000
0001
1000
0000
0010
0000
,
0100
0001
0010
0100
1000
0000
1001
0000
,
0010
0000
1000
0001
0000
1000
0001
0000
0100
0000
0000
0010
1000
0000
0100
0000
,
1000
0000
0010
0000
1000
0000
0001
0000
0010
0000
0000
0000
0011
0000
0000
0001
,
0100
0000
0010
1000
0000
0010
1000
0000
0100
0000
0000
0000
1100
0000
0001
0100
,
0001
0000
1000
0010
0000
0010
0100
0000
0001
0000
1000
0000
0100
0000
0000
1000
,
0010
0100
0010
0000
1000
0001
0000
1000
0001
0000
0100
0010
0000
0100
0001
0000
,
1000
0000
0010
0100
0000
0100
0002
0000
0000
0000
0000
0000
0013
0000
0001
0000
,
0101
0000
0001
1000
1010
0010
1000
0001
,
0100
0000
0001
1000
0000
1000
0020
0000
0000
0000
0000
0000
0130
0001
0000
0010
,
0002
0000
0000
0000
0103
0000
0010
0000
1000
0000
0000
0001
1000
0000
0100
0000
,
0010
0000
0001
0100
0000
0010
2000
0000
0000
0000
0000
0000
3100
0000
1000
0000
,
0010
0100
0001
1000
0001
1000
0100
0000
,
0010
0000
0001
0000
0100
0010
0000
0000
1000
0000
0001
0000
0100
0000
0000
0000
,
0010
0000
1000
0100
0000
1000
0200
0000
0000
0000
0000
0000
0310
0000
0010
0000
,
0001
0000
0000
0100
0000
0010
1000
0000
0100
0000
0000
0010
0001
0000
0000
0000
,
0100
0000
0000
0001
0000
1000
0001
0000
0100
0000
0000
0010
1000
0000
0000
0000
,
0001
0000
0000
0010
0000
0001
1000
0000
0010
0000
0000
1000
0100
0000
0000
0000
,
1000
0000
0000
0001
0000
0010
0001
0000
1000
0000
0000
0000
0100
0000
0100
0000
,
1000
0000
0000
0100
0000
0010
0001
0000
0100
0000
0000
0001
1000
0000
0000
0000
,
0001
0000
0000
1000
0000
0100
1000
0000
0010
0000
0000
0100
0001
0000
0000
0010
,
0001
0000
0001
0000
0001
0000
1000
0010
0000
0000
1000
0100
0000
0100
0010
0000
,
0000
0001
0100
0000
0001
0100
0000
0001
1000
0000
0100
1000
0000
0100
1000
0000
,
1002
0000
0000
0000
0013
0000
0000
0000
2100
0000
0000
0000
3001
0000
0000
1000
,
0010
0000
0100
0000
0001
0000
0000
1000
0100
0000
0010
0000
0001
0000
0000
0000
,
0201
0000
0000
0000
0310
0000
0000
0000
2010
0000
0000
0000
3001
0000
0000
0100
,
0001
0000
0010
0000
0100
0000
0000
1000
0010
0000
1000
0000
0001
0000
0100
0000
,
0001
0000
0010
0000
0001
0000
1000
0000
0100
0000
0000
0000
0011
0000
0000
0010
,
0001
0000
0100
0000
0010
0000
1000
0000
0100
0000
0000
1000
0001
0010
0000
0000
,
0002
0000
0000
0000
2003
0000
0000
0000
0010
0000
0000
0000
3100
0000
1000
0001
,
1000
0000
0010
0100
0000
0100
0002
0000
0000
0000
0000
0000
1003
0000
0001
0000
,
0100
0000
0000
0001
0000
0010
0001
0000
1000
0000
0000
0100
0010
0000
0000
0000
,
0001
0000
0000
1000
0000
0100
0010
0000
0001
0000
0000
1000
0100
0000
0000
0000
,
1000
0000
0000
0010
0000
1000
0001
0000
0100
0000
0000
0001
0010
0000
0000
0000
,
0001
0000
0000
1000
0000
0100
1000
0000
0010
0000
0000
0010
0100
0000
0001
0000
,
0010
0000
0000
0001
0000
1000
0100
0000
1000
0000
0000
0001
0100
0000
0000
0000
,
0010
0000
0000
0100
0000
0010
0001
0000
0100
0000
0000
0001
1000
0000
0000
1000
,
0010
0000
0010
0000
0010
0000
1000
0001
0000
0000
0001
0100
0000
0001
1000
0000
,
0100
0000
0100
0000
0100
0000
1000
0010
0000
0000
0010
1000
0000
0001
0010
0000
,
0001
0000
0001
0000
0001
0000
0010
0100
0000
0000
0100
1000
0000
1000
0010
0000
,
0200
0000
0300
0110
;

//---------------dance-single - ----------------
#NOTES:
     dance-single:
     :
     Medium:
     9:
     0.329059,0.355639,0.222399,0.174742,0.019857,290.000000,262.000000,28.000000,22.000000,0.000000,0.000000,0.329059,0.355639,0.222399,0.174742,0.019857,290.000000,262.000000,28.000000,22.000000,0.000000,0.000000:
0000
0000
0000
0000
,
0000
0000
0000
0000
,
0000
0000
0000
0000
,
0000
0000
0000
0000
0000
0000
1000
0001
,
1000
0000
0000
0000
0101
0000
0000
0000
0002
0000
0000
2003
0000
0000
3200
0000
,
1000
0001
0310
1100
,
1000
0010
1000
0010
0100
0001
0100
0001
,
0010
0001
0010
0001
1000
0100
1000
0100
,
1000
0010
0100
0001
1000
0000
1001
0000
,
0001
1000
0010
1000
0100
0000
0110
0000
,
0001
0100
0010
1000
0001
0000
0011
0000
,
0001
1000
0100
1000
0010
0000
1010
0000
,
0010
0100
0001
1000
0100
0000
1100
0000
,
0100
1000
0010
1000
0001
0000
0101
0000
,
0001
0010
0001
0100
0010
1000
0001
0000
,
1000
0001
0100
0000
0010
0100
0001
0000
,
2000
0000
0000
3002
0000
0000
0203
0000
0000
0000
0000
0000
0310
0000
0100
0000
,
0001
0000
0011
0000
1000
0010
0100
0000
,
0020
0000
0000
2030
0000
0000
3002
0000
0000
0000
0000
0000
1003
0000
0100
0000
,
1000
0000
0010
0100
0001
0000
0101
0000
,
0020
0000
0000
0230
0000
0000
0320
0000
0000
0000
0000
0000
1030
0000
0001
0000
,
0010
0100
1000
0000
0001
1000
0100
0000
,
0010
0001
1000
0000
0010
1000
0001
0000
,
0100
0010
0100
0010
1000
0000
0001
1000
,
0001
0000
0010
0100
1000
0000
1100
0000
,
1000
0000
0010
0100
0001
0000
1001
0000
,
0010
0000
0001
1000
0100
0000
0110
0000
,
0100
0000
0010
0001
1000
0000
1000
0010
,
0100
0000
0001
1000
0010
0000
1010
0000
,
0010
0000
1000
0001
0100
0000
0110
0000
,
0010
1000
0010
1000
0001
0100
0001
0100
,
0001
0010
0001
0010
0100
1000
0100
1000
,
2002
3000
0010
0103
,
0001
1000
0100
0000
1000
0001
0100
0000
,
0220
0300
0001
1030
,
0010
1000
0100
0000
0010
0001
0100
0000
,
0001
1000
0100
1000
0001
0000
0011
0000
,
1000
0001
0010
0001
1000
0000
1010
0000
,
0002
2003
0010
3100
,
1100
0000
0000
1010
0000
0000
0220
0000
0030
0000
0000
0000
0310
0000
0100
0000
,
0001
0000
1000
0100
0010
0000
0011
0000
,
0100
0000
0001
1000
0010
0000
1010
0000
,
1000
0000
0001
0100
0010
0000
0110
0000
,
0001
0000
0010
0100
1000
0000
0100
1000
,
0010
0000
0100
0001
1000
0000
1100
0000
,
1000
0000
0100
0010
0001
0000
1001
0000
,
0001
0100
0001
0100
0010
1000
0010
1000
,
0100
1000
0100
1000
0001
0010
0001
0010
,
0001
1000
0001
1000
0010
0100
0010
0100
,
0220
0000
0000
0330
;

//---------------dance-single - ----------------
#NOTES:
     dance-single:
     :
     Easy:
     5:
     0.183819,0.197577,0.079428,0.111199,0.000000,162.000000,152.000000,10.000000,14.000000,0.000000,0.000000,0.183819,0.197577,0.079428,0.111199,0.000000,162.000000,152.000000,10.000000,14.000000,0.000000,0.000000:
// measure 0
0000
0000
0000
0000
,  // measure 1
0000
0000
0000
0000
,  // measure 2
0000
0000
0000
0000
,  // measure 3
0000
0000
0000
0000
,  // measure 4
1000
0001
0100
0010
,  // measure 5
1000
0100
0010
0001
,  // measure 6
0100
0010
0100
0001
,  // measure 7
1000
0010
1000
0001
,  // measure 8
0010
0001
1000
0000
,  // measure 9
0010
0100
0001
0000
,  // measure 10
0010
0100
1000
0000
,  // measure 11
0100
1000
0001
0000
,  // measure 12
0010
0001
0100
0000
,  // measure 13
0001
1000
0010
0000
,  // measure 14
1000
0100
1000
0001
,  // measure 15
0010
0100
0010
0001
,  // measure 16
0100
0100
0200
0000
,  // measure 17
0001
1000
0301
0000
,  // measure 18
0010
0010
0020
0000
,  // measure 19
1000
0001
1030
0000
,  // measure 20
1000
1000
2000
0000
,  // measure 21
0001
0010
0001
3100
,  // measure 22
1000
0001
1000
0100
,  // measure 23
0001
0001
0002
0003
,  // measure 24
0001
1000
0100
1001
,  // measure 25
0010
1000
0001
0000
,  // measure 26
0010
0001
0100
0110
,  // measure 27
0010
1000
0100
0000
,  // measure 28
1000
0010
0100
1001
,  // measure 29
0010
0100
0001
0000
,  // measure 30
1000
0001
0010
0100
,  // measure 31
1000
0010
0100
0001
,  // measure 32
2002
0003
0001
0100
,  // measure 33
0002
0000
0000
3003
,  // measure 34
0220
0030
1000
0001
,  // measure 35
0020
0000
0000
0330
,  // measure 36
0001
0100
0110
0000
,  // measure 37
1000
0100
1000
0001
,  // measure 38
2000
0002
0000
3003
,  // measure 39
0010
0010
0010
0010
,  // measure 40
1000
0010
0100
0110
,  // measure 41
0001
0010
0100
0000
,  // measure 42
1000
0001
0010
1001
,  // measure 43
1000
0001
0100
0000
,  // measure 44
0001
0100
0010
0110
,  // measure 45
0010
1000
0001
0000
,  // measure 46
0010
0001
0010
0001
,  // measure 47
1000
0100
1000
0100
,  // measure 48
1000
0010
0100
0001
,  // measure 49
2002
0000
0000
3003
;

//---------------dance-single - ----------------
#NOTES:
     dance-single:
     :
     Beginner:
     2:
     0.086236,0.116759,0.031771,0.031771,0.000000,76.000000,72.000000,4.000000,4.000000,0.000000,0.000000,0.086236,0.116759,0.031771,0.031771,0.000000,76.000000,72.000000,4.000000,4.000000,0.000000,0.000000:
0000
0000
0000
0000
,
0000
0000
0000
0000
,
0000
0000
0000
0000
,
0000
0000
0000
0000
,
1000
0000
0001
0000
,
0100
0000
0000
0000
,
0010
0000
0010
0000
,
0100
0000
0100
0000
,
0001
0000
0000
0000
,
1000
0000
0000
0000
,
0010
0000
0000
0000
,
0100
0000
0000
0000
,
0001
0000
0000
0000
,
0010
0000
0000
0000
,
0100
0000
1000
0000
,
0010
0000
0000
0000
,
2000
0000
3000
0000
,
1000
0000
0010
0000
,
0200
0000
0300
0000
,
0001
0000
1000
0000
,
0020
0000
0030
0000
,
1000
0000
0001
0000
,
0100
0000
0100
0000
,
0002
0000
0003
0000
,
0010
0000
0001
0000
,
0100
0000
0100
0000
,
0001
0000
1000
0000
,
0010
0000
0010
0000
,
1000
0000
0100
0000
,
1000
0000
0001
0000
,
0010
0000
0001
0000
,
0100
0000
0000
0000
,
1001
0000
0000
0000
,
1000
0000
0000
0000
,
1001
0000
0000
0000
,
0001
0000
0000
0000
,
0100
0000
0100
0000
,
0010
0000
0010
0000
,
1001
0000
0000
0000
,
0010
0000
0000
0000
,
1000
0000
0100
0000
,
0010
0000
0010
0000
,
0001
0000
0100
0000
,
0001
0000
0001
0000
,
1000
0000
0010
0000
,
0100
0000
0001
0000
,
0010
0000
0001
0000
,
1000
0000
0001
0000
,
1000
0000
0100
0000
,
1001
0000
0000
0000
;

//---------------dance-single - ----------------
#NOTES:
     dance-single:
     :
     Challenge:
     14:
     0.524226,0.612490,0.285941,0.103257,0.782367,462.000000,426.000000,36.000000,13.000000,0.000000,0.000000,0.524226,0.612490,0.285941,0.103257,0.782367,462.000000,426.000000,36.000000,13.000000,0.000000,0.000000:
0000
0000
0000
0000
,
0000
0000
0000
0000
,
0000
0000
0000
0000
,
0000
0000
0000
0000
0000
0000
0000
0000
0000
0000
0000
0000
1000
0001
0100
0000
,
0010
0000
0000
0101
0000
1100
0000
0000
0011
0000
0000
1001
0000
0000
2010
0000
,
0001
0000
0000
0010
0000
0000
3001
0000
1000
0000
0000
0010
0000
0000
1000
0000
,
0001
0010
0001
0010
0001
0100
0001
0100
0010
0100
0010
0100
0010
1000
0010
1000
,
0100
1000
0100
1000
0001
0100
0001
0100
0001
0010
0001
0010
0100
0000
1000
0000
,
0010
0000
1000
0100
0000
1000
0001
0000
0100
0000
0000
0000
0110
0000
0000
0000
,
0001
0000
1000
0100
0000
1000
0010
0000
0100
0000
0000
0001
0000
1000
0000
0001
,
0000
0010
0000
0100
0000
1000
0000
0010
0100
0000
0000
0000
0101
0000
0000
0000
,
0001
0000
0010
0100
0000
1000
0001
0000
0100
0000
0000
0010
0100
0001
0000
1000
,
0000
0001
0000
0010
0000
0100
0000
1000
0010
0000
0000
0000
1010
0000
0000
0010
,
1000
0100
0000
0010
0000
0001
1000
0000
0100
0000
0000
0100
0000
1000
0010
1000
,
0001
0000
0001
1000
0000
0010
0000
1000
0100
0010
0000
0001
0100
0000
0000
0010
,
1000
0100
1000
0100
0010
0001
0010
0001
0100
0001
0100
0001
1000
0001
0100
0000
,
0001
0000
1000
0010
0000
0010
0200
0000
0001
0000
0000
0010
0300
0100
0000
1000
,
0001
0000
0000
0010
0001
0100
0000
0110
0000
1001
0000
1100
0000
0101
0000
0000
,
0010
0000
0100
0001
0000
0001
2000
0000
0100
0000
0000
3010
1000
0001
0000
0000
,
0011
0000
0000
0010
0001
0100
0000
0002
1000
0000
0000
0013
0100
0000
1100
0000
,
1000
0010
0000
0100
0000
0001
0020
0000
0000
0000
0000
0031
0100
0010
0000
1000
,
0000
0001
0000
1000
0100
0000
1000
0010
0000
1000
0000
0100
0010
0000
0000
0000
,
0001
0000
0001
0000
0001
1000
0000
1100
0000
0110
0000
0011
0000
0001
1000
0000
,
0010
0000
1000
0100
0000
1000
0002
0000
0103
0000
0000
0000
0011
0000
1010
0000
,
1001
0000
0000
1000
0010
1000
0001
0000
0100
0000
0000
0010
1000
0000
0000
0000
,
1100
0000
0000
1000
0010
0100
0001
0000
0010
0000
0000
0100
1000
0000
0000
0000
,
0101
0000
0000
0001
0010
0001
0100
0000
0010
0000
0000
1000
0100
0000
0000
1000
,
0001
0000
0000
1000
0010
1000
0100
0000
0010
0000
0000
0000
0001
0100
0001
0000
,
0110
0000
0000
0010
0100
0001
1000
0000
0100
0000
0000
1000
0010
0000
0000
0000
,
0101
0000
0000
0001
1000
0100
0010
0000
0001
0000
0000
1000
0100
0000
0000
1000
,
0010
0000
0010
0000
0010
0000
1000
0001
0010
0100
1000
0001
0000
0001
0100
0000
,
0001
0010
0001
0010
0100
1000
0100
1000
0010
0100
0010
0100
0001
1000
0001
1000
,
0200
0000
0000
0000
1300
0000
0000
0000
1100
0000
0000
0000
0001
0100
0000
0001
,
0010
0000
0002
0000
1003
0000
0000
0001
1000
0100
1000
0000
0010
0100
0010
0000
,
2000
0000
0000
0000
3001
0000
0000
0000
0011
0000
0000
0000
1000
0100
0000
1000
,
0010
0000
0100
0000
0001
1000
0100
0000
0000
1100
0000
1001
0000
0101
0000
0001
,
1000
0100
0000
1000
0010
0100
0000
0100
0001
0000
0000
0000
1010
0000
0001
0010
,
0000
0001
0000
0100
0010
1000
0000
1000
0001
0000
0000
0100
0010
1000
0100
0000
,
2100
0000
0000
0000
3002
0000
0000
0000
0010
0000
0000
0000
0103
0001
0000
1000
,
0010
0000
1000
0001
0000
1000
0002
0000
0013
0000
0000
0011
0000
1000
0001
0000
,
1000
0010
0100
0001
0000
0001
1000
0000
0010
0100
0000
0100
0001
0000
0000
0000
,
0010
0001
1000
0100
0000
1000
0010
0000
0100
0000
0000
0000
1001
0000
0000
0000
,
0010
0001
0100
0010
0000
0010
1000
0000
0100
1000
0000
1000
0001
0000
0000
0010
,
0001
0100
0010
1000
0000
1000
0001
0000
0100
0000
0000
1000
0010
1000
0001
0000
,
0010
0001
1000
0001
0000
0001
0100
0000
0010
1000
0000
0100
1000
0000
0000
0000
,
0001
0100
0001
1000
0000
1000
0010
0000
0100
0000
0000
0000
0110
0000
0000
0010
,
1000
0000
1000
0000
1000
0000
0001
0100
0001
0010
0100
1000
0000
0010
0100
0000
,
0001
0000
0001
0000
0001
0000
0010
0001
0100
0010
1000
0100
0000
1000
0010
0000
,
0100
0000
0100
0000
0100
0000
0001
1000
0000
0000
0001
0010
0000
0100
1000
0000
,
2100
0001
3100
1001
;
