#TITLE:Smooth;
#SUBTITLE:;
#ARTIST:Santana ft. Rob Thomas;
#TITLETRANSLIT:;
#SUBTITLETRANSLIT:;
#ARTISTTRANSLIT:;
#GENRE:;
#CREDIT:;
#BANNER:Smooth-bn.png;
#BACKGROUND:Smooth-bg.png;
#LYRICSPATH:;
#CDTITLE:;
#MUSIC:Smooth.ogg;
#OFFSET:0.000000;
#SAMPLESTART:71.949997;
#SAMPLELENGTH:20.000000;
#SELECTABLE:YES;
#DISPLAYBPM:116.000000;
#BPMS:0.000000=115.910004
;
#STOPS:
;
#BGCHANGES:;
#KEYSOUNDS:;
#ATTACKS:;

//---------------dance-single - ----------------
#NOTES:
     dance-single:
     :
     Hard:
     11:
     0.428757,0.444987,0.179888,0.208292,0.071009,317.000000,298.000000,19.000000,22.000000,0.000000,0.000000,0.428757,0.444987,0.179888,0.208292,0.071009,317.000000,298.000000,19.000000,22.000000,0.000000,0.000000:
0000
0000
0000
0000
,
0000
0000
0000
0000
,
0000
0000
0000
0000
,
0000
0000
0000
0000
,
0000
0000
0000
0000
,
0010
0001
0001
0100
0010
0010
1000
0100
,
0000
0000
1000
0001
1000
0000
0010
0000
0100
0000
0001
0000
0010
0000
0100
0000
,
0000
1000
1000
0010
0100
0001
0010
0010
,
0100
0100
0100
0010
0001
1000
1000
0001
,
0010
0100
0010
0001
1000
0100
1000
0001
,
0000
0100
0100
0001
0010
0001
1000
0010
,
1000
1000
0001
0010
0001
0100
0010
0010
,
0000
0100
0001
0000
0001
0000
1000
0000
0010
0000
1000
0000
0100
0000
0010
0000
,
1002
0000
0000
0000
0013
0000
0001
0000
0200
0000
0000
0320
0000
0000
2030
0000
,
0000
0000
3001
0000
0100
0000
0000
0010
2000
0000
0000
3200
0000
0000
0320
0000
,
0000
0031
1000
0010
1000
0100
0010
0001
,
0000
0100
0001
1000
0000
0010
0010
0100
,
0001
1000
0010
1000
0100
0010
0001
0100
,
0000
0001
0001
1000
0100
0100
0010
0100
,
0110
1000
0001
0010
0100
1000
0010
0100
,
0000
0000
0001
0000
0001
0000
1000
0000
0020
0000
0000
0230
0000
0000
0302
0000
,
0000
1003
0001
1000
0010
1000
0100
0010
,
0001
0000
0100
0000
0001
0000
1000
0000
0020
0000
0000
2030
0000
0000
3002
0000
,
1000
0000
0103
0001
0010
0001
1000
0200
,
0000
1000
1300
0000
0010
0010
0100
0001
,
1000
0011
1100
0101
,
1001
0010
0100
1000
0000
0001
0001
1000
,
0100
0000
1001
0000
1010
0001
0010
0100
,
1000
0001
1000
0010
0000
0100
0100
0001
,
1000
0000
0101
0000
1100
0000
0001
0100
,
0001
0010
0100
1000
0001
0100
0010
1000
,
0200
0000
1300
1000
0010
1000
0001
0010
,
0001
0000
0100
0010
0200
0000
0000
0000
0302
0000
0000
2003
0000
0000
3020
0000
,
0000
0000
1030
0000
0010
0000
0100
0000
0001
0000
1000
0100
1000
0100
2000
0000
,
0000
0001
0001
3001
0010
0010
0100
0100
,
1100
1000
0010
1000
0001
0010
0100
0000
,
0110
0010
0100
1000
0000
0001
0001
1000
,
0010
1000
0100
0001
0100
1000
0010
0001
,
0010
1000
0100
0010
0001
1000
0000
0100
,
1000
1000
0001
0001
0010
0010
0100
0100
,
0010
0001
0100
0010
1000
0100
0001
0000
,
0011
0001
1000
0100
0000
1001
1000
1010
,
0000
0000
0010
0000
0010
0000
0010
0000
1000
0001
1000
0000
0100
0000
0100
0000
,
1001
0000
0010
0010
0001
0100
0001
1000
,
0000
0000
0010
0000
0010
0000
0010
0000
2000
0000
0002
0000
3000
0000
0103
0001
,
1000
0000
0010
0000
0100
0000
0001
0000
0000
0001
0000
0000
1000
0000
0000
0010
0000
0000
1000
0000
0000
0100
0000
0000
,
0000
1100
0000
0101
0000
1000
1000
0001
,
1001
0000
0000
0000
;

//---------------dance-single - ----------------
#NOTES:
     dance-single:
     :
     Medium:
     9:
     0.313790,0.333740,0.160953,0.208292,0.023670,232.000000,215.000000,17.000000,22.000000,0.000000,0.000000,0.313790,0.333740,0.160953,0.208292,0.023670,232.000000,215.000000,17.000000,22.000000,0.000000,0.000000:
0000
0000
0000
0000
,
0000
0000
0000
0000
,
0000
0000
0000
0000
,
0000
0000
0000
0000
,
0000
0000
0000
0000
,
0000
0010
0001
0000
1000
0010
1000
0001
,
0000
0200
0000
0320
0000
1000
1030
0000
,
0000
0001
1000
0000
0100
1000
0001
0100
,
0000
0001
0002
0000
1003
2000
0000
3010
,
0000
0000
0001
1000
0001
0100
0010
1000
,
0000
0001
0000
1000
0000
0001
0000
0100
,
0010
0000
1000
0100
1000
0001
0010
0100
,
0000
1000
0000
0010
0000
1000
0000
0001
,
0200
0000
0000
0000
0000
0000
0000
0000
0301
0000
0000
1000
0000
0000
0020
0000
,
0000
0000
2030
0000
0000
0000
3001
0000
1000
0000
0000
0001
0000
0000
0200
0000
,
0000
0310
1000
0001
,
0010
0000
0001
0000
1000
0010
0100
0010
,
1000
0000
0001
1000
0001
0100
0000
0010
,
0000
1000
0000
0010
1000
0001
0000
0100
,
0001
0000
0010
0100
0010
0001
0000
1000
,
0000
0000
0010
0000
0000
0000
0100
0000
0001
0000
0000
1000
0000
0000
0010
0000
,
0000
0200
0000
0302
0000
0010
0000
1003
,
0000
0000
0001
0000
0100
0000
0000
0000
0001
0000
0000
1000
0000
0000
0100
0000
,
0000
0000
1000
0010
1000
0001
0010
0100
,
0000
1000
0001
0000
0100
0010
0100
0010
,
0000
1010
1001
0101
,
0002
0000
1000
1003
0000
0001
0100
0010
,
0000
0000
0110
0000
1010
0000
0001
1000
,
0200
0000
0010
0310
0000
0100
1000
0001
,
0000
0000
0011
0000
1100
0000
0001
0100
,
0001
2000
0000
3020
0000
0230
0000
0302
,
1000
1003
0001
0001
,
0100
0000
0010
0000
0100
0000
0000
0000
0010
0000
0000
1000
0000
0000
0001
0000
,
0000
0011
0000
0001
1000
0010
1000
0001
,
0000
0100
0100
0010
0010
0000
1000
0001
,
1000
0001
0010
0100
0000
1100
0000
0000
,
0001
1000
0010
1000
0000
0000
0001
1000
,
0001
0010
0100
0000
1000
0010
0100
0000
,
0001
1000
0000
1100
0000
0101
0000
0100
,
0001
1000
0100
0000
1000
0001
0010
0000
,
0001
1000
0000
1010
0000
0101
0000
0000
,
1001
0000
0100
0010
0000
0110
0000
1001
,
0000
0000
0000
0000
0001
1000
0001
1000
,
0001
0000
0100
0001
2000
0000
0010
3010
,
0000
2000
0000
3002
0000
0100
0103
0000
,
0000
0001
0010
0001
0200
0000
0010
0310
,
0000
2000
0000
3020
0000
0130
0001
0000
,
1001
0000
0000
0000
;

//---------------dance-single - ----------------
#NOTES:
     dance-single:
     :
     Easy:
     6:
     0.254278,0.311491,0.274567,0.113614,0.000000,188.000000,159.000000,29.000000,12.000000,0.000000,0.000000,0.254278,0.311491,0.274567,0.113614,0.000000,188.000000,159.000000,29.000000,12.000000,0.000000,0.000000:
0000
0000
0000
0000
,
0000
0000
0000
0000
,
0000
0000
0000
0000
,
0000
0000
0000
0000
,
0000
0000
0000
0000
,
0010
0001
1000
0001
,
0010
0100
1000
0010
,
0100
0001
0010
0001
,
1000
0010
1000
0001
,
1001
1001
0010
0100
,
0000
0001
1000
0001
,
0110
1000
0001
0010
,
0000
0001
1000
0100
,
1001
0010
1001
0100
,
0110
0001
0110
1000
,
0110
0010
0100
0001
,
1000
1000
0001
0001
,
1001
0010
1000
0001
,
0000
0100
0010
0100
,
0110
1000
0100
0010
,
0000
0001
1000
0010
,
1000
0001
0010
0001
,
0100
0010
1000
0100
,
1000
1000
0010
0010
,
0100
0001
0010
0010
,
0000
0002
2003
3002
,
2003
0010
0100
3010
,
0000
0020
0230
0320
,
0230
1000
0001
0310
,
0000
0002
0023
0230
,
2300
0010
0100
3001
,
1001
0010
0110
0100
,
1001
0001
0110
1000
,
1001
0001
0010
0100
,
1000
0010
1000
0110
,
1001
0010
0100
0010
,
0110
0100
0010
0100
,
0001
0001
1000
1000
,
1001
0110
1001
0110
,
1000
0001
0010
0100
,
1000
0010
1000
0001
,
1001
0000
0010
0000
,
0110
0000
1001
1001
,
0110
0100
0001
1000
,
0010
0100
0010
0100
,
0110
0001
0010
0100
,
1000
0010
1000
0001
,
1001
0000
0000
0000
;

//---------------dance-single - ----------------
#NOTES:
     dance-single:
     :
     Beginner:
     2:
     0.108204,0.177995,0.018936,0.000000,0.000000,80.000000,78.000000,2.000000,0.000000,0.000000,0.000000,0.108204,0.177995,0.018936,0.000000,0.000000,80.000000,78.000000,2.000000,0.000000,0.000000,0.000000:
// measure 0
0000
0000
0000
0000
,  // measure 1
0000
0000
0000
0000
,  // measure 2
0000
0000
0000
0000
,  // measure 3
0000
0000
0000
0000
,  // measure 4
0000
0000
0000
0000
,  // measure 5
0010
0000
0010
0000
,  // measure 6
0100
0000
0100
0000
,  // measure 7
0001
0000
0001
0000
,  // measure 8
1000
0000
1000
0000
,  // measure 9
0010
0010
0000
0000
,  // measure 10
0000
0000
0100
0000
,  // measure 11
0001
0001
0000
0000
,  // measure 12
0000
0000
1000
0000
,  // measure 13
0010
0000
0100
0000
,  // measure 14
0010
0000
0100
0000
,  // measure 15
0001
0000
0000
0000
,  // measure 16
1000
0000
0000
0000
,  // measure 17
0100
0100
0000
0000
,  // measure 18
0000
0000
0001
0000
,  // measure 19
1000
1000
0000
0000
,  // measure 20
0000
0000
0010
0000
,  // measure 21
1000
0000
0100
0000
,  // measure 22
1000
0000
0100
0000
,  // measure 23
0010
0000
0000
0000
,  // measure 24
0001
0000
0000
0000
,  // measure 25
1000
1000
1000
0000
,  // measure 26
0001
0000
1000
0000
,  // measure 27
0010
0010
0010
0000
,  // measure 28
0100
0000
0010
0000
,  // measure 29
0100
0100
0100
0000
,  // measure 30
0001
0001
0001
0000
,  // measure 31
0010
0000
0000
0000
,  // measure 32
0001
0000
0000
0000
,  // measure 33
0100
0000
0000
0000
,  // measure 34
1000
0000
0000
0000
,  // measure 35
0010
0000
0100
0000
,  // measure 36
0001
0000
1000
0000
,  // measure 37
0001
0001
0001
0000
,  // measure 38
1000
1000
1000
0000
,  // measure 39
0010
0010
0010
0000
,  // measure 40
0100
0100
0100
0000
,  // measure 41
1001
0000
0000
0000
,  // measure 42
0000
0000
0000
0000
,  // measure 43
0001
0000
0010
0000
,  // measure 44
0001
0000
1000
0000
,  // measure 45
0100
0000
0010
0000
,  // measure 46
0100
0000
1000
0000
,  // measure 47
1001
0000
0000
0000
;
