#TITLE:Sk8er Boi;
#SUBTITLE:;
#ARTIST:Avril Lavigne;
#TITLETRANSLIT:;
#SUBTITLETRANSLIT:;
#ARTISTTRANSLIT:;
#GENRE:;
#CREDIT:;
#BANNER:Sk8er Boi-bn.png;
#BACKGROUND:Sk8er Boi-bg.png;
#LYRICSPATH:;
#CDTITLE:;
#MUSIC:Sk8er Boi.ogg;
#OFFSET:0.800000;
#SAMPLESTART:82.400002;
#SAMPLELENGTH:20.000000;
#SELECTABLE:YES;
#DISPLAYBPM:150.000000;
#BPMS:0.000000=150.000000
;
#STOPS:
;
#BGCHANGES:;
#KEYSOUNDS:;
#ATTACKS:;

//---------------dance-single - ----------------
#NOTES:
     dance-single:
     :
     Hard:
     12:
     0.538946,0.505565,0.178435,0.093466,0.025491,444.000000,423.000000,21.000000,11.000000,0.000000,0.000000,0.538946,0.505565,0.178435,0.093466,0.025491,444.000000,423.000000,21.000000,11.000000,0.000000,0.000000:
0000
0000
0000
0000
,
0000
0000
0000
0000
,
0000
0000
0000
0000
,
0000
0000
0000
0000
,
0000
0000
0000
0000
,
0010
0000
1000
0001
0100
0010
1000
0000
,
0100
0000
0010
0001
1000
0010
0100
0000
,
0001
0000
0010
0001
1000
0100
0010
0000
,
1000
0000
0001
0100
0001
1000
0010
0000
,
1000
0001
0010
0001
0100
0010
1000
0001
,
0000
0010
0010
0000
0001
1000
0010
0100
,
0000
0001
0001
1000
0001
0100
0010
2000
,
0000
3100
0010
0002
0000
0100
0103
0000
,
0001
1000
0001
0100
0010
1000
0001
0100
,
0000
0001
0001
1000
0100
0010
0001
1000
,
0000
0010
0100
0001
0000
1100
0000
0101
,
0000
1000
0010
0200
0000
0001
0301
0000
,
0010
0100
0010
1000
0001
0100
0010
1000
,
0000
0100
0100
0000
1000
0001
0010
0100
,
0000
1000
1000
0000
0010
1000
0001
0200
,
0000
0301
0010
0002
0000
1000
1003
0000
,
0010
1000
0001
0010
0001
0100
0010
1000
,
0000
0010
0010
0000
1000
0010
0100
0001
,
0000
1000
1000
0000
0001
0010
0001
0100
,
0010
1000
0010
0100
0001
0010
0100
1000
,
0001
0100
1000
0000
0010
1000
0100
0010
,
0001
1000
0000
0010
0010
1000
0100
0010
,
0001
0100
1000
0000
0010
0100
0001
1000
,
0000
1010
0000
0011
0000
1000
0001
0010
,
0100
1000
0001
0000
0010
1000
0001
0010
,
0001
0100
0000
0001
0001
1000
0010
1000
,
0100
0010
0000
0100
0100
1000
0001
0010
,
0000
1001
0000
0100
0000
0110
0000
0001
,
1000
0010
0100
0001
0010
0100
1000
0001
,
0020
0000
0000
0000
0030
0000
0000
0000
0001
1000
0001
1000
0001
0000
0000
0000
,
1000
0010
1000
0001
1000
0100
0010
0001
,
0000
0100
0100
0000
0001
1000
0010
0100
,
0001
1000
0001
0000
0010
0001
1000
0100
,
1000
0010
0100
0002
0000
1000
1003
0000
,
0001
0010
0001
0100
0010
0100
0001
1000
,
0000
0100
0100
0000
1000
0001
0010
0100
,
0000
0010
0010
0000
0001
0100
0010
2000
,
0000
3100
1000
0002
0000
0100
0103
0000
,
0001
0010
0001
1000
0001
0100
0010
1000
,
0000
0100
0100
1000
0010
0100
0001
1000
,
0000
0001
0001
0010
0001
0100
0010
1000
,
0100
0010
0001
2000
0000
0010
3010
0000
,
1000
0010
0100
0010
1000
0001
0010
0100
,
0000
1000
1000
0001
1000
0010
0100
0001
,
0000
0010
0010
0010
0001
0100
0010
1000
,
1100
0000
0101
0000
1000
0001
0200
0000
,
0010
0000
0000
0000
0010
0000
0000
0000
0301
1000
0000
0001
1000
0001
1000
0000
,
0001
0100
1000
0000
0010
0100
0010
1000
,
0100
0010
0000
0001
0001
1000
0100
0010
,
0001
0100
1000
0000
0001
1000
0010
0100
,
0000
0110
0000
1001
0000
0010
1000
0100
,
0010
0001
1000
0000
0001
0100
0010
1000
,
0100
0010
0000
0001
1000
0010
1000
0001
,
0010
0100
0000
1000
1000
0010
0100
0001
,
0000
0011
0000
1010
0000
0100
1000
0001
,
0010
0001
0100
0000
0001
1000
0100
0010
,
0100
1000
0000
0001
0001
1000
0010
1000
,
0001
0100
1000
0000
0010
0100
0001
1000
,
0000
1100
0000
0011
0000
0100
0010
1000
,
0001
1000
0100
0000
0010
0100
0010
0001
,
0100
0010
0000
1000
0100
1000
0001
0010
,
0001
0100
0000
0010
0010
1000
0001
0100
,
0000
0101
0000
1010
0000
0001
0000
1000
,
0001
0100
0010
1000
0100
0010
0001
0000
,
0011
0000
0000
0000
1100
0000
0000
0000
0000
0000
1001
0000
0000
1001
0000
0000
,
1001
0000
0000
0000
;

//---------------dance-single - ----------------
#NOTES:
     dance-single:
     :
     Medium:
     9:
     0.406637,0.475826,0.220919,0.152944,0.004248,335.000000,309.000000,26.000000,18.000000,0.000000,0.000000,0.406637,0.475826,0.220919,0.152944,0.004248,335.000000,309.000000,26.000000,18.000000,0.000000,0.000000:
0000
0000
0000
0000
,
0000
0000
0000
0000
,
0000
0000
0000
0000
,
0000
0000
0000
0000
,
0000
0000
0000
0000
,
0010
0000
2000
0001
0000
0000
3100
0000
,
0001
0000
0200
0010
0000
0000
1300
0000
,
0100
0000
0002
1000
0000
0000
0013
0000
,
1000
0000
0020
0001
0000
0000
0130
0000
,
0000
0000
0000
0000
0001
1000
0010
0100
,
0000
0000
0000
0000
0001
0010
0100
1000
,
0000
0000
0000
0001
1000
0010
1000
0100
,
0000
1000
0001
1000
0000
0010
0100
0000
,
0000
0000
0000
0000
0010
1000
0001
0100
,
0000
0000
0000
0000
0001
1000
0100
0010
,
0000
0000
0000
0000
0000
0011
0000
1100
,
0000
1001
0000
0110
0000
1001
0000
0000
,
0000
0000
0000
0000
1000
0100
0010
0001
,
0000
0000
0000
0000
0100
0001
1000
0010
,
0000
0000
0000
0000
1000
0010
0100
0001
,
0000
0100
0010
0100
0000
0001
1000
0000
,
0000
0000
0000
0001
0100
0010
0100
0001
,
0000
0000
0000
0000
0100
0010
1000
0001
,
0000
0000
0000
0000
0010
0001
1000
0100
,
0000
1000
0010
0100
0000
0001
1000
0001
,
0000
0000
0000
0000
0010
0001
1000
0010
,
0100
0001
0000
1000
0001
0100
0010
1000
,
0100
0010
0000
0000
0001
0100
0010
1000
,
0000
1100
0000
0101
0000
1010
0000
0011
,
0000
0000
0000
0000
1000
0010
1000
0100
,
0010
0001
0000
0100
0010
1000
0001
0010
,
0001
1000
0000
0001
1000
0001
0100
0010
,
0000
2000
0000
3200
0000
0320
0000
0032
,
0000
0103
0010
2000
0000
3001
1000
0000
,
0020
0030
0110
1001
,
0000
0000
0000
0000
0001
0100
0010
1000
,
0000
0000
0000
0000
0100
1000
0001
0010
,
0000
0000
0000
0000
0001
1000
0100
0010
,
0000
0001
0100
0001
0000
1000
0100
0000
,
0000
0000
0000
0010
1000
0001
1000
0010
,
0000
0000
0000
0000
0100
0010
1000
0001
,
0000
0000
0000
0000
0010
0100
1000
0001
,
0000
0100
0010
0100
0000
0001
1000
0000
,
0000
0000
0000
0100
0010
0001
1000
0001
,
0000
0000
0000
1000
0100
1000
0010
0100
,
0000
0000
0000
0001
0010
0001
1000
0010
,
0000
1000
0100
0010
0000
0001
0100
0000
,
0000
0000
0000
0000
0001
0010
0100
1000
,
0000
0000
0000
0010
0100
0010
1000
0001
,
0000
1000
0010
1000
0001
0100
0000
0010
,
2000
0000
3002
0000
0103
0010
0200
0000
,
0010
0010
0010
0310
,
0000
0000
0000
0000
1000
0001
1000
0010
,
0100
0001
0000
0010
0001
1000
0001
0100
,
0001
0010
0000
0000
0010
0001
1000
0010
,
0000
1010
0000
0101
0000
0011
0000
1100
,
0000
0000
0000
0000
1000
0010
1000
0001
,
0010
0100
0000
1000
0100
1000
0010
0100
,
0001
1000
0000
0001
0010
0001
1000
0100
,
0000
1100
0000
0101
0000
0011
0000
0110
,
0000
0000
0000
0000
1000
0001
1000
0001
,
0010
0100
0000
0010
0001
0100
0010
1000
,
0100
1000
0000
0000
0001
1000
0100
0010
,
0000
0011
0000
0110
0000
1100
0000
1001
,
0000
0000
0000
0000
0010
0100
0010
1000
,
0001
0010
0000
0001
0100
0001
1000
0010
,
1000
0100
0000
0010
0100
0010
0001
1000
,
0000
2000
0000
3002
0000
0203
0000
0320
,
0000
1030
0001
2000
0000
3010
0100
0000
,
0101
0000
0000
0000
1100
0000
0000
0000
0000
0000
0001
0000
0000
1000
0000
0000
,
1001
0000
0000
0000
;

//---------------dance-single - ----------------
#NOTES:
     dance-single:
     :
     Easy:
     6:
     0.267045,0.327131,0.033988,0.008497,0.000000,220.000000,216.000000,4.000000,1.000000,0.000000,0.000000,0.267045,0.327131,0.033988,0.008497,0.000000,220.000000,216.000000,4.000000,1.000000,0.000000,0.000000:
0000
0000
0000
0000
,
0000
0000
0000
0000
,
0000
0000
0000
0000
,
0000
0000
0000
0000
,
0000
0000
0000
0000
,
0010
1000
0100
0010
,
0001
0100
0001
1000
,
0010
0100
0010
1000
,
0100
0010
0001
1000
,
0000
0000
0001
1000
,
0010
0000
1000
0100
,
0010
0000
0001
1000
,
0001
0100
0010
1000
,
0000
0000
0100
0010
,
0001
0000
0100
0010
,
1000
0000
0000
0001
,
1000
0001
0010
0100
,
0000
0000
1000
0001
,
1000
0000
0010
1000
,
0100
0000
0010
0001
,
0100
0001
0010
1000
,
0000
0000
0001
1000
,
0010
0000
1000
0100
,
0010
0000
0001
0100
,
0001
1000
0010
0100
,
0001
0000
1000
0100
,
0010
0001
1000
0001
,
0100
0010
1000
0001
,
0010
0010
0100
0100
,
0010
0000
0001
0100
,
0001
1000
0010
1000
,
0010
0100
0001
0010
,
0001
0001
1000
1000
,
0010
0100
0010
0100
,
0110
0000
0001
1000
,
0000
0000
0010
1000
,
0100
0000
1000
0001
,
0100
0000
0001
0010
,
0001
1000
0100
0010
,
0000
0000
0100
0010
,
0100
0000
1000
0001
,
0100
0000
0001
0010
,
0001
0010
0001
0100
,
0000
0000
1000
0100
,
1000
0000
0010
1000
,
0001
0000
0010
0100
,
1000
0001
1000
0100
,
0000
0000
1000
0001
,
0100
0000
0010
0100
,
0001
0010
0001
0100
,
1000
0001
0100
0200
,
0000
0000
0000
0300
,
0010
0000
0001
1000
,
0010
0010
1000
0100
,
0010
0010
0001
0100
,
0001
1000
0100
0100
,
0010
0000
0001
0100
,
0010
1000
0100
1000
,
0010
0010
1000
0001
,
0100
0010
0001
0100
,
1000
0000
0010
1000
,
0100
0010
0001
0100
,
0001
0010
1000
0100
,
1000
1000
0010
1000
,
0100
0000
0010
0001
,
0010
0010
0001
1000
,
0010
1000
0100
0100
,
1000
0010
0100
0001
,
1000
1000
0001
0001
,
1001
0110
0000
0000
,
1001
0000
0000
0000
;

//---------------dance-single - ----------------
#NOTES:
     dance-single:
     :
     Beginner:
     3:
     0.151730,0.208174,0.016994,0.000000,0.000000,125.000000,123.000000,2.000000,0.000000,0.000000,0.000000,0.151730,0.208174,0.016994,0.000000,0.000000,125.000000,123.000000,2.000000,0.000000,0.000000,0.000000:
// measure 0
0000
0000
0000
0000
,  // measure 1
0000
0000
0000
0000
,  // measure 2
0000
0000
0000
0000
,  // measure 3
0000
0000
0000
0000
,  // measure 4
0000
0000
0000
0000
,  // measure 5
0010
0010
0000
0000
,  // measure 6
1000
1000
0000
0000
,  // measure 7
0001
0001
0000
0000
,  // measure 8
0100
0100
0000
0000
,  // measure 9
0000
0000
0001
0000
,  // measure 10
0001
0000
1000
0000
,  // measure 11
1000
0000
0010
0000
,  // measure 12
1000
0000
0001
0000
,  // measure 13
0000
0000
0100
0000
,  // measure 14
0100
0000
0010
0000
,  // measure 15
0010
0000
0000
0000
,  // measure 16
1000
1000
1000
0000
,  // measure 17
0000
0000
0001
0000
,  // measure 18
0001
0000
0100
0000
,  // measure 19
0100
0000
0010
0000
,  // measure 20
0100
0000
0001
0000
,  // measure 21
0000
0000
1000
0000
,  // measure 22
0010
0000
1000
0000
,  // measure 23
0100
0000
0010
0000
,  // measure 24
0001
0000
1000
0000
,  // measure 25
0001
0000
0100
0000
,  // measure 26
0100
0000
0010
0000
,  // measure 27
0010
0000
1000
0000
,  // measure 28
0001
0000
1000
0000
,  // measure 29
0010
0000
1000
0000
,  // measure 30
0100
0000
0010
0000
,  // measure 31
0001
0000
1000
0000
,  // measure 32
0001
0000
0100
0000
,  // measure 33
0010
0010
0010
0000
,  // measure 34
0110
0000
0000
0000
,  // measure 35
0000
0000
1000
0000
,  // measure 36
0001
0000
1000
0000
,  // measure 37
0010
0000
1000
0000
,  // measure 38
0100
0000
0010
0000
,  // measure 39
0000
0000
0001
0000
,  // measure 40
0001
0000
1000
0000
,  // measure 41
0010
0000
1000
0000
,  // measure 42
0100
0000
0010
0000
,  // measure 43
0000
0000
0001
0000
,  // measure 44
0100
0000
0001
0000
,  // measure 45
0010
0000
1000
0000
,  // measure 46
0100
0000
0001
0000
,  // measure 47
0000
0000
1000
0000
,  // measure 48
0001
0000
1000
0000
,  // measure 49
0010
0000
1000
0000
,  // measure 50
0100
0100
0100
0100
,  // measure 51
0000
0000
0000
0000
,  // measure 52
0000
0000
1000
0000
,  // measure 53
0010
0000
1000
0000
,  // measure 54
0100
0000
0010
0000
,  // measure 55
0001
0000
0100
0000
,  // measure 56
0001
0000
1000
0000
,  // measure 57
0010
0000
0100
0000
,  // measure 58
0010
0000
1000
0000
,  // measure 59
0100
0000
0010
0000
,  // measure 60
0100
0000
1000
0000
,  // measure 61
0010
0000
0100
0000
,  // measure 62
0010
0000
0010
0000
,  // measure 63
1000
0000
0001
0000
,  // measure 64
0010
0000
0001
0000
,  // measure 65
0100
0000
1000
0000
,  // measure 66
1000
0000
0001
0000
,  // measure 67
1000
0000
0010
0000
,  // measure 68
0100
0100
0100
0000
,  // measure 69
0001
0001
0000
0000
,  // measure 70
1001
0000
0000
0000
;
