#TITLE:Sigrev2;
#SUBTITLE:;
#ARTIST:Richard Devine;
#TITLETRANSLIT:;
#SUBTITLETRANSLIT:;
#ARTISTTRANSLIT:;
#GENRE:;
#CREDIT:;
#BANNER:Sigrev2.png;
#BACKGROUND:Sigrev2-bg.png;
#LYRICSPATH:;
#CDTITLE:;
#MUSIC:Sigrev2.ogg;
#OFFSET:0.000000;
#SAMPLESTART:6.573000;
#SAMPLELENGTH:15.000000;
#SELECTABLE:YES;
#DISPLAYBPM:183.000000;
#BPMS:0.000000=182.899994
,4.000000=183.000000
;
#STOPS:
;
#BGCHANGES:;
#KEYSOUNDS:;
#ATTACKS:;

//---------------dance-single - ----------------
#NOTES:
     dance-single:
     :
     Beginner:
     2:
     0.140848,0.221118,0.019144,0.000000,0.000000,103.000000,101.000000,2.000000,0.000000,0.000000,0.000000,0.140848,0.221118,0.019144,0.000000,0.000000,103.000000,101.000000,2.000000,0.000000,0.000000,0.000000:
0000
0000
0000
0000
,
0000
0000
0000
0000
,
0000
0000
0000
0000
,
0000
0000
0000
0000
,
0000
0000
0000
0000
,
0100
0000
0000
0000
,
0010
0000
0000
0000
,
1000
0000
1000
0000
,
0001
0000
0001
0000
,
0010
0000
0000
0000
,
0100
0000
0000
0000
,
1000
0000
1000
0000
,
0001
0000
0001
0000
,
0100
0000
0000
0000
,
0100
0000
0000
0000
,
0010
0000
0000
0000
,
0010
0000
0000
0000
,
1000
0000
0000
0000
,
1000
0000
0000
0000
,
0001
0000
1000
0000
,
0001
0000
1000
0000
,
0100
0000
0000
0000
,
0100
0000
0000
0000
,
0010
0000
0000
0000
,
0010
0000
0000
0000
,
0001
0000
1000
0000
,
0001
0000
1000
0000
,
0010
0000
0100
0000
,
0001
0000
1000
0000
,
1001
0000
0000
0000
,
0100
0000
0000
0000
,
0100
0000
0000
0000
,
0100
0000
0000
0000
,
0010
0000
0000
0000
,
0010
0000
0000
0000
,
0010
0000
0000
0000
,
0010
0000
1000
0000
,
0001
0000
0000
0000
,
0001
0000
0000
0000
,
0001
0000
0000
0000
,
0001
0000
1000
0000
,
0001
0000
1000
0000
,
0100
0000
0010
0000
,
0001
0000
0000
0000
,
0000
1000
0000
1000
,
0000
0000
0000
0000
,
0000
0000
0000
0100
,
0000
0100
0000
0000
,
0000
0000
0000
0000
,
0000
0010
0000
0010
,
0000
0000
0000
0000
,
0000
0000
0000
0001
,
0000
0001
0000
0000
,
1000
0000
0001
0000
,
0100
0000
0100
0000
,
0100
0000
0100
0000
,
0010
0000
0010
0000
,
0010
0000
0010
0000
,
1000
0000
1000
0000
,
1000
0000
1000
0000
,
0001
0000
0001
0000
,
1000
0000
1000
0000
,
0100
0000
0000
0000
,
0100
0000
0000
0000
,
0010
0000
0010
0000
,
0001
0000
1000
0000
,
0010
0000
0000
0000
,
0010
0000
0000
0000
,
0100
0000
0100
0000
,
0001
0000
1000
0000
,
0001
0000
0000
0000
,
0010
0000
0000
0000
,
0100
0000
0100
0000
,
1000
0000
1000
0000
,
0001
0000
0000
0000
,
1000
0000
0000
0000
,
0001
0000
0000
0000
,
1001
0000
0000
0000
;

//---------------dance-single - ----------------
#NOTES:
     dance-single:
     :
     Easy:
     4:
     0.246143,0.293867,0.047861,0.086150,0.000000,180.000000,175.000000,5.000000,9.000000,0.000000,0.000000,0.246143,0.293867,0.047861,0.086150,0.000000,180.000000,175.000000,5.000000,9.000000,0.000000,0.000000:
0000
0000
0000
0000
,
0000
0000
0000
0000
,
0000
0000
0000
0000
,
0000
0000
0000
0000
,
0000
0000
0000
0000
,
0100
0000
0000
0000
,
0010
0000
0000
0000
,
0100
0000
0000
0000
,
0001
0000
0000
0000
,
1000
0000
0100
0000
,
0010
0000
0100
0000
,
1000
0000
0100
0000
,
0001
0000
0100
0000
,
0010
0000
0001
0000
,
0010
0000
0100
0000
,
1000
0000
0001
0000
,
0100
0000
0010
0000
,
0001
1000
0001
0000
,
1001
0000
0000
0000
,
0010
0100
0010
0000
,
0110
0000
0000
0000
,
0001
1000
0001
0000
,
0110
0000
0000
0000
,
0100
0010
0100
0000
,
1001
0000
0000
0000
,
0010
1000
0100
0000
,
1000
0001
0100
0000
,
0001
0100
0010
0000
,
1000
0010
0100
0000
,
0001
1000
0001
0000
,
0100
0010
1000
0000
,
0001
0100
0010
0000
,
1000
0001
0100
0000
,
0010
0001
0100
1000
,
0000
0100
0010
0000
,
1000
0010
0100
0001
,
0000
1000
0010
0000
,
0100
0001
1000
0100
,
0000
0010
0100
0000
,
0100
0001
0100
0010
,
0000
0001
1000
0000
,
2002
0000
0000
3003
,
0001
1000
0001
1000
,
0200
0300
0020
0030
,
0001
1000
0200
0000
,
0000
0000
0000
0300
,
0100
0000
0010
0000
,
0002
0000
0000
0000
,
0003
0001
0000
1000
,
0000
0010
0020
0000
,
0000
0030
0100
0000
,
0001
0000
0100
1000
,
0200
0000
0000
0300
,
0100
0001
0100
0000
,
0010
0000
1000
0000
,
0001
1000
0001
0000
,
1000
0001
1000
0000
,
0100
0000
0010
0000
,
0001
1000
0001
0000
,
1000
0001
1000
0000
,
0010
1000
0100
0000
,
0010
0001
0100
0001
,
0010
0000
0100
0000
,
1000
0100
0010
0100
,
1000
0000
0001
0000
,
0100
0010
1000
0010
,
0100
0000
0010
0000
,
1000
0100
0001
0100
,
1000
0000
0010
0000
,
0100
0001
0010
0000
,
0100
1000
0010
0000
,
0001
1000
0100
0000
,
0001
1000
0100
0000
,
0010
0001
0010
0000
,
0100
1000
0100
0000
,
0010
0001
1000
0100
,
0200
0000
0000
0300
;

//---------------dance-single - ----------------
#NOTES:
     dance-single:
     :
     Medium:
     8:
     0.399298,0.483756,0.153155,0.191444,0.000000,292.000000,276.000000,16.000000,20.000000,0.000000,0.000000,0.399298,0.483756,0.153155,0.191444,0.000000,292.000000,276.000000,16.000000,20.000000,0.000000,0.000000:
0000
0000
0000
0000
,
0000
0000
0000
0000
,
0000
0000
0000
0000
,
0000
0000
0000
0000
,
0000
0000
0000
0000
,
1000
1000
0001
0001
,
0100
0000
0010
0100
0000
0000
0000
0000
,
0001
0001
1000
1000
,
0100
0000
0010
0100
0000
0000
0000
0000
,
0010
0001
0010
0001
,
1000
0000
0100
0010
0000
0000
0001
0000
,
0100
0001
0100
0001
,
0010
0000
0100
0000
1000
0001
1000
0000
,
0001
1000
0010
0100
,
0001
0000
0100
0001
0000
0000
0010
0000
,
1000
0100
0010
0001
,
1000
0000
0010
0100
0000
0000
1000
0000
,
0001
0010
0100
1000
,
0010
0000
0100
0001
0000
0000
0010
0000
,
0100
1000
0010
0100
,
0001
0000
0010
0001
0000
1000
0100
0000
,
0020
0000
0032
0000
,
1003
1000
0001
0001
,
0200
0000
0320
0000
,
1030
1000
0001
0001
,
0100
0100
0100
0100
,
0010
0010
0010
0010
,
1000
0001
1000
1001
,
0001
0000
1000
0100
1000
0000
0001
0100
,
0002
0000
0000
1003
0200
0000
0000
1300
,
0001
1000
0001
0100
,
0001
0000
0010
0100
0000
0000
1000
0000
,
0010
0000
0001
0010
0000
0000
0100
0000
,
1000
0000
0010
0001
0000
0000
0010
0000
,
1000
0100
0001
0010
,
0100
0000
0010
0100
0000
0000
0010
0000
,
1000
0010
0001
0100
,
1000
0000
0010
0100
0000
0000
0010
0000
,
0001
0010
1000
0100
,
0001
0000
0100
1000
0000
0010
0100
0000
,
1000
0010
0001
0010
,
1100
0000
0101
0000
,
0011
1100
0011
1100
,
0002
0000
0000
0003
,
0000
0000
1010
0000
0000
0101
0000
0000
,
0020
0000
0000
0030
,
1000
0001
0010
0011
,
0000
2200
0000
0000
0000
0000
3300
0000
,
0010
1000
0100
0010
,
0001
0000
0101
0000
0000
2020
0000
0000
,
0000
0000
3030
0100
,
0001
0010
0100
1100
,
0000
0022
0000
0000
0000
0000
0033
0000
,
0001
1000
0001
1000
,
0010
0100
0010
0100
,
0001
0001
1000
1000
,
0001
1000
0001
0000
0010
0000
0100
0000
,
0010
0100
0010
0000
1000
0000
0001
0000
,
1000
0001
1000
0000
0100
0000
0010
0000
,
0001
0100
0001
0100
0000
0000
0010
0000
,
1000
0100
0010
0001
,
1000
0001
0100
0002
0000
0000
0000
0000
,
1003
0010
0100
0001
,
0010
0001
1000
0002
0000
0000
0000
0000
,
0013
1000
0100
0010
,
0100
0001
0100
2000
0000
0000
0000
0000
,
3010
0100
0001
0010
,
0100
1000
0100
0002
0000
0000
0000
0000
,
0103
0010
0001
1000
,
0010
0100
0010
0001
,
0100
0000
0010
0100
0000
0100
0010
0000
,
0001
1000
0001
0100
,
1000
0000
0010
1000
0000
1000
0010
0000
,
0100
0001
0010
0100
,
1000
0000
0001
0010
0000
0010
0001
0000
,
0100
0010
1000
0100
,
0010
0000
0001
1000
0000
1000
0001
0000
,
0220
0000
0000
0330
;

//---------------dance-single - ----------------
#NOTES:
     dance-single:
     :
     Hard:
     13:
     0.664585,0.640740,0.354172,0.124439,0.057433,486.000000,449.000000,37.000000,13.000000,0.000000,0.000000,0.664585,0.640740,0.354172,0.124439,0.057433,486.000000,449.000000,37.000000,13.000000,0.000000,0.000000:
0000
0000
0000
0000
,
0000
0000
0000
0000
,
0000
0000
0000
0000
,
0000
0000
0000
0000
,
0000
0000
0000
0000
,
0100
1000
0010
1000
0100
0010
1000
0000
,
0010
0001
0100
0010
0000
0010
0100
0001
,
1000
0010
0100
0001
0010
0001
0100
0000
,
0010
0100
0001
0000
0010
0100
2000
0000
,
3001
1000
0010
1000
0100
0010
1000
0000
,
0010
0001
1000
0010
0000
0010
1000
0100
,
0010
0001
1000
0001
0100
1000
0010
0001
,
0100
1000
0100
0001
1000
0000
1001
0000
,
0010
0100
0001
1000
0100
0010
0001
0000
,
1100
0000
0010
0100
1000
0001
1000
0000
,
0101
0000
0010
0100
0001
1000
0001
0000
,
1100
0000
0010
0100
1000
0001
0100
0000
,
0100
0010
1000
0001
0010
0100
1000
0000
,
0011
0000
0100
0010
0001
1000
0001
0000
,
1010
0000
0100
0010
1000
0001
1000
0000
,
0011
0000
0100
0010
0001
1000
0010
0100
,
1001
0000
0100
0001
1000
0010
0100
0000
,
1000
0100
0001
0000
1001
0000
0100
0100
,
0100
0000
0010
1000
0001
0100
0010
0000
,
0001
0010
1000
0000
1001
0000
0100
0100
,
0100
0000
0010
0100
0001
0100
1000
0000
,
0001
0010
0100
0000
1001
0000
0010
0010
,
0010
0000
1000
0100
0010
0001
1000
0000
,
0100
1000
0010
0000
1001
0000
0010
0010
,
0010
0000
0100
0001
0010
0100
1000
0000
,
0010
1000
0100
0000
0011
0000
1100
0000
,
0001
0000
1000
0010
0100
0001
1000
0000
,
0100
0001
0010
0000
1100
0000
0011
0000
,
0001
0000
1000
0110
0000
0200
0000
0000
,
0301
0000
1000
0000
0010
1000
0010
0000
0100
0000
0001
0000
0000
0000
0010
0000
,
0001
0000
1000
0100
0010
0001
1000
0000
,
0001
0010
0100
0000
1000
0010
0100
0001
,
1000
0000
0010
1000
0100
0001
0100
0000
,
1000
0010
0001
0010
1000
0000
0001
0010
,
0100
1000
0010
0001
0000
0010
1000
0001
,
0110
1001
0110
1001
,
0100
0010
0001
1000
0001
0100
0010
1000
,
0001
0100
1000
0100
0001
0100
1000
0100
,
0002
0000
0000
0000
0000
0000
0000
0000
0000
0000
0000
0000
0003
1000
0000
0000
,
0001
0010
1001
0100
0010
2002
0000
3003
,
0000
0000
0000
0100
0000
0000
0000
0000
0000
0000
0000
0000
0000
0000
0000
0000
0000
0000
0000
0000
0000
0000
0000
0000
0000
0000
0000
0000
0000
0000
0000
0000
0001
0000
0000
0000
0010
0000
0000
0000
0001
0000
0000
0000
0010
0000
0000
0000
0001
0000
0000
0000
0000
0000
0000
0000
1000
0000
0000
0000
0000
0000
0000
0000
,
0200
0000
0000
0000
0000
0301
0000
0000
0100
0000
0010
0000
1001
0000
0100
0000
,
0010
2002
0000
0000
0000
0000
3003
0000
,
1000
0100
1000
0100
1000
0000
0010
0000
0200
0000
0000
0000
0000
0301
0000
0000
,
1000
0010
0110
0001
1000
0210
0000
0000
,
0000
0000
0000
0000
0300
0000
0000
0000
0001
0100
0001
0100
0001
0000
0010
0000
,
0100
0000
0000
0000
0000
0100
0000
0000
1000
0000
0001
0000
0110
0000
1000
0000
,
0001
0120
0000
0000
0030
2000
0000
0000
,
3001
0000
0010
1000
0010
0001
0100
1000
,
0100
0000
0001
1000
0000
1000
0001
0000
,
1000
0010
1000
0100
0010
0000
1000
0010
,
0001
0000
0100
0001
0000
0001
0100
0000
,
0010
1000
0100
1000
0001
0000
0010
0001
,
0100
0000
0010
1000
0000
1000
0010
0000
,
0100
0001
1000
0000
0100
0010
0100
1000
,
0010
0000
0100
0010
1000
0010
1000
0010
,
0100
0000
0011
0000
0001
0010
0001
0010
,
0100
0000
1100
0000
0100
1000
0100
1000
,
0001
0000
0101
0000
0100
0010
0100
0010
,
1000
0000
1010
0010
0100
0010
0100
0010
,
0100
0001
0010
0000
0100
1000
0100
1000
,
0001
0100
0010
0100
0000
0010
1000
0000
,
0001
1000
0001
1000
0010
1000
0100
0010
,
0001
0100
0001
0010
0000
0100
0010
0100
,
1000
0000
1001
0000
0100
1000
0010
0100
,
0001
0010
0001
0100
0000
0010
0100
0010
,
1000
0000
1001
0000
0010
0001
0100
0010
,
1000
0100
0010
0100
0000
0001
0010
0100
,
1000
0000
0011
0000
0100
1000
0010
0100
,
0001
0010
0100
0010
0000
1000
0010
0100
,
0001
0000
1100
0000
0010
0001
0100
0001
,
0010
0100
1000
0010
1000
0100
0001
0020
,
0000
0000
0000
0000
,
0000
0000
0000
0030
;

//---------------dance-double - ----------------
#NOTES:
     dance-double:
     :
     Easy:
     5:
     0.244775,0.330600,0.038289,0.114867,0.000000,179.000000,175.000000,4.000000,12.000000,0.000000,0.000000,0.244775,0.330600,0.038289,0.114867,0.000000,179.000000,175.000000,4.000000,12.000000,0.000000,0.000000:
00000000
00000000
00000000
00000000
,
00000000
00000000
00000000
00000000
,
00000000
00000000
00000000
00000000
,
00000000
00000000
00000000
00000000
,
00000000
00000000
00000000
00000000
,
00000001
00000000
00000000
00000000
,
00000100
00000000
00000000
00000000
,
00001000
00000000
00000000
00000000
,
00010000
00000000
00000000
00000000
,
01000000
00000000
01000000
00000000
,
10000000
00000000
10000000
00000000
,
00100000
00000000
00100000
00000000
,
01000000
00000000
00100000
00000000
,
10000000
00000000
10000000
00000000
,
01000000
00000000
01000000
00000000
,
00010000
00000000
00010000
00000000
,
00001000
00000000
00001000
00000000
,
00000100
00000001
00000100
00000000
,
00000200
00000000
00000000
00000300
,
00000010
00001000
00000010
00000000
,
00000020
00000000
00000000
00000030
,
00001000
00000100
00001000
00000000
,
00002000
00000000
00000000
00003000
,
00010000
00001000
00010000
00000000
,
00020000
00000000
00000000
00030000
,
00001000
00010000
01000000
00000000
,
10000000
00100000
10000000
00000000
,
00010000
01000000
00100000
00000000
,
10000000
00010000
10000000
00000000
,
01000000
00010000
00001000
00000000
,
00000100
00000001
00000100
00000000
,
00000001
00000010
00000100
00000000
,
00001000
00000001
00001000
00000000
,
00000010
00000100
00000001
00001000
,
00000000
00000100
00001001
00000000
,
00000001
00000100
00001000
00010000
,
00000000
00001000
00011000
00000000
,
00010000
01000000
10000000
00010000
,
00000000
01000000
10010000
00000000
,
00100000
10000000
01000000
00010000
,
00000000
00001000
00011000
00000000
,
00002000
00000000
00000000
00003000
,
00000100
00000001
00000100
00000001
,
00000200
00000300
00000020
00000030
,
00001000
00000001
00000200
00000000
,
00000000
00000000
00000300
00000000
,
00001000
00000000
00010000
00000000
,
00002000
00000000
00000000
00003000
,
00000000
00010000
00000000
01000000
,
00000000
10000000
20000000
00000000
,
00000000
30000000
00100000
00000000
,
01000000
00000000
00010000
10000000
,
02000000
00000000
00000000
03000000
,
01000000
00010000
00001000
00000000
,
00000100
00000000
00000001
00000000
,
00000010
00000001
00001000
00000000
,
00000010
00000001
00001000
00000000
,
00000100
00000000
00010000
00000000
,
00001000
00010000
00001000
00000000
,
00010000
00001000
00010000
00000000
,
01000000
10000000
00100000
00000000
,
10000000
00010000
10000000
00010000
,
10000000
00000000
01000000
00000000
,
00010000
00001000
00010000
00001000
,
00010000
00000000
00000100
00000000
,
00000010
00000100
00000010
00000100
,
00000010
00000000
00000001
00000000
,
00000100
00001000
00000100
00001000
,
00000100
00000000
00001000
00000000
,
00010000
01000000
00010000
00000000
,
10000000
01000000
10000000
00000000
,
00100000
01000000
00100000
00000000
,
01000000
00010000
01000000
00000000
,
00001000
00010000
00001000
00000000
,
00000100
00000001
00000100
00000000
,
00001000
00010000
00001000
00010000
,
00002000
00000000
00000000
00003000
;

//---------------dance-double - ----------------
#NOTES:
     dance-double:
     :
     Medium:
     8:
     0.395196,0.483756,0.153155,0.191444,0.000000,289.000000,273.000000,16.000000,20.000000,0.000000,0.000000,0.395196,0.483756,0.153155,0.191444,0.000000,289.000000,273.000000,16.000000,20.000000,0.000000,0.000000:
00000000
00000000
00000000
00000000
,
00000000
00000000
00000000
00000000
,
00000000
00000000
00000000
00000000
,
00000000
00000000
00000000
00000000
,
00000000
00000000
00000000
00000000
,
00000001
00000001
00001000
00001000
,
00000100
00000000
00001000
00000001
00000000
00000000
00000000
00000000
,
00000100
00000100
00001000
00001000
,
00010000
00000000
00001000
00000100
00000000
00000000
00000000
00000000
,
00001000
00001000
00010000
00010000
,
00100000
00000000
01000000
00100000
00000000
00000000
10000000
00000000
,
10000000
00010000
00010000
00100000
,
01000000
00000000
10000000
00000000
00100000
01000000
00100000
00000000
,
00010000
00001000
00000100
00000010
,
00001000
00000000
00000001
00001000
00000000
00000000
00000001
00000000
,
00000010
00000100
00001000
00000010
,
00010000
00000000
00001000
00010000
00000000
00000000
00100000
00000000
,
10000000
00010000
00100000
01000000
,
10000000
00000000
00010000
10000000
00000000
00000000
00100000
00000000
,
01000000
00001000
00010000
00000100
,
00001000
00000000
00000010
00000100
00000000
00000100
00000010
00000000
,
00000002
00000000
00002003
00000000
,
00003100
00000100
00000010
00000010
,
00000200
00000000
00000320
00000000
,
00001030
00001000
00010000
00010000
,
00001000
00001000
00001000
00001000
,
00100000
00100000
00100000
00100000
,
00010000
10000000
00100000
01100000
,
01000000
00000000
00010000
00100000
00010000
00000000
00001000
00010000
,
00002000
00000000
00000000
00003000
00000200
00000000
00000000
00000300
,
00000001
00000010
00000001
00000100
,
00000010
00000000
00001000
00000001
00000000
00000000
00000010
00000000
,
00001000
00000000
00010000
00100000
00000000
00000000
00010000
00000000
,
00001000
00000000
00000100
00000001
00000000
00000000
00000100
00000000
,
00001000
00010000
00100000
10000000
,
00010000
00000000
00100000
01000000
00000000
00000000
10000000
00000000
,
00010000
00100000
00010000
01000000
,
00100000
00000000
10000000
00010000
00000000
00000000
00100000
00000000
,
00001000
00010000
00000100
00001000
,
00000010
00000000
00000100
00000001
00000000
00001000
00000100
00000000
,
00000000
00000010
00000001
00001000
,
00001001
00000000
00000110
00000000
,
00000101
00001100
00011000
00110000
,
02000000
00000000
00000000
03000000
,
00000000
00000000
10010000
00000000
00000000
11000000
00000000
00000000
,
00200000
00000000
00000000
00300000
,
00001000
00010000
00000100
00001100
,
00000000
00002002
00000000
00000000
00000000
00000000
00003003
00000000
,
00000010
00001000
00000100
00010000
,
00001000
00000000
00101000
00000000
00000000
00220000
00000000
00000000
,
00000000
00000000
00330000
00010000
,
10000000
00100000
01000000
01010000
,
00000000
00022000
00000000
00000000
00000000
00000000
00033000
00000000
,
00001000
00010000
00001000
00010000
,
00000100
00001000
00000100
00001000
,
00000010
00000010
00000100
00000100
,
00000001
00001000
00000100
00000000
00000010
00000000
00000010
00000000
,
00000001
00000100
00000010
00000000
00001000
00000000
00001000
00000000
,
00000100
00010000
00001000
00000000
00100000
00000000
00100000
00000000
,
00010000
01000000
00100000
01000000
00000000
00000000
00100000
00000000
,
10000000
00010000
00100000
01000000
,
10000000
01000000
00100000
00020000
00000000
00000000
00000000
00000000
,
00130000
00001000
00010000
00000100
,
00001000
00000010
00000100
00000020
00000000
00000000
00000000
00000000
,
00001030
00000001
00000010
00000100
,
00001000
00000100
00001000
00000020
00000000
00000000
00000000
00000000
,
00000130
00001000
00010000
00100000
,
01000000
00010000
01000000
00200000
00000000
00000000
00000000
00000000
,
10300000
00010000
00100000
01000000
,
10000000
01000000
00010000
00001000
,
00000100
00000000
00000001
00000010
00000000
00000010
00000001
00000000
,
00001000
00000010
00000100
00001000
,
00010000
00000000
00100000
10000000
00000000
10000000
00100000
00000000
,
01000000
00010000
00100000
00001000
,
00010000
00000000
00000100
00001000
00000000
00001000
00000100
00000000
,
00000010
00000001
00000100
00000010
,
00001000
00000000
00000100
00010000
00000000
00010000
00000100
00000000
,
00022000
00000000
00000000
00033000
;

//---------------dance-double - ----------------
#NOTES:
     dance-double:
     :
     Hard:
     13:
     0.661850,0.640740,0.344600,0.124439,0.057433,484.000000,448.000000,36.000000,13.000000,0.000000,0.000000,0.661850,0.640740,0.344600,0.124439,0.057433,484.000000,448.000000,36.000000,13.000000,0.000000,0.000000:
00000000
00000000
00000000
00000000
,
00000000
00000000
00000000
00000000
,
00000000
00000000
00000000
00000000
,
00000000
00000000
00000000
00000000
,
00000000
00000000
00000000
00000000
,
00010000
01000000
00010000
00100000
00010000
01000000
10000000
00000000
,
01000000
00010000
00100000
00001000
00000000
00010000
00000100
00001000
,
00000010
00000100
00000010
00001000
00000100
00001000
00000010
00000000
,
00000001
00000010
00001000
00000000
00000001
00000100
00002000
00000000
,
00013000
00001000
00100000
01000000
00100000
00010000
10000000
00000000
,
00100000
01000000
00010000
00100000
00000000
00100000
01000000
10000000
,
00100000
10000000
01000000
00010000
00001000
00000100
00000001
00000100
,
00001000
00010000
01000000
00010000
00001000
00000000
00011000
00000000
,
00000010
00001000
00000100
00000010
00000001
00001000
00000001
00000000
,
00000110
00000000
00000100
00001000
00010000
00001000
00010000
00000000
,
00011000
00000000
00010000
01000000
10000000
01000000
10000000
00000000
,
10100000
00000000
00100000
01000000
00100000
01000000
00010000
00000000
,
00100000
00010000
01000000
00100000
10000000
00010000
10000000
00000000
,
01100000
00000000
01000000
00010000
00001000
00010000
00001000
00000000
,
00011000
00000000
00001000
00000100
00000001
00000100
00000001
00000000
,
00000011
00000000
00000010
00000100
00000010
00000100
00001000
00000001
,
00001001
00000000
00000100
00000001
00001000
00000001
00000100
00000000
,
00001000
00100000
00001000
00000000
00110000
00000000
00100000
01000000
,
10000000
00000000
00100000
10000000
00010000
10000000
00100000
00000000
,
00010000
00000100
00010000
00000000
00001100
00000000
00000100
00000010
,
00000001
00000000
00000100
00000010
00000100
00000001
00001000
00000000
,
00000100
00010000
00000100
00000000
00011000
00000000
00100000
00001000
,
00100000
00000000
01000000
00100000
01000000
10000000
00010000
00000000
,
01000000
00001000
01000000
00000000
00011000
00000000
00000010
00010000
,
00000010
00000000
00000100
00000010
00001000
00000001
00001000
00000000
,
00000100
00001000
00000010
00000000
00000101
00000000
00001010
00000000
,
00001000
00000000
00000100
00010000
00001000
00100000
00001000
00000000
,
00010000
00001000
01000000
00000000
01010000
00000000
10100000
00000000
,
10000000
00000000
00010000
10000000
00000000
00020000
00000000
00000000
,
00130000
00000000
01000000
00000000
10000000
01000000
10000000
00000000
00010000
00000000
00100000
00000000
00000000
00000000
00100000
00000000
,
00001000
00000000
00010000
00001000
00000100
00000001
00000100
00000000
,
00000010
00000001
00000010
00000000
00001000
00000010
00001000
00000100
,
00010000
00000000
00001000
01000000
00100000
00010000
00100000
00000000
,
01000000
10000000
01000000
00010000
10000000
00000000
00010000
00100000
,
01000000
10000000
00100000
00010000
00000000
00001000
00010000
00001000
,
00011000
00001100
00000110
00000011
,
00000001
00000100
00000010
00000100
00001000
00010000
01000000
00100000
,
01000000
10000000
00100000
10000000
01000000
10000000
00100000
10000000
,
00020000
00000000
00000000
00000000
00000000
00000000
00000000
00000000
00000000
00000000
00000000
00000000
00030000
10000000
00000000
00000000
,
00100000
01000000
10010000
00010000
10000000
20020000
00000000
30030000
,
00000000
00000000
00000000
01000000
00000000
00000000
00000000
00000000
00000000
00000000
00000000
00000000
00000000
00000000
00000000
00000000
00000000
00000000
00000000
00000000
00000000
00000000
00000000
00000000
00000000
00000000
00000000
00000000
00000000
00000000
00000000
00000000
00001000
00000000
00000000
00000000
00010000
00000000
00000000
00000000
00001000
00000000
00000000
00000000
00010000
00000000
00000000
00000000
00001000
00000000
00000000
00000000
00000000
00000000
00000000
00000000
00000100
00000000
00000000
00000000
00000000
00000000
00000000
00000000
,
00000020
00000000
00000000
00000000
00000000
00001030
00000000
00000000
00000100
00000000
00000010
00000000
00001001
00000000
00001000
00000000
,
00000001
00002002
00000000
00000000
00000000
00000000
00003003
00000000
,
00000010
00000100
00000010
00000100
00000010
00000000
00001000
00000000
00000002
00000000
00000000
00000000
00000000
00000013
00000000
00000000
,
00001000
00010000
00001100
00010000
00001000
00210000
00000000
00000000
,
00000000
00000000
00000000
00000000
00300000
00000000
00000000
00000000
01000000
10000000
01000000
10000000
01000000
00000000
00100000
00000000
,
00010000
00000000
00000000
00000000
00000000
01000000
00000000
00000000
00100000
00000000
00010000
00000000
01010000
00000000
00001000
00000000
,
00010000
00001200
00000000
00000000
00000000
00000320
00000000
00000000
,
00000031
00000000
00000100
00000001
00000010
00000100
00000010
00000001
,
00001000
00000000
00000100
00010000
00000000
00001000
01000000
00000000
,
00100000
01000000
00100000
10000000
00010000
00000000
00100000
01000000
,
00100000
00000000
00001000
00010000
00000000
00000100
00000010
00000000
,
00000001
00000010
00000001
00001000
00000100
00000000
00000010
00000100
,
00001000
00000000
00000010
00010000
00000000
00001000
00100000
00000000
,
00010000
01000000
00100000
00000000
01000000
00010000
01000000
00100000
,
10000000
00000000
00010000
00100000
00000000
00001000
00010000
00001000
,
00010000
00000000
00001100
00000000
00000010
00001000
00000010
00001000
,
00000100
00000000
00000011
00000000
00000100
00001000
00000100
00001000
,
00000010
00000000
00011000
00000000
01000000
00010000
01000000
00010000
,
00100000
00000000
11000000
10000000
01000000
10000000
01000000
10000000
,
00100000
00010000
00001000
00000000
00010000
00001000
00000100
00000010
,
00001000
00000001
00001000
00000100
00000000
00000010
00000001
00000000
,
00001000
00000010
00001000
00000100
00010000
00001000
01000000
00100000
,
10000000
01000000
10000000
00010000
00000000
01000000
00100000
01000000
,
00010000
00000000
10010000
00000000
01000000
00010000
00100000
00001000
,
00010000
00000100
00010000
00001000
00000000
00010000
00000010
00001000
,
00000001
00000000
00001001
00000000
00000010
00001000
00000100
00010000
,
00001000
00100000
00001000
00010000
00000000
00001000
01000000
00010000
,
10000000
00000000
10010000
00000000
01000000
00010000
00100000
01000000
,
00100000
00001000
00010000
00000100
00000000
00000010
00000001
00001000
,
00000001
00000000
00001001
00000000
00000100
00001000
00000010
00010000
,
00001000
01000000
00010000
00100000
01000000
10000000
00010000
20000000
,
00000000
00000000
00000000
00000000
,
00000000
00000000
00000000
30000000
;

//---------------dance-single - ----------------
#NOTES:
     dance-single:
     :
     Challenge:
     17:
     0.962692,0.979956,0.134011,0.153155,0.751419,704.000000,690.000000,14.000000,16.000000,0.000000,0.000000,0.962692,0.979956,0.134011,0.153155,0.751419,704.000000,690.000000,14.000000,16.000000,0.000000,0.000000:
// measure 0
0000
0000
0000
0000
,  // measure 1
0000
0000
0000
0000
,  // measure 2
0000
0000
0000
0000
,  // measure 3
0000
0000
0000
0000
,  // measure 4
0000
0000
0000
0000
,  // measure 5
0001
0000
0010
0000
0100
0000
1000
0000
0001
0100
0001
0000
0010
0000
0100
0000
,  // measure 6
1000
0010
1000
0000
0001
0000
1000
0100
1000
0000
0010
0000
0100
0000
0000
0000
,  // measure 7
0001
0000
1000
0000
0010
0000
0100
0000
0001
1000
0001
1000
0000
0010
0100
0000
,  // measure 8
0001
0000
0001
0000
1000
0100
1000
0100
0010
0001
0010
0001
0100
0000
0000
0000
,  // measure 9
0010
0000
1000
0000
0100
0000
0010
0000
0001
1000
0001
0000
0100
0000
0010
0000
,  // measure 10
1000
0100
1000
0000
0001
0000
0010
0100
0010
0000
0001
0000
1000
0001
1000
0000
,  // measure 11
0100
1000
0100
0000
0010
0000
0001
0000
1000
0000
0010
0000
1000
0000
0001
0000
,  // measure 12
0010
0100
1000
0010
0100
0001
1000
0001
,  // measure 13
0010
0000
0001
0000
0100
0000
0010
0000
1000
0000
0100
0000
1000
0001
1000
0000
,  // measure 14
0001
0100
0001
0000
0010
0000
0100
1000
0100
0000
1000
0000
0001
0000
0000
0000
,  // measure 15
0100
0000
0100
0000
0010
1000
0010
1000
0001
0100
0001
0100
0001
0000
1000
0000
,  // measure 16
0010
1000
0010
1000
0010
0000
0100
0001
0100
0001
0100
0000
0001
1000
0001
0000
,  // measure 17
0010
0000
0100
0000
1000
0000
0001
0000
1000
0010
1000
0010
1000
0001
0100
0000
,  // measure 18
0010
0000
0100
0001
0100
0000
0010
0000
1000
0100
1000
0000
0001
1000
0001
0100
,  // measure 19
0010
0000
1000
0000
0001
0000
0010
0000
0100
1000
0001
0000
0100
0010
0100
0010
,  // measure 20
0100
0000
0001
0000
1000
0010
1000
0010
0100
0001
0010
0000
0100
1000
0001
0000
,  // measure 21
1000
0000
0010
0000
0100
0000
0001
0000
0010
0100
0010
0001
1000
0000
0100
0000
,  // measure 22
1000
0010
1000
0010
1000
0000
0001
0000
0100
0001
0100
0000
0010
0000
0100
0000
,  // measure 23
0010
0000
1000
0000
0100
0000
0010
0000
0001
1000
0001
0000
0100
0001
1000
0010
,  // measure 24
1000
0000
0100
0010
0001
0000
0001
0000
1000
0010
1000
0000
0100
0010
0001
0100
,  // measure 25
0001
0010
0100
1000
0001
0100
0010
1000
,  // measure 26
0100
0000
1000
0010
1000
0000
0001
0000
0010
0100
1000
0000
0010
0000
0000
0000
,  // measure 27
0100
0000
0001
0000
1000
0100
1000
0000
0010
0000
0001
0010
0001
0000
0100
0000
,  // measure 28
0001
0000
1000
0010
1000
0000
0001
0000
0101
0000
0101
0000
1001
0000
0000
0000
,  // measure 29
0010
0000
1000
0000
0010
0000
0100
0000
0001
0000
0010
0001
1000
0000
0100
0000
,  // measure 30
1000
0010
1000
0010
1000
0100
0010
0000
0001
0000
0001
0000
1001
0000
0000
0000
,  // measure 31
0010
0000
1000
0001
0100
0000
0010
0000
1000
0001
0010
0001
1000
0000
0100
0000
,  // measure 32
1000
0000
0010
0000
1000
0000
0001
0000
0010
0100
1000
0000
0001
0100
0001
0000
,  // measure 33
0012
0000
1003
2100
0000
0001
3001
0000
,  // measure 34
1000
0000
0010
0000
0100
0001
0100
0001
0010
0000
0100
0000
1000
0000
0000
0000
,  // measure 35
0010
0000
1000
0000
0001
0000
1000
0000
0100
0000
0010
0001
0100
0000
0010
0000
,  // measure 36
1000
0000
0001
0100
0001
0000
1000
0000
0010
0100
0010
0000
1000
0100
0010
0001
,  // measure 37
1000
0000
0010
0000
1000
0000
0001
0000
0010
0100
1000
0000
0010
0100
0001
1000
,  // measure 38
0010
1000
0100
0010
0001
1000
0001
0100
,  // measure 39
0010
0000
0100
0000
0001
0000
1000
0000
0100
0010
0001
0000
1000
0000
0010
0000
,  // measure 40
1000
0000
0001
0010
0001
0000
0100
0000
0010
1000
0001
0000
0100
0000
0010
0000
,  // measure 41
1000
0001
1000
0001
1000
0000
0010
0000
0100
0000
0001
0000
0010
0000
0100
0000
,  // measure 42
1000
1000
0001
0001
0100
0100
0010
0010
,  // measure 43
1000
0000
0001
0000
0100
0010
0100
0010
0100
0010
0100
0010
1000
0000
0001
0000
,  // measure 44
0010
0001
0100
0000
0010
0000
1000
0000
0100
0000
0010
0000
0001
0000
0000
0000
,  // measure 45
2000
0000
0000
0000
3002
0000
0000
0000
0103
0010
0100
0010
1000
0001
0100
0000
,  // measure 46
0001
0010
0100
0000
1000
0001
0000
0000
0001
0010
0001
0000
1000
0000
0010
0000
,  // measure 47
1000
0001
0200
0000
0020
0000
0300
0000
,  // measure 48
1030
0010
1000
0000
0001
0100
0000
0100
0001
1000
0001
0010
0000
0100
0000
0000
,  // measure 49
1000
0100
1000
0000
0010
0000
0100
0000
0001
0000
1000
0000
0100
0000
0000
0000
,  // measure 50
2000
0000
0000
0000
3020
0000
0000
0000
0130
0001
0010
0100
1000
0001
0100
0000
,  // measure 51
0001
1000
0010
0100
0001
0000
0010
0000
0100
0000
1000
0000
0002
0000
0000
0000
,  // measure 52
0203
0320
2030
3001
,  // measure 53
1001
0000
0000
0000
1000
0000
0010
0000
0100
0001
0100
0000
0001
0000
1000
0000
,  // measure 54
0110
0000
0000
0000
1000
0000
0010
0000
1000
0001
0100
0000
0000
0000
0010
0000
,  // measure 55
1000
0000
1000
0000
0001
0010
0100
0010
0001
0100
0010
0000
1000
0001
0100
0000
,  // measure 56
0010
0000
0010
0000
1000
0000
0001
0000
1000
0100
1000
0000
0001
0100
0000
0000
,  // measure 57
1010
0000
0000
0000
0010
0000
1000
0000
0001
0010
0100
0000
1000
0000
0010
0000
,  // measure 58
0100
0000
0001
0000
0010
0000
0100
0000
1000
0000
0010
0000
1000
0001
0010
0100
,  // measure 59
1000
0000
0001
0000
1000
0010
0100
0010
0100
0000
0001
0000
0010
0000
0000
0000
,  // measure 60
0011
0000
0000
0001
1000
0000
0100
0000
1000
0010
1000
0000
0010
0100
0001
0000
,  // measure 61
0102
0000
0000
0000
0013
0000
0100
0000
1000
0000
0001
0100
0001
0000
1000
0000
,  // measure 62
1200
0000
0000
0000
1300
0000
0001
0000
1000
0100
0010
0001
0100
0010
1000
0001
,  // measure 63
0010
0000
0001
1000
0100
1000
0100
0000
0010
0001
0010
0000
0001
0000
0000
0000
,  // measure 64
1000
0000
0001
0000
0010
0000
0100
0000
0010
0000
0001
1000
0100
1000
0001
0000
,  // measure 65
0010
0000
0000
0000
0010
0000
0001
0000
1000
0000
0100
0000
1000
0001
0100
0000
,  // measure 66
0001
0000
1000
0000
0001
0000
0010
0000
0100
0000
1000
0000
0010
1000
0100
0000
,  // measure 67
0010
0000
0001
1000
0010
0100
0001
0000
0010
0000
0100
1000
0010
1000
0001
0000
,  // measure 68
1000
0010
0100
0001
0010
0100
1000
0001
,  // measure 69
0010
0001
1000
0001
1000
0100
0010
0100
,  // measure 70
1000
0000
0010
0000
0100
0000
0001
0000
1000
0001
1000
0001
0010
0100
1000
0000
,  // measure 71
0001
0000
0000
0000
0001
0000
0100
0000
0010
1000
0001
0010
0001
0100
0010
1000
,  // measure 72
0100
0000
1000
0000
0010
0100
0001
0000
0010
0100
1000
0001
0010
0001
0100
0000
,  // measure 73
0001
0000
1000
0000
0010
1000
0001
0000
0010
0001
1000
0100
1000
0000
0010
0000
,  // measure 74
0200
0000
0000
0000
0310
0000
0100
0000
0001
1000
0100
1000
0001
0000
0010
0000
,  // measure 75
1001
0000
0000
0000
1000
0000
0001
0000
0010
0000
0001
0000
1000
0010
0100
0000
,  // measure 76
0110
0000
0010
0000
0100
0000
0001
0000
1000
0001
0010
0001
0010
0100
1000
0000
,  // measure 77
0020
0000
0000
0000
,  // measure 78
0000
0000
0000
0030
;
