#TITLE:Siesta;
#SUBTITLE:;
#ARTIST:Ikson;
#TITLETRANSLIT:;
#SUBTITLETRANSLIT:;
#ARTISTTRANSLIT:;
#GENRE:;
#CREDIT:;
#BANNER:Siesta-bn.png;
#BACKGROUND:Siesta-bg.png;
#LYRICSPATH:;
#CDTITLE:;
#MUSIC:Siesta.ogg;
#OFFSET:0.000000;
#SAMPLESTART:98.444000;
#SAMPLELENGTH:20.000000;
#SELECTABLE:YES;
#DISPLAYBPM:135.000000;
#BPMS:0.000000=135.000000
;
#STOPS:
;
#BGCHANGES:;
#KEYSOUNDS:;
#ATTACKS:;

//---------------dance-single - ----------------
#NOTES:
     dance-single:
     :
     Hard:
     11:
     0.411588,0.476670,0.178355,0.370429,0.000000,420.000000,394.000000,26.000000,54.000000,0.000000,0.000000,0.411588,0.476670,0.178355,0.370429,0.000000,420.000000,394.000000,26.000000,54.000000,0.000000,0.000000:
0000
0000
0000
0000
,
0000
0000
0000
0000
,
0000
0000
0000
0000
,
0000
0000
0000
0000
,
0000
0000
0000
0000
,
0000
0000
0000
0000
,
0000
0000
0000
0000
,
0000
0000
0000
0010
1000
0100
0010
0001
,
0100
0000
0010
1000
0001
0010
0000
0100
,
0000
1000
0000
0001
1000
0010
1000
0100
,
0010
0000
0001
0100
0010
1000
0000
0001
,
0000
1000
0000
0100
0010
0100
1000
0001
,
0100
0000
0001
0010
0100
1000
0000
0010
,
0000
0100
0000
0001
0010
0100
1000
0010
,
0100
0000
0001
0010
0001
0100
0000
1000
,
0000
0001
0000
1000
0001
0010
0100
1000
,
0010
0000
1000
0001
1001
0100
0000
0010
,
0000
1000
0000
0100
1000
0010
0100
0001
,
1000
0000
0001
0010
0110
0100
0000
1000
,
0000
0010
0000
1000
0100
0001
0010
0100
,
1000
0000
0010
0100
0101
0001
0000
1000
,
0000
0100
0000
1000
0001
0010
0100
1000
,
0010
0000
0100
0010
1010
1000
0000
0001
,
0000
0010
0000
0001
0100
0010
1000
0001
,
0010
0000
0001
0200
0000
0320
0000
2030
,
0000
3002
0000
0013
0100
1000
0000
0000
,
0001
0000
1000
0200
0000
0320
0000
0032
,
0000
2003
0000
3100
1100
0000
0011
0000
,
1000
0000
0001
2000
0000
3020
0000
0230
,
0000
0302
0000
0013
0001
1000
0000
0000
,
0010
0000
1000
0002
0000
2003
0000
3200
,
0000
0320
0000
0031
0101
0000
1010
0000
,
0100
0000
1000
0010
0100
0001
0000
0011
,
0000
1010
0000
1000
0100
0010
0001
0000
,
0100
0000
0001
0010
0001
1000
0000
1100
,
0000
0101
0000
0010
2000
0000
3002
0000
,
0013
0000
0001
1000
0100
0010
0000
0110
,
0000
1001
0000
1000
0100
0010
0001
0000
,
1000
0000
0001
0010
0100
1000
0000
1001
,
0000
0110
0000
0010
0200
0000
0320
0000
,
2030
0000
0000
0000
0000
3002
0000
0023
,
0000
0000
0000
0000
0000
0230
0000
1300
,
0002
0000
0000
0000
0000
0203
0000
0320
,
0000
2030
0000
0000
0000
0000
3010
0000
,
2020
0000
0000
0000
3030
0010
0100
0002
,
0000
0000
0000
0000
0000
2003
0000
3001
,
0202
0000
0000
0000
0303
0010
0100
2000
,
0000
3002
0000
0000
0000
0000
0103
0000
,
0010
0000
0000
1000
0001
1000
0000
0100
,
0000
0010
0000
0001
0100
0010
1000
0001
,
1000
0000
0000
0100
0010
0001
0000
0100
,
0000
0010
0000
0100
0001
0010
0100
1000
,
0010
0000
0000
0100
0001
0010
0000
1000
,
0000
0100
0000
1000
0010
0100
0001
1000
,
0001
0000
0000
0010
0100
1000
0000
0100
,
0000
1000
0000
0010
1000
0100
0010
0001
,
0100
0000
0010
1000
0010
0100
0001
1000
,
0000
0001
0000
0010
0001
1000
0100
0010
,
0001
0000
1000
0001
1000
0010
0100
0001
,
0000
0010
0000
0001
1000
0100
1000
0010
,
0100
0000
0001
0010
0100
1000
0001
0100
,
0000
0001
0000
0010
0100
1000
0010
1000
,
0001
0000
1000
0010
1000
0100
0010
0001
,
0000
0010
0000
1000
0100
1000
0010
0100
,
0001
0000
0010
0001
1001
0100
0010
1000
,
0000
1100
0000
0001
1000
0001
0010
0100
,
1000
0000
0010
0100
0110
0001
1000
0010
,
0000
0101
0000
1000
0100
0010
0100
0010
,
0001
0000
0100
0010
1010
1000
0001
1000
,
0000
0011
0000
0010
0100
0010
0001
1000
,
0010
0000
0100
0010
1010
1000
0100
0010
,
0000
1100
0000
0001
0010
0001
1000
0100
,
0010
0000
0001
0200
0000
0320
0000
2030
,
0000
3002
0000
0013
0001
0100
1000
0001
,
1000
0000
0001
0020
0000
0230
0000
2300
,
0000
3002
0000
1003
0001
0100
0010
0100
,
0001
0000
1000
0002
0000
0023
0000
0230
,
0000
2300
0000
3100
0010
0100
1000
0001
,
0010
0000
0001
2000
0000
3020
0000
0230
,
0000
0302
0000
0013
0100
1000
0001
0200
,
0020
0000
0000
0000
,
0000
0000
0000
0330
;

//---------------dance-single - ----------------
#NOTES:
     dance-single:
     :
     Medium:
     9:
     0.293011,0.364512,0.164635,0.452746,0.000000,299.000000,275.000000,24.000000,66.000000,0.000000,0.000000,0.293011,0.364512,0.164635,0.452746,0.000000,299.000000,275.000000,24.000000,66.000000,0.000000,0.000000:
0000
0000
0000
0000
,
0000
0000
0000
0000
,
0000
0000
0000
0000
,
0000
0000
0000
0000
,
0000
0000
0000
0000
,
0000
0000
0000
0000
,
0000
0000
0000
0000
,
0000
0000
0000
0010
1000
0100
0010
0001
,
0100
0000
0000
0001
1000
0000
0000
0000
,
0000
0000
0000
0001
0010
0100
1000
0001
,
0100
0000
0000
0010
1000
0000
0000
0000
,
0000
0000
0000
0100
0010
0100
1000
0001
,
1000
0000
0000
0010
0100
0000
0000
0000
,
0000
0000
0000
0001
0010
0001
0100
0010
,
1000
0000
0000
0001
0100
0000
0000
0000
,
0000
0000
0000
0001
1000
0001
0010
0100
,
1000
0000
0000
1000
0100
0000
0000
0000
,
0000
0000
0000
0100
1000
0010
1000
0001
,
0100
0000
0000
0001
0010
0000
0000
0000
,
0000
0000
0000
0010
0100
0010
0100
1000
,
0001
0000
0000
0001
1000
0000
0000
0000
,
0000
0000
0000
0010
1000
0100
1000
0001
,
0010
0000
0000
0100
0010
0000
0000
0000
,
0000
0000
0000
0001
1000
0001
0010
0100
,
0010
0000
0000
0002
0000
2003
0000
3002
,
0000
2003
0000
3000
0100
0010
0000
0000
,
0001
0000
0000
0200
0000
0320
0000
0230
,
0000
0320
0000
0030
1010
0000
1010
0000
,
0100
0000
0000
2000
0000
3020
0000
2030
,
0000
3020
0000
0030
1000
0001
0000
0000
,
0010
0000
0000
0002
0000
0203
0000
0302
,
0000
0203
0000
0300
0101
0000
0101
0000
,
1001
0000
0000
0002
0000
0023
0000
0032
,
0000
0023
0000
0030
0100
1000
0000
0000
,
0110
0000
0001
2000
0000
3200
0000
2300
,
0000
3200
0000
0300
0011
0000
0011
0000
,
1001
0000
0000
0002
0000
0023
0000
0230
,
0000
2300
0000
3000
1000
0001
0000
0000
,
0110
0000
0100
0020
0000
0230
0000
2300
,
0000
3002
0000
0003
1100
0000
1100
0000
,
0020
0000
0000
0000
0000
2030
0000
3002
,
0000
0000
0000
0000
0000
0203
0000
0000
,
0302
0000
0000
0000
0000
0023
0000
0230
,
0000
2300
0000
0000
3000
0000
0110
0000
,
0020
0000
0000
0000
0000
0230
0000
0302
,
0000
0000
0000
0000
0000
2003
0000
0000
,
3200
0000
0000
0000
0000
0320
0000
0032
,
0000
2003
0000
0000
3000
0000
1001
0000
,
0001
0000
0000
1000
0010
0000
0000
0000
,
0000
0000
0000
1000
0100
1000
0001
0100
,
0001
0000
0000
0010
0100
0000
0000
0000
,
0000
0000
0000
1000
0001
0010
0001
0100
,
1000
0000
0000
0001
1000
0000
0000
0000
,
0000
0000
0000
0001
0010
0100
1000
0010
,
0100
0000
0000
0100
0001
0000
0000
0000
,
0000
0000
0000
1000
0001
1000
0010
0100
,
0001
0000
0000
0010
0110
0000
0000
0000
,
0000
0000
0000
1000
0001
0010
0100
0010
,
0100
0000
0000
1000
1100
0000
0000
0000
,
0000
0000
0000
0010
0100
0001
0010
0100
,
1000
0000
0000
0001
0011
0000
0000
0000
,
0000
0000
0000
0100
0010
1000
0100
1000
,
0001
0000
0000
0100
0101
0000
0000
0000
,
0000
0000
0000
0001
1000
0001
0010
0100
,
1000
0000
0000
0010
1010
0000
0000
0000
,
0000
0000
0000
0100
0010
0001
1000
0001
,
0010
0000
0000
0001
1001
0000
0000
0000
,
0000
0000
0000
1000
0001
0100
0001
1000
,
0010
0000
0000
1000
1100
0000
0000
0000
,
0000
0000
0000
0100
0010
0100
0010
0001
,
1000
0000
0000
0001
0101
0000
0000
0000
,
0000
0000
0000
1000
0100
0010
0001
1000
,
0010
0000
0000
2000
0000
3002
0000
0023
,
0000
0230
0000
1300
0000
0000
0000
0000
,
0001
0000
0000
2000
0000
3020
0000
0230
,
0000
0302
0000
0003
0011
0000
1010
0000
,
0100
0000
0000
2000
0000
3020
0000
0230
,
0000
0302
0000
1003
0001
0010
0001
1000
,
0100
0000
0000
0020
0000
0230
0000
2300
,
0000
3002
0000
0013
0001
1000
0001
0200
,
0020
0000
0000
0000
,
0000
0000
0000
0330
;

//---------------dance-single - ----------------
#NOTES:
     dance-single:
     :
     Easy:
     5:
     0.193054,0.252355,0.178355,0.137196,0.000000,197.000000,171.000000,26.000000,20.000000,0.000000,0.000000,0.193054,0.252355,0.178355,0.137196,0.000000,197.000000,171.000000,26.000000,20.000000,0.000000,0.000000:
0000
0000
0000
0000
,
0000
0000
0000
0000
,
0000
0000
0000
0000
,
0000
0000
0000
0000
,
0000
0000
0000
0000
,
0000
0000
0000
0000
,
0000
0000
0000
0000
,
0000
0000
0010
0100
,
1000
0000
0001
0000
,
1000
0000
0100
0010
,
0001
0000
0100
0000
,
0001
0000
1000
0010
,
1000
0000
0100
0000
,
0001
0000
0100
0010
,
0100
0000
0001
0000
,
0010
0000
1000
0100
,
0010
0000
0110
0000
,
0001
0000
1000
0100
,
1000
0000
1001
0000
,
0010
0000
0100
0001
,
0100
0000
0110
0000
,
0001
0000
1000
0010
,
0001
0000
1001
0000
,
1000
0000
0100
0010
,
0001
0000
1000
0000
,
0010
0000
0110
0000
,
1000
0000
0100
0000
,
0001
0000
0020
0230
,
1300
0000
0100
0000
,
0001
0000
1001
0000
,
0010
0000
1000
0000
,
0100
0000
2000
3002
,
0103
0000
0001
0010
,
1000
0000
1001
0000
,
0010
0000
0100
0010
,
1000
0000
0002
0023
,
0031
0000
0100
0010
,
1000
0000
0110
0000
,
0010
0000
1000
0001
,
0010
0000
2000
3200
,
2300
0000
0000
3000
,
0002
0000
0000
0003
,
0200
0000
0000
0300
,
0020
0000
0000
0030
,
2002
0000
0000
3003
,
0020
0000
0000
0030
,
0220
0000
0000
0330
,
0002
0000
0000
0003
,
0010
0000
1001
0000
,
0001
0000
1000
0100
,
1000
0000
0110
0000
,
0100
0000
0010
0001
,
0100
0000
0110
0000
,
0001
0000
1000
0010
,
0001
0000
1001
0000
,
0100
0000
0010
1000
,
0100
0000
0110
0000
,
0001
0000
1000
0010
,
1000
0000
1001
0000
,
0100
0000
0010
0001
,
0010
0000
1001
0000
,
0100
0000
1000
0010
,
0001
0000
0110
0000
,
0010
0100
1000
0000
,
1001
0000
0110
0000
,
1000
0000
0100
0010
,
0110
0000
1001
0000
,
0001
0000
1000
0010
,
1001
0000
0110
0000
,
0100
0000
0010
1000
,
0110
0000
1001
0000
,
0001
0000
0010
0100
,
1000
0000
0010
0000
,
0100
0000
0001
1000
,
0010
0000
1000
0000
,
0100
0000
0010
0001
,
0010
0000
0001
0000
,
0100
0000
0010
1000
,
0001
0000
0100
0000
,
1000
0000
0001
0200
,
0020
0000
0000
0000
,
0000
0000
0000
0330
;

//---------------dance-single - ----------------
#NOTES:
     dance-single:
     :
     Beginner:
     2:
     0.104857,0.137196,0.000000,0.000000,0.000000,107.000000,107.000000,0.000000,0.000000,0.000000,0.000000,0.104857,0.137196,0.000000,0.000000,0.000000,107.000000,107.000000,0.000000,0.000000,0.000000,0.000000:
// measure 0
0000
0000
0000
0000
,  // measure 1
0000
0000
0000
0000
,  // measure 2
0000
0000
0000
0000
,  // measure 3
0000
0000
0000
0000
,  // measure 4
0000
0000
0000
0000
,  // measure 5
0000
0000
0000
0000
,  // measure 6
0000
0000
0000
0000
,  // measure 7
0000
0000
0000
0000
,  // measure 8
0010
0000
0010
0000
,  // measure 9
0000
0000
1000
0000
,  // measure 10
0001
0000
0001
0000
,  // measure 11
0000
0000
1000
0000
,  // measure 12
0100
0000
0100
0000
,  // measure 13
0000
0000
0010
0000
,  // measure 14
0001
0000
0001
0000
,  // measure 15
0000
0000
0100
0000
,  // measure 16
0001
0000
1000
0000
,  // measure 17
0000
0000
0100
0000
,  // measure 18
0010
0000
0100
0000
,  // measure 19
0000
0000
0010
0000
,  // measure 20
0001
0000
0100
0000
,  // measure 21
0000
0000
1000
0000
,  // measure 22
0001
0000
1000
0000
,  // measure 23
0000
0000
0010
0000
,  // measure 24
1000
0000
0000
0000
,  // measure 25
0000
0000
0001
0000
,  // measure 26
0100
0000
0000
0000
,  // measure 27
0000
0000
0010
0000
,  // measure 28
0010
0000
0000
0000
,  // measure 29
1000
0000
1000
0000
,  // measure 30
0100
0000
0000
0000
,  // measure 31
1000
0000
0001
0000
,  // measure 32
0010
0000
0010
0000
,  // measure 33
0010
0000
0010
0000
,  // measure 34
0100
0000
0100
0000
,  // measure 35
0100
0000
0100
0000
,  // measure 36
1000
0000
1000
0000
,  // measure 37
1000
0000
1000
0000
,  // measure 38
0001
0000
0001
0000
,  // measure 39
0001
0000
0001
0000
,  // measure 40
0010
0000
0000
0000
,  // measure 41
0001
0000
0000
0000
,  // measure 42
0100
0000
0000
0000
,  // measure 43
1000
0000
0000
0000
,  // measure 44
0001
0000
0000
0000
,  // measure 45
1000
0000
0000
0000
,  // measure 46
0010
0000
0000
0000
,  // measure 47
0100
0000
0000
0000
,  // measure 48
0001
0000
0001
0000
,  // measure 49
0000
0000
0010
0000
,  // measure 50
1000
0000
1000
0000
,  // measure 51
0000
0000
0100
0000
,  // measure 52
0010
0000
0010
0000
,  // measure 53
0000
0000
0100
0000
,  // measure 54
1000
0000
0001
0000
,  // measure 55
0000
0000
0010
0000
,  // measure 56
1000
0000
1000
0000
,  // measure 57
0000
0000
0100
0000
,  // measure 58
0010
0000
0010
0000
,  // measure 59
0000
0000
0001
0000
,  // measure 60
1000
0000
0001
0000
,  // measure 61
0000
0000
0100
0000
,  // measure 62
0100
0000
0010
0000
,  // measure 63
0000
0000
1000
0000
,  // measure 64
0001
0000
0001
0000
,  // measure 65
1000
0000
1000
0000
,  // measure 66
0010
0000
0010
0000
,  // measure 67
0100
0000
0100
0000
,  // measure 68
0001
0000
0001
0000
,  // measure 69
0010
0000
0010
0000
,  // measure 70
0100
0000
0100
0000
,  // measure 71
1000
0000
1000
0000
,  // measure 72
0001
0000
0000
0000
,  // measure 73
0000
0000
0001
0000
,  // measure 74
1000
0000
0000
0000
,  // measure 75
0000
0000
1000
0000
,  // measure 76
0100
0000
0000
0000
,  // measure 77
0000
0000
0100
0000
,  // measure 78
0010
0000
0000
0000
,  // measure 79
0000
0000
0010
0000
,  // measure 80
0010
0000
0000
0000
;
