#TITLE:Shoujo, matenrou e;
#SUBTITLE:;
#ARTIST:BEMANI Sound Team "U1 overground";
#TITLETRANSLIT:;
#SUBTITLETRANSLIT:;
#ARTISTTRANSLIT:;
#GENRE:;
#CREDIT:;
#BANNER:Shoujo, matenrou e.png;
#BACKGROUND:Shoujo, matenrou e-bg.png;
#LYRICSPATH:;
#CDTITLE:;
#MUSIC:Shoujo, matenrou e.ogg;
#OFFSET:0.000000;
#SAMPLESTART:12.780000;
#SAMPLELENGTH:20.000000;
#SELECTABLE:YES;
#DISPLAYBPM:75.000000:150.000000;
#BPMS:0.000000=75.000000
,16.000000=150.000000
;
#STOPS:
;
#BGCHANGES:;
#KEYSOUNDS:;
#ATTACKS:;

//---------------dance-single - ----------------
#NOTES:
     dance-single:
     :
     Hard:
     12:
     0.505726,0.503382,0.098793,0.139957,0.415754,430.000000,418.000000,12.000000,17.000000,0.000000,0.000000,0.505726,0.503382,0.098793,0.139957,0.415754,430.000000,418.000000,12.000000,17.000000,0.000000,0.000000:
0000
0000
0000
0000
,
0000
0000
0000
0000
,
0000
0000
0000
0000
,
0000
0000
0000
0000
,
0010
0000
0000
0010
1000
0000
0000
1000
0100
0000
0000
0100
0010
0000
0000
0000
,
0001
0000
0000
0001
1000
0000
0000
1000
0010
0000
0000
0010
0100
0000
0000
0000
,
1000
0000
0000
1000
0001
0000
0000
0001
0010
0000
0000
0010
0100
0000
0000
0000
,
1000
0000
0000
1000
0001
0000
0000
0001
0100
0000
0000
0100
0001
0000
0000
0000
,
0010
0000
0000
0010
0001
0000
0000
0001
0100
0000
0000
0100
0010
0000
0000
0000
,
1000
0000
0000
1000
0100
0000
0000
0100
0010
0000
0000
0010
0001
0000
0000
0000
,
0100
0000
0000
0100
0001
0000
0000
0001
1000
0000
0000
1000
0100
0000
0000
0000
,
1000
0000
0000
1000
0001
0000
0000
0001
0100
0000
0000
0100
0010
0000
0000
0000
,
1001
0000
0000
0010
1000
0000
0000
0100
0010
0000
0000
0100
0010
0000
0000
0001
,
0100
0000
0000
0010
1000
0000
0000
0100
0010
0000
0000
0100
1000
0000
0000
0001
,
0100
0000
0000
0001
1000
0000
0000
0100
0010
0000
0000
0100
1000
0000
0000
0010
,
0100
0000
0000
1000
0001
0000
0000
0010
0001
0000
0000
0100
0020
0000
0030
0000
,
0110
0000
0000
1000
0001
0000
0000
0100
0010
0000
0000
0100
0001
0000
0000
0010
,
0100
0000
0000
1000
0100
0000
0000
1000
0001
0000
0000
0010
0100
0000
0000
0010
,
0001
0000
0000
0010
0100
0000
0000
1000
0010
0000
0000
1000
0100
0000
0000
0010
,
0002
0000
0000
2003
0000
0000
3001
0100
0001
1000
0100
1000
,
0020
0000
0130
0000
0001
0100
1000
0000
,
0010
1000
0100
0010
0001
1000
0100
0000
,
2000
0000
3010
0000
0100
0001
1000
0000
,
0010
1000
0001
1000
0100
0010
0001
0000
,
0020
0000
0000
0000
0130
0000
0000
0001
1000
0000
0100
0000
0010
0000
0001
0000
,
0200
0000
0000
0000
0310
0000
0000
1000
0001
0000
1000
0000
0100
0000
0010
0000
,
0000
0000
0010
0000
0100
0000
0000
1000
0001
0000
0100
0000
0001
0000
1000
0000
,
0000
0000
0100
0000
0010
0000
0000
0100
1000
0000
0001
0000
0100
0000
0001
0000
,
2000
0000
0000
0000
3001
0000
0000
0010
0001
0000
1000
0000
0100
0000
0010
0000
,
0200
0000
0000
0000
1300
0000
0000
0010
1000
0000
0100
0000
0010
0000
0001
0000
,
1000
0100
0010
0001
0000
0010
0001
1000
,
0001
1000
0100
0010
0001
0010
0100
1000
,
1001
0100
1000
0100
,
0001
0100
1000
0100
,
0001
0100
1000
0100
,
0001
0010
0100
1000
,
0010
0000
0000
0010
1000
0000
0000
1000
0100
0000
0000
0100
0010
0000
0000
0010
,
0001
0000
0000
0001
1000
0000
0000
1000
0010
0000
0000
0010
0100
0000
0000
0100
,
0010
0000
0000
0010
1000
0000
0000
1000
0001
0000
0000
0001
1000
0000
0000
1000
,
0100
0000
0000
0100
0010
0000
0000
0010
0001
0000
1000
0000
0100
0000
0000
0000
,
1002
0000
0100
0000
1000
1000
1003
0000
,
1200
0000
0001
0000
1000
1000
1300
0000
,
0120
0000
1000
0000
0100
0100
0130
0000
,
1002
0000
0010
0000
0100
0100
0103
0000
,
1020
0000
0001
0000
0100
0100
0130
0000
,
0201
0000
1000
0000
0001
0001
0301
0000
,
0210
0000
0010
0000
0001
0001
0301
0000
,
2010
0000
0010
0000
0100
0100
3100
0000
,
1001
0000
0000
0000
,
0000
0000
0000
0000
,
1000
1000
1000
1000
,
0001
0001
0001
0001
,
0010
0000
0000
0010
0001
0000
0000
0001
1000
0000
0000
0010
0100
0000
0000
0000
,
0001
0000
0000
1000
0100
0000
0000
0010
0001
0000
0000
0001
1000
0000
0000
0000
,
0010
0000
0000
0010
1000
0000
0000
0001
0100
0000
0000
0100
0001
0000
0000
0000
,
0010
0000
0000
0001
0100
0000
0000
0001
1000
0000
0000
1000
0010
0000
0000
0000
,
1000
0000
0000
0001
0010
0000
0000
0001
0100
0000
0000
0001
0010
0000
0000
0000
,
0100
0000
0000
0100
1000
0000
0000
1000
0010
0000
0000
0010
1000
0000
0000
0000
,
0100
0000
0000
0010
0100
0000
0000
1000
0010
0000
0000
0100
0001
0000
0000
0000
,
0010
0000
0000
0001
0100
0000
0000
0010
0100
0000
0000
0100
1000
0000
0000
0000
,
0001
0010
0100
0100
1000
1000
0001
0010
,
0100
0010
0001
1000
0001
0010
1000
0100
,
0100
1000
0001
0010
0100
0001
1000
0010
,
1000
0100
0010
0100
0001
1000
0001
0010
,
0100
0010
0100
1000
1000
0010
0001
0001
,
0001
1000
0100
1000
0010
0001
0010
0100
,
0010
0001
0100
0001
1000
0010
0100
1000
,
0010
0000
0001
0000
0100
0000
0010
0000
0100
0000
1000
0000
0001
1000
0001
1000
;

//---------------dance-single - ----------------
#NOTES:
     dance-single:
     :
     Medium:
     9:
     0.399877,0.419099,0.197586,0.181121,0.016466,340.000000,316.000000,24.000000,22.000000,0.000000,0.000000,0.399877,0.419099,0.197586,0.181121,0.016466,340.000000,316.000000,24.000000,22.000000,0.000000,0.000000:
0000
0000
0000
0000
,
0000
0000
0000
0000
,
0000
0000
0000
0000
,
0000
0000
0000
0000
,
0020
0230
0302
2003
,
3001
1000
0000
0010
1000
0000
0100
0010
,
0000
0000
0000
0000
0001
1000
0001
0000
,
0010
0100
1000
0000
0001
0000
0000
0000
,
1000
0000
0000
0001
0100
0000
0000
0000
0110
0000
0000
0000
1001
0000
0000
0000
,
0001
0010
0000
0001
0000
1000
0100
0000
,
1000
0010
0100
0000
0001
0000
1001
0000
,
0010
0100
1000
0000
0001
0000
0000
0000
,
2000
3002
0203
0320
,
0130
0001
0000
1000
0001
0000
0010
0100
,
1000
0000
1000
0000
1000
0001
0100
0000
,
0001
1000
0100
0000
0010
0000
0110
0000
,
0001
0000
0000
1000
0100
0000
0000
0000
1100
0000
0000
0000
0101
0000
0000
0000
,
0010
0100
1000
0001
0000
0100
0001
0000
,
0010
0000
0001
0000
1000
0001
0100
0000
,
0110
0000
1001
0000
1000
0001
0010
0100
,
2000
0000
3001
0000
1000
0001
0100
0000
,
0000
0001
1000
0001
0010
0100
1000
0000
,
0002
0000
0013
0000
0001
1000
0100
0000
,
0000
1000
0010
1000
0001
0010
0100
0000
,
2100
0000
3002
0000
0103
0010
1000
0000
,
0201
0000
0320
0000
0130
0001
1000
0000
,
2010
0000
3200
0000
0310
0001
1000
0000
,
0012
0000
2003
0000
3001
0100
0010
0000
,
1001
0000
0110
0000
0100
0001
1000
0000
,
1100
0000
0011
0000
0010
0100
1000
0000
,
0001
0010
0001
0000
1000
0010
1000
0000
,
0010
1000
0010
0100
0001
1000
0001
0100
,
0010
0100
0010
0100
,
0001
0100
1000
0100
,
0001
0100
1000
0100
,
0001
0100
1000
0100
,
0001
0010
1000
0010
,
0001
0010
1000
0010
,
0001
0010
1000
0010
,
0001
1000
0001
1000
,
1001
0000
0000
0000
0000
0001
1000
0100
,
1000
0000
0000
0000
0000
0010
0100
0001
,
1000
0000
0000
0000
0000
0001
1000
0001
,
0010
0001
1000
0010
1000
0001
0100
0010
,
1000
0000
0000
0000
0000
0100
0010
0001
,
0100
0000
0000
0000
0000
0001
0010
0001
,
1000
1000
1000
1000
,
0001
0001
0001
0001
,
1001
0000
0000
0000
,
0000
0000
0000
0000
,
0000
0000
0000
0000
0100
0010
0100
0000
,
0002
1000
0020
0033
,
0001
0000
0000
1000
0010
0000
0000
0000
1100
0000
0000
0000
0011
0000
0000
0000
,
0001
1000
0000
0101
0000
0010
0100
0000
,
0001
1000
0001
0000
0010
0100
1000
0000
,
0010
1000
0100
0000
0010
0001
0100
0000
,
0002
0000
0013
0000
0001
1000
0100
0000
,
2000
0000
3010
0000
1000
0100
0010
0000
,
0100
1000
0001
0000
0100
0001
1000
0000
,
0001
1000
0001
0010
0100
1000
0010
0100
,
0001
0000
0110
0000
1000
0010
0100
0000
,
0001
0010
0100
1000
0010
0100
0001
0000
,
1000
0001
0010
0001
0100
0010
1000
0000
,
0010
0100
0010
1000
0001
1000
0100
0000
,
1000
0000
0000
0010
0100
0000
0000
0000
0110
0000
0000
0000
1001
0000
0000
0000
,
0001
1000
0010
0100
0000
0010
1000
0000
,
0001
0010
0001
0000
1000
0100
1000
0000
,
0001
1000
0010
0100
0001
0010
0100
1000
;

//---------------dance-single - ----------------
#NOTES:
     dance-single:
     :
     Easy:
     6:
     0.262272,0.278885,0.032931,0.000000,0.000000,223.000000,219.000000,4.000000,0.000000,0.000000,0.000000,0.262272,0.278885,0.032931,0.000000,0.000000,223.000000,219.000000,4.000000,0.000000,0.000000,0.000000:
0000
0000
0000
0000
,
0000
0000
0000
0000
,
0000
0000
0000
0000
,
0000
0000
0000
0000
,
0010
0100
0001
1000
,
0001
0100
0010
1000
,
0100
0000
1000
1000
,
0001
1000
0010
0000
,
1000
0100
0010
0001
,
0100
0010
1000
0001
,
0010
0001
1000
0100
,
0010
0010
0010
0000
,
0001
1000
0100
0010
,
0001
1000
0010
0100
,
0001
0000
0010
0010
,
0001
0100
1000
1001
,
0001
1000
0010
1000
,
0100
0010
0001
0100
,
0001
0010
0100
1000
,
0001
0001
0001
0001
,
1000
0001
0100
0000
,
0001
0010
0100
0000
,
0010
0001
1000
0000
,
0100
1000
0010
0000
,
1000
1000
1000
1000
,
0001
0001
0001
0001
,
0010
0010
0010
0010
,
0100
0100
0100
0100
,
1000
0010
1000
0000
,
0001
0010
0001
0000
,
0010
0100
1000
0010
,
1000
0001
0100
0001
,
1001
0000
0100
0000
,
0001
0001
1000
1000
,
0001
0000
0010
0000
,
0100
0100
0010
0010
,
0001
0000
0100
0000
,
0001
0010
0100
1000
,
0001
0000
1000
0000
,
0010
0100
0010
0100
,
1000
1000
1000
0000
,
0001
0001
0001
0000
,
0100
0100
0100
0000
,
0010
0010
0010
0000
,
1000
0100
1000
0000
,
0001
0100
0001
0000
,
1000
0010
1000
0000
,
0001
0010
0001
0000
,
1001
0000
0000
0000
,
0000
0000
0000
0000
,
0010
0000
0100
0000
,
0001
0010
1000
0000
,
0001
1000
0001
0100
,
0010
1000
0100
0010
,
0100
1000
0010
1000
,
0100
0010
0001
0000
,
0100
0010
1000
0001
,
0010
0100
0010
0001
,
0100
0001
1000
0001
,
1000
0010
1000
0100
,
1001
0100
1000
0001
,
0010
0010
0001
1000
,
0001
0001
1000
0100
,
1000
1000
0001
1000
,
0010
0100
0001
0010
,
0100
0010
0001
0100
,
0010
0010
0100
0100
,
0001
0010
0100
1000
;

//---------------dance-single - ----------------
#NOTES:
     dance-single:
     :
     Beginner:
     2:
     0.134076,0.166713,0.057629,0.000000,0.000000,114.000000,107.000000,7.000000,0.000000,0.000000,0.000000,0.134076,0.166713,0.057629,0.000000,0.000000,114.000000,107.000000,7.000000,0.000000,0.000000,0.000000:
// measure 0
0000
0000
0000
0000
,  // measure 1
0000
0000
0000
0000
,  // measure 2
0000
0000
0000
0000
,  // measure 3
0000
0000
0000
0000
,  // measure 4
0010
0000
0010
0000
,  // measure 5
1000
0000
0001
0000
,  // measure 6
0100
0000
0000
0000
,  // measure 7
0001
0000
1000
0000
,  // measure 8
0010
0000
0010
0000
,  // measure 9
0100
0000
0100
0000
,  // measure 10
0001
0000
0010
0000
,  // measure 11
0001
0000
0000
0000
,  // measure 12
0100
0000
0100
0000
,  // measure 13
0010
0000
1000
0000
,  // measure 14
0100
0000
0000
0000
,  // measure 15
1000
0000
0001
0000
,  // measure 16
0010
0000
0001
0000
,  // measure 17
0100
0000
0001
0000
,  // measure 18
1000
0000
1000
0000
,  // measure 19
0001
0000
0001
0000
,  // measure 20
1000
1000
1000
0000
,  // measure 21
0000
0000
0000
0000
,  // measure 22
0001
0001
0001
0000
,  // measure 23
0000
0000
0000
0000
,  // measure 24
0010
0010
0000
0000
,  // measure 25
0010
0010
0000
0000
,  // measure 26
1000
1000
0000
0000
,  // measure 27
0001
0001
0000
0000
,  // measure 28
0100
0100
0000
0000
,  // measure 29
0100
0100
0000
0000
,  // measure 30
0001
0000
0001
0000
,  // measure 31
1000
0000
1000
0000
,  // measure 32
1001
0000
0000
0000
,  // measure 33
0100
0000
0000
0000
,  // measure 34
0100
0000
0000
0000
,  // measure 35
0100
0000
0000
0000
,  // measure 36
0010
0000
0000
0000
,  // measure 37
0010
0000
0000
0000
,  // measure 38
0010
0000
0000
0000
,  // measure 39
0010
0000
0000
0000
,  // measure 40
0110
0000
0000
0000
,  // measure 41
0110
0000
0000
0000
,  // measure 42
0110
0000
0000
0000
,  // measure 43
1000
0000
0001
0000
,  // measure 44
1001
0000
0000
0000
,  // measure 45
1001
0000
0000
0000
,  // measure 46
1000
0000
0010
0000
,  // measure 47
0100
0000
0001
0000
,  // measure 48
1001
0000
0000
0000
,  // measure 49
0000
0000
0000
0000
,  // measure 50
0000
0000
1000
0000
,  // measure 51
0010
0010
0010
0000
,  // measure 52
1000
0000
0100
0000
,  // measure 53
1000
0000
0001
0000
,  // measure 54
0100
0000
0010
0000
,  // measure 55
1000
0000
1000
0000
,  // measure 56
0001
0001
0000
0000
,  // measure 57
1000
1000
0000
0000
,  // measure 58
0010
0000
1000
0000
,  // measure 59
0001
0000
0100
0000
,  // measure 60
0001
0000
0001
0000
,  // measure 61
0001
0000
0001
0000
,  // measure 62
0010
0000
0010
0000
,  // measure 63
0010
0000
0010
0000
,  // measure 64
0100
0000
0100
0000
,  // measure 65
0100
0000
0100
0000
,  // measure 66
1000
0000
1000
0000
,  // measure 67
1000
0000
1000
0000
;
