#VERSION:0.83;
#TITLE:Shoop;
#SUBTITLE:;
#ARTIST:Salt-N-Pepa;
#TITLETRANSLIT:;
#SUBTITLETRANSLIT:;
#ARTISTTRANSLIT:;
#GENRE:;
#ORIGIN:;
#CREDIT:;
#BANNER:Shoop-bn.png;
#BACKGROUND:Shoop-bg.png;
#PREVIEWVID:;
#JACKET:Shoop-jacket.png;
#CDIMAGE:;
#DISCIMAGE:;
#LYRICSPATH:;
#CDTITLE:;
#MUSIC:Shoop.ogg;
#OFFSET:1.500000;
#SAMPLESTART:23.254999;
#SAMPLELENGTH:20.000000;
#SELECTABLE:YES;
#DISPLAYBPM:97.000000;
#BPMS:0.000=96.950;
#STOPS:;
#DELAYS:;
#WARPS:;
#TIMESIGNATURES:0.000=4=4;
#TICKCOUNTS:0.000=4;
#COMBOS:0.000=1;
#SPEEDS:0.000=1.000=0.000=0;
#SCROLLS:0.000=1.000;
#FAKES:;
#LABELS:0.000=Song Start;
#BGCHANGES:;
#KEYSOUNDS:;
#ATTACKS:
;

//---------------dance-single - ----------------
#NOTEDATA:;
#CHARTNAME:;
#STEPSTYPE:dance-single;
#DESCRIPTION:;
#CHARTSTYLE:;
#DIFFICULTY:Hard;
#METER:11;
#RADARVALUES:0.518684,0.565838,0.557979,0.000000,0.330072,462.000000,391.000000,71.000000,0.000000,0.000000,0.000000,0.000000,0.000000,0.000000,0.518684,0.565838,0.557979,0.000000,0.330072,462.000000,391.000000,71.000000,0.000000,0.000000,0.000000,0.000000,0.000000,0.000000;
#CREDIT:;
#DISPLAYBPM:97.000000;
#NOTES:
0000
0000
0000
0000
,
0000
0000
0000
0000
,
1001
0000
0100
0010
1010
0000
1000
0001
,
0101
0000
0001
0010
0001
1000
0010
0100
,
0110
0000
1000
0010
1100
0000
0001
0100
,
0011
0000
0010
0100
1000
0010
1000
0001
,
0101
0000
0001
0010
0110
0000
0100
1000
,
1100
0000
0010
1000
0100
0010
0001
0100
,
1010
0000
0001
1000
1001
0000
0100
0010
,
0011
0000
0100
1000
0010
0100
0001
1000
,
0010
1001
0010
1001
1000
0100
0010
0001
,
0010
0000
0001
0000
0100
0000
0100
0000
0110
0000
0000
0010
1000
0000
0001
0000
,
0010
0001
0000
0000
0010
1000
0000
0000
0001
0100
0001
0000
1000
0000
1000
0000
,
0010
1000
0010
1000
0010
0000
0100
0000
0001
0000
1000
0000
0100
0000
0010
0000
,
0101
0000
0000
1000
0100
0000
0000
0001
0100
0000
0010
0000
1100
0000
0000
0000
,
0001
1000
0001
0000
0010
0100
0010
0000
0001
0100
0001
0000
0000
0000
1010
0000
,
1001
0000
0100
0000
1001
0000
0100
0000
0000
0010
0000
1000
0001
0000
0110
0000
,
0000
0010
1000
0000
1000
0000
0100
0010
0001
0000
0001
0000
0011
0000
1100
0000
,
0101
0000
1000
0000
0011
0000
1000
0000
0010
0000
0010
0000
0100
0000
0001
1000
,
0001
0000
1100
0000
0101
0000
0100
0010
1000
0000
1001
0000
0001
0010
0001
0010
,
0100
0000
1000
0001
1000
0000
0011
0000
0010
0100
0010
0100
0010
0000
0001
1000
,
0001
0000
0011
0000
0101
0000
0010
1000
0100
1000
0010
0000
1001
0000
0110
0000
,
1010
0000
0101
0000
0010
0100
0010
1000
0001
0000
0010
0000
0100
0000
1000
0000
,
0011
0000
1000
0001
0100
0001
0010
0100
1000
0000
0010
0100
0001
0000
0000
0000
,
0010
0001
0000
0000
0010
1000
0000
0000
0100
0001
0000
0000
0100
1000
0000
0000
,
1010
0000
0001
1000
0100
0000
0100
0000
0010
0001
1000
0001
0010
0000
0010
0000
,
1100
0000
0010
1000
0101
0000
0001
0100
,
1001
0000
0010
1000
0001
0010
0100
1000
,
1010
0000
1000
0100
0011
0000
0010
0001
,
0110
0000
0100
1000
0010
0100
0001
1000
,
0010
0000
1000
0001
0100
0000
0000
0000
1000
0001
1000
0001
0010
0000
0100
1000
,
0010
0100
0010
0000
0100
0010
0100
0000
0101
0000
0101
0000
1001
0000
0000
0000
,
0010
1000
0010
0100
0000
0000
0001
1000
0001
0000
0110
0000
1010
0000
0000
0010
,
1000
0000
0100
0000
1000
0000
0001
0000
0010
0000
0100
1000
0001
0000
0100
0010
,
0100
0000
0100
0000
1001
0000
0000
0000
0010
1000
0001
0010
0000
1001
0000
0000
,
0000
1000
0100
1000
0001
0000
0000
0000
0000
0001
0100
0001
1000
0000
0000
0000
,
1000
0010
0000
1000
0010
0000
1000
0010
0000
0000
0100
0001
1000
0001
0000
0000
,
0011
0000
1010
0000
0011
0000
1010
0000
0001
1000
0001
1000
0000
0010
0100
0000
,
0010
1000
0001
0000
0101
0000
0000
0000
1100
0000
1100
0000
1100
0000
0010
0100
,
0001
0000
0000
0000
0001
1000
0010
1000
0100
0000
0010
0001
0100
0000
0000
0000
,
0110
0000
0010
1000
0001
0000
0000
0000
0010
0001
0010
0100
1000
0000
0000
0000
,
0010
0100
0010
0100
0010
0100
0010
0000
1100
0000
0101
0000
1100
0000
0101
0000
,
1001
0000
0010
0100
1000
0000
0000
0000
0001
0100
0001
0100
0001
0000
0000
0000
,
0010
0100
1000
0100
0010
0000
0001
1000
0001
0000
0000
1000
0010
0100
0001
0000
,
1100
0000
0001
1000
1010
0000
0010
0100
,
0101
0000
0010
1000
0001
0010
0100
1000
,
0011
0000
0001
0100
1001
0000
0010
1000
,
0110
0000
0100
0001
1000
0100
0010
0001
,
1001
0000
0000
0000
;

//---------------dance-single - ----------------
#NOTEDATA:;
#CHARTNAME:;
#STEPSTYPE:dance-single;
#DESCRIPTION:;
#CHARTSTYLE:;
#DIFFICULTY:Medium;
#METER:9;
#RADARVALUES:0.379470,0.358364,0.432237,0.000000,0.000000,338.000000,283.000000,55.000000,0.000000,0.000000,0.000000,0.000000,0.000000,0.000000,0.379470,0.358364,0.432237,0.000000,0.000000,338.000000,283.000000,55.000000,0.000000,0.000000,0.000000,0.000000,0.000000,0.000000;
#CREDIT:;
#DISPLAYBPM:97.000000;
#NOTES:
// measure 0
0000
0000
0000
0000
,  // measure 1
0000
0000
0000
0000
,  // measure 2
1001
0100
1100
1000
,  // measure 3
1010
0000
0010
0100
0001
1000
0100
0010
,  // measure 4
0011
0010
1010
1000
,  // measure 5
1100
0000
0100
1000
0010
0100
0001
1000
,  // measure 6
1100
0100
0110
0010
,  // measure 7
1001
0000
1000
0001
1000
0010
0100
0010
,  // measure 8
1010
1000
0101
0001
,  // measure 9
1001
0000
0001
1000
0010
0100
0001
0000
,  // measure 10
1000
0001
1000
0001
0010
0100
1000
0010
,  // measure 11
0100
0001
1000
0000
0110
0000
0001
0100
,  // measure 12
0010
0000
1010
0000
0001
0100
1000
0000
,  // measure 13
0010
0001
0010
0100
1000
0010
0001
0000
,  // measure 14
0011
0000
1100
0000
0010
1000
0001
0000
,  // measure 15
0100
0010
1000
0010
0100
0001
0000
0101
,  // measure 16
1000
1000
0001
0001
0000
0100
0010
1000
,  // measure 17
0000
0001
0001
0100
0010
1000
0100
0100
,  // measure 18
1000
0001
0100
0100
0010
1000
0001
0000
,  // measure 19
0100
1000
1000
0001
0010
0010
0100
0000
,  // measure 20
1001
1000
0010
0100
0001
0010
0001
1000
,  // measure 21
0010
0010
1000
0001
1000
0100
0100
0000
,  // measure 22
1100
0000
0001
1000
0010
1000
0001
0000
,  // measure 23
0010
0001
1000
0001
0100
0100
0100
0000
,  // measure 24
1010
0101
1010
0101
,  // measure 25
1001
0100
0010
1000
0001
1000
0100
0100
,  // measure 26
0110
1000
1100
0100
,  // measure 27
0101
0000
0001
1000
0100
0010
0100
1000
,  // measure 28
1001
0001
0101
0100
,  // measure 29
1010
0000
0010
0100
0001
0010
0100
1000
,  // measure 30
0010
1000
0101
0000
0001
0100
1100
0000
,  // measure 31
0001
0001
0010
0010
0100
0100
1001
0000
,  // measure 32
0010
0001
0100
0000
0110
0110
1001
0000
,  // measure 33
0010
0001
0100
0001
1000
1000
1000
0000
,  // measure 34
0010
0010
1001
0000
0100
0100
1001
0000
,  // measure 35
0000
0001
0011
0000
0000
1000
1010
0000
,  // measure 36
0001
0010
0100
0010
0100
1000
0001
0000
,  // measure 37
1001
1001
0110
0000
1000
0010
0001
0000
,  // measure 38
1000
1000
0101
0000
0010
0100
0001
0100
,  // measure 39
0010
0000
0010
1000
0001
1000
0100
0000
,  // measure 40
0010
0001
0100
0000
0100
0010
1000
0000
,  // measure 41
0001
0001
1000
1000
1010
1010
0001
1000
,  // measure 42
0100
0010
0110
0000
0001
1000
1010
0000
,  // measure 43
0010
1000
0001
1000
0010
0000
0100
0100
,  // measure 44
0110
0001
0101
0100
,  // measure 45
1001
0000
0001
1000
0010
1000
0100
0010
,  // measure 46
0110
0100
1100
1000
,  // measure 47
0011
0000
0001
1000
0001
0010
0100
1000
,  // measure 48
1001
0000
0000
0000
;

//---------------dance-single - ----------------
#NOTEDATA:;
#CHARTNAME:;
#STEPSTYPE:dance-single;
#DESCRIPTION:;
#CHARTSTYLE:;
#DIFFICULTY:Easy;
#METER:6;
#RADARVALUES:0.261588,0.282919,0.361507,0.000000,0.000000,233.000000,187.000000,46.000000,0.000000,0.000000,0.000000,0.000000,0.000000,0.000000,0.261588,0.282919,0.361507,0.000000,0.000000,233.000000,187.000000,46.000000,0.000000,0.000000,0.000000,0.000000,0.000000,0.000000;
#CREDIT:;
#DISPLAYBPM:97.000000;
#NOTES:
0000
0000
0000
0000
,
0000
0000
0000
0000
,
1001
0100
1001
0100
,
1001
0010
1000
0001
,
0110
0001
0110
0001
,
0110
0010
1000
0100
,
1001
0010
1001
0010
,
1001
0100
0001
1000
,
0110
1000
0110
1000
,
0110
0100
0001
0010
,
1000
1000
1000
0100
,
0001
1000
1001
0010
,
1000
0001
1000
0001
,
0010
0001
0100
1000
,
1001
0110
1000
0001
,
0010
0001
0100
1000
,
1100
0101
0000
1000
,
0000
0001
0100
0010
,
1000
0010
0100
0001
,
0010
0001
1000
0100
,
0110
0100
1000
0010
,
1000
0001
1000
0100
,
1001
0010
0100
0100
,
0001
0010
0001
1000
,
0110
0110
1001
1001
,
0110
1000
0001
0100
,
1001
1000
1001
1000
,
1001
0001
0010
0100
,
0110
0010
0110
0010
,
0110
0100
1000
0001
,
0100
1001
0010
1001
,
1000
0000
0100
0000
0001
0001
0001
0000
,
0010
0100
1000
0001
,
0100
0000
0010
0000
1000
1000
1000
0000
,
0001
1001
1000
1001
,
0000
0010
0000
0010
,
1000
0010
0001
0010
,
1000
0000
1000
0000
0001
0001
0000
0000
,
0100
0010
0100
0000
0001
0000
1000
0000
,
0010
0000
1000
0001
1000
0000
0101
0000
,
1000
1100
0010
0101
,
0001
0000
1000
0000
0010
0010
0010
0000
,
0100
0110
0001
1001
,
1000
0000
0001
0100
0001
0000
1000
0000
,
1001
0001
1001
0001
,
1001
0010
0100
1000
,
0110
0100
0110
0100
,
0110
0010
0001
1000
,
1001
0000
0000
0000
;

//---------------dance-single - ----------------
#NOTEDATA:;
#CHARTNAME:;
#STEPSTYPE:dance-single;
#DESCRIPTION:;
#CHARTSTYLE:;
#DIFFICULTY:Beginner;
#METER:2;
#RADARVALUES:0.116760,0.150890,0.117883,0.000000,0.000000,104.000000,89.000000,15.000000,0.000000,0.000000,0.000000,0.000000,0.000000,0.000000,0.116760,0.150890,0.117883,0.000000,0.000000,104.000000,89.000000,15.000000,0.000000,0.000000,0.000000,0.000000,0.000000,0.000000;
#CREDIT:;
#DISPLAYBPM:97.000000;
#NOTES:
0000
0000
0000
0000
,
0000
0000
0000
0000
,
1001
0000
1000
0000
,
0010
0000
0000
0000
,
0110
0000
0100
0000
,
0001
0000
0000
0000
,
1001
0000
0001
0000
,
0010
0000
0000
0000
,
0110
0000
0100
0000
,
1000
0000
0000
0000
,
0001
0000
0001
0000
,
1000
0000
1001
0000
,
0010
0000
0100
0000
,
0001
0000
1000
0000
,
1001
0000
0010
0000
,
0100
0000
0001
0000
,
1001
0000
1000
0000
,
0100
0000
0010
0000
,
0001
0000
1000
0000
,
0010
0000
0100
0000
,
0110
0000
1000
0000
,
0100
0000
0001
0000
,
1001
0000
0010
0000
,
1000
0000
1000
0000
,
0001
0000
1000
0000
,
0001
0000
0100
0000
,
0110
0000
1000
0000
,
0001
0000
0000
0000
,
1001
0000
0100
0000
,
0010
0000
0000
0000
,
1000
0000
0100
0000
,
1000
0000
0001
0000
,
0010
0000
0100
0000
,
0010
0000
0001
0000
,
1000
0000
0001
0000
,
1000
0000
0001
0000
,
0010
0010
0010
0000
,
0100
0100
0100
0000
,
0001
0000
1000
0000
,
0010
0000
1000
0000
,
0100
0000
0001
0000
,
1000
1000
1000
0000
,
1001
0000
0010
0000
,
0001
0001
0001
0000
,
1001
0000
0001
0000
,
1000
0000
0000
0000
,
0110
0000
0010
0000
,
0100
0000
0000
0000
,
0110
0000
0000
0000
;
