#VERSION:0.83;
#TITLE:Shiva;
#SUBTITLE:;
#ARTIST:Relect;
#TITLETRANSLIT:;
#SUBTITLETRANSLIT:;
#ARTISTTRANSLIT:;
#GENRE:;
#ORIGIN:;
#CREDIT:;
#BANNER:Shiva-bn.png;
#BACKGROUND:Shiva-bg.png;
#PREVIEWVID:;
#JACKET:Shiva-jacket.png;
#CDIMAGE:;
#DISCIMAGE:;
#LYRICSPATH:;
#CDTITLE:;
#MUSIC:Shiva.ogg;
#OFFSET:0.100000;
#SAMPLESTART:12.700000;
#SAMPLELENGTH:20.000000;
#SELECTABLE:YES;
#DISPLAYBPM:75.000000:300.000000;
#BPMS:0.000=150.000,
20.000=300.000,
44.000=150.000,
48.000=300.000,
104.000=150.000,
108.000=300.000,
164.000=150.000,
168.000=75.000,
176.000=150.000,
192.000=75.000,
208.000=150.000,
224.000=300.000,
248.000=150.000,
252.000=300.000;
#STOPS:;
#DELAYS:;
#WARPS:;
#TIMESIGNATURES:0.000=4=4;
#TICKCOUNTS:0.000=4;
#COMBOS:0.000=1;
#SPEEDS:0.000=1.000=0.000=0;
#SCROLLS:0.000=1.000;
#FAKES:;
#LABELS:0.000=Song Start;
#BGCHANGES:;
#KEYSOUNDS:;
#ATTACKS:
;

//---------------dance-single - ----------------
#NOTEDATA:;
#CHARTNAME:;
#STEPSTYPE:dance-single;
#DESCRIPTION:;
#CHARTSTYLE:;
#DIFFICULTY:Hard;
#METER:17;
#RADARVALUES:0.938105,2.101720,0.402418,0.320105,0.425283,718.000000,674.000000,44.000000,35.000000,0.000000,0.000000,0.000000,0.000000,0.000000,0.938105,2.101720,0.402418,0.320105,0.425283,718.000000,674.000000,44.000000,35.000000,0.000000,0.000000,0.000000,0.000000,0.000000;
#CREDIT:;
#DISPLAYBPM:75.000000:300.000000;
#NOTES:
0000
0000
0000
0000
,
0001
0000
0000
0001
0100
0000
0000
0100
0010
0000
0000
0010
1000
0000
0000
1000
,
0100
0000
0000
0100
0010
0000
0000
0010
0002
0000
0000
2003
0000
0000
3010
0000
,
0100
0000
0000
0100
0001
0000
0000
0001
1000
0000
0000
1000
0010
0000
0000
0010
,
1000
0000
0000
1000
0100
0000
0000
0100
0010
0000
0000
0010
0001
0100
0001
0000
,
0100
0000
0010
1000
0100
0000
0010
0001
,
1000
0000
0010
0100
0001
0000
0010
0100
,
1000
0000
0100
0010
0001
0000
1000
0100
,
1000
0000
0010
0100
0001
0000
0010
0001
,
1000
0100
0010
0001
0100
0010
1000
0001
,
0010
0001
0100
0010
1000
0100
1000
0001
,
0100
0010
0000
0010
1000
0000
0100
0010
0001
0000
0101
0000
1100
0000
0000
0000
,
2002
0000
3003
0001
0100
0000
0010
1000
,
0100
0000
1000
0100
0010
0000
0100
0001
,
1000
0000
0010
1000
0001
0000
0010
0100
,
1000
0000
0010
1000
0100
0000
0010
0001
,
0010
0000
0001
0100
1000
0000
0010
1000
,
0001
0000
0100
0010
0001
0000
0100
0001
,
1000
0000
0100
1000
0001
0000
0100
0010
,
1000
0100
0010
0001
0200
0000
0300
0000
,
0220
0000
0330
0010
1000
0000
0001
0100
,
0010
0000
1000
0100
0001
0000
1000
0010
,
0100
0000
0001
0010
1000
0000
0100
0010
,
0100
0000
1000
0010
0001
0000
1000
0001
,
1000
0000
0010
0100
0010
0000
0100
0010
,
0001
0000
1000
0001
0010
0000
0001
0100
,
0110
0000
0000
0010
1000
0010
0000
0100
0000
0100
0001
0000
0011
0000
0000
0000
,
2200
0000
3300
1000
0001
0000
0100
0010
,
1000
0000
0001
0100
1000
0000
0001
0010
,
1000
0000
0100
0010
0100
0000
1000
0010
,
0100
0100
0000
0010
2000
0000
3002
0000
,
0013
0000
0001
0100
1000
0000
0010
1000
,
0100
0000
1000
0100
0001
0000
0010
0001
,
0100
0000
0001
1000
0001
0000
0010
0100
,
1000
0010
0100
0001
0020
0000
0130
0000
,
0220
0000
0330
0100
0010
0000
1000
0001
,
0010
0000
0001
1000
0100
0000
1000
0100
,
0001
0000
1000
0010
0001
0000
0100
0010
,
1000
1000
0000
0001
0200
0000
0320
0000
,
1030
0010
0100
0001
0010
1000
0100
0001
,
0100
0010
0001
1000
0010
1000
0001
0100
,
0020
0000
0000
0100
0200
0000
0330
0000
,
1002
0000
0000
0000
0000
0000
0000
0000
0100
0000
0000
0000
0000
0000
0000
0000
1000
0000
0000
0000
0000
0000
0000
0000
0023
0000
0000
0032
0000
0000
0103
0000
,
0120
0000
0000
0000
1030
0000
0000
0000
2100
0000
0000
0000
3001
0000
0100
0010
,
1000
1000
0100
0100
0010
0010
0001
0001
,
0100
0100
0010
0010
1000
1000
0001
0001
,
1000
0100
0010
0001
0010
0100
0010
0100
1000
0100
0010
0001
1000
0001
1000
0001
,
0101
0101
1001
1001
1100
1001
0101
0000
,
1002
0000
0100
0103
0120
1000
1000
1030
1010
1000
1100
0100
0110
0010
0011
0001
,
1002
0000
0000
0000
0100
0000
0103
0000
0001
0010
0001
0010
0001
0010
0001
0010
0001
0100
0010
1000
0100
0010
0100
0010
0001
0000
0101
0000
1010
0000
0000
0000
,
0210
0000
0001
0301
2001
0100
0100
3100
1100
1000
1001
0001
0101
0100
0110
0010
,
2010
0000
0000
0000
0001
0000
3001
0000
1000
0100
1000
0100
1000
0100
1000
0100
1000
0001
0010
0100
1000
0001
1000
0001
0010
0000
0011
0000
1100
0000
0000
0000
,
1000
0000
0000
1000
0100
0000
0000
0100
0010
0000
0000
0010
0001
0000
0000
0001
,
0100
0000
0000
0100
0010
0000
0000
0010
2000
0000
0000
3002
0000
0000
1003
0000
,
0100
0000
0000
0100
1000
0000
0000
1000
0001
0000
0000
0001
0010
0000
0000
0010
,
0001
0000
0000
0001
1000
0000
0000
1000
0100
0000
0000
0100
0010
0001
0010
0000
,
0001
0000
1000
0100
1000
0000
0001
0100
,
0001
0000
1000
0010
1000
0000
0001
0010
,
0001
0000
1000
0100
0001
0000
0001
0100
,
1000
0000
1000
0010
0001
0000
0001
0010
,
1000
0001
0100
0010
0001
1000
0010
0100
,
1000
0001
0010
0100
1000
0001
0100
0010
,
1000
0001
0000
0001
0100
0000
0010
1000
0001
0000
0101
0000
1100
0000
0000
0000
,
1001
0000
1000
0100
0010
0100
1000
0000
,
0001
0100
0001
0100
0010
1000
0100
0000
,
0010
0000
1000
0001
0100
0001
1000
0000
,
0010
1000
0100
0010
0001
0100
0001
0000
,
0100
0000
0001
1000
0100
0010
0001
0000
,
1000
0010
0001
0010
1000
0100
0100
0000
,
0010
0000
0001
1000
0100
0010
0100
0000
,
1000
0100
0010
0001
0020
0000
0030
0000
,
1001
0000
0100
0010
0001
0100
0010
0000
,
1000
0001
0010
0001
1000
0100
0010
0000
,
0001
0000
1000
0001
1000
0100
0010
0000
,
0001
1000
0100
0010
0100
1000
0001
0000
,
0010
0000
1000
0001
0010
0001
1000
0000
,
0010
0100
0010
0100
0001
0001
0001
0000
,
0010
0100
0001
1000
0010
1000
0100
0000
,
1000
0010
0100
0001
1000
0100
0001
0000
,
0110
0000
0100
0010
1000
0100
1000
0000
,
0001
1000
0001
0010
0100
1000
0100
0000
,
0001
0000
1000
0001
0010
0100
0010
0000
,
0001
0100
1000
0001
0010
0100
1000
0000
,
0010
0000
0100
0010
1000
0001
0001
0000
,
0001
1000
0100
0010
1000
0001
0100
0000
,
0010
0000
1000
0001
0100
0010
0001
0000
,
1000
0001
0100
0010
2000
0000
3000
0000
,
1000
0100
1000
0100
1000
0100
1000
0100
,
0010
0001
0010
0001
0010
0001
0010
0001
,
0100
0001
0100
0001
0100
0001
0100
0001
,
1000
0010
1000
0010
1000
0010
1000
0010
,
1000
0010
0100
0001
0010
0100
1000
0001
,
1000
0001
0100
0001
0010
0100
1000
0010
,
0100
0001
0000
0001
1000
0000
0100
0010
,
0001
0101
1100
0000
,
2002
0000
0000
3003
;

//---------------dance-single - ----------------
#NOTEDATA:;
#CHARTNAME:;
#STEPSTYPE:dance-single;
#DESCRIPTION:;
#CHARTSTYLE:;
#DIFFICULTY:Medium;
#METER:12;
#RADARVALUES:0.595788,1.226004,0.420710,0.329251,0.091459,456.000000,410.000000,46.000000,36.000000,0.000000,0.000000,0.000000,0.000000,0.000000,0.595788,1.226004,0.420710,0.329251,0.091459,456.000000,410.000000,46.000000,36.000000,0.000000,0.000000,0.000000,0.000000,0.000000;
#CREDIT:;
#DISPLAYBPM:75.000000:300.000000;
#NOTES:
0000
0000
0000
0000
,
0002
0100
1000
0100
,
0010
0000
0000
0000
0100
0000
0000
0000
2003
0000
0000
3020
0000
0000
0230
0000
,
0302
0010
0100
1000
,
2003
0000
0100
0000
0010
0000
3001
1000
,
1001
0000
1100
0000
,
1001
0000
0101
0000
,
0110
0000
1010
0000
,
0110
0000
0011
0000
,
1000
0100
0010
0001
,
0100
0010
1000
0001
,
0010
0001
1000
0001
0100
0100
1001
0000
,
1001
0000
0000
0000
0010
0000
0000
0010
,
1000
0000
0000
1000
0001
0000
0000
0001
,
0100
0000
0000
0100
0001
0000
0000
0001
,
1000
0000
0000
1000
0010
0000
0000
0010
,
1000
0000
0000
1000
0100
0000
0000
0100
,
0010
0000
0000
0010
0001
0000
0000
0001
,
0100
0000
0000
0100
0010
0000
0000
0010
,
1000
0001
0100
0000
,
0110
0000
0000
0000
0100
0000
0000
0100
,
0010
0000
0000
0010
1000
0000
0000
1000
,
0001
0000
0000
0001
1000
0000
0000
1000
,
0010
0000
0000
0010
0100
0000
0000
0100
,
0001
0000
0000
0001
0010
0000
0000
0010
,
0100
0000
0000
0100
1000
0000
0000
1000
,
0010
0000
0000
0100
0001
0000
1000
0000
0100
0000
0010
0000
0110
0000
0000
0000
,
1001
0000
0000
0000
0001
0000
0000
0001
,
0010
0000
0000
0010
0100
0000
0000
0100
,
1000
0000
0000
1000
0100
0000
0000
0000
,
1000
0001
0000
1000
0010
0000
0100
0000
,
0010
0000
0000
0010
1000
0000
0000
1000
,
0001
0000
0000
0001
0100
0000
0000
0100
,
0001
0000
0000
0001
1000
0000
0000
1000
,
0100
0010
0001
0000
,
1001
0000
0000
0000
1000
0000
0000
1000
,
0010
0000
0000
0010
0100
0000
0000
0100
,
0010
0000
0000
0010
1000
0000
0000
0000
,
0100
1000
0000
0001
0100
0000
0010
0000
,
0100
0010
1000
0001
,
1000
0100
0010
0001
,
0200
0000
0000
0010
0020
0000
0330
0000
,
1002
0000
0000
0000
0000
0000
0000
0000
0100
0000
0000
0000
0000
0000
0000
0000
1000
0000
0000
0000
0000
0000
0000
0000
0023
0000
0000
0032
0000
0000
0203
0000
,
0320
0000
0000
0000
1000
0000
0000
0000
2030
0000
0000
0000
3001
0000
0100
0010
,
0110
1010
0110
0101
,
1001
0011
1001
1100
,
0100
0010
0100
0010
1000
0001
1000
0001
,
0010
0001
1000
0001
0100
0100
0100
0000
,
1001
0000
1000
0001
0100
0000
0001
1000
0020
0000
0230
0000
0302
0000
2003
0000
,
3001
0000
0110
0000
2000
0100
0100
3100
1000
0100
0010
0001
0100
0100
0110
0000
,
1001
0000
0100
0001
0010
0000
0001
0100
0002
0000
0023
0000
0230
0000
2300
0000
,
3010
0000
1001
0000
0200
0010
0010
0310
0100
0001
1000
0001
0100
0100
0110
0000
,
0002
1000
0010
0100
,
1000
0000
0000
0000
0100
0000
0000
0000
2003
0000
0000
3200
0000
0000
0320
0000
,
0032
1000
0010
0100
,
0203
0000
0001
0000
1000
0000
0310
0100
,
0001
0010
0001
0000
,
1000
0010
1000
0000
,
0001
0100
0001
0000
,
1000
0100
1000
0000
,
0001
1000
0100
0010
,
0100
1000
0001
0010
,
0001
1000
0100
1000
0010
0010
0110
0000
,
0110
0000
0000
0010
0000
0000
0010
0000
,
0000
1000
0100
1000
0100
0000
0010
0000
,
0001
0000
0000
0001
0000
0000
0001
0000
,
0000
0100
0010
0100
0010
0000
1000
0000
,
0100
0000
0000
0100
0000
0000
0100
0000
,
0000
1000
0001
1000
0001
0000
0010
0000
,
0001
0000
0000
0001
0000
0000
0001
0000
,
1000
0100
1000
0000
,
1001
0000
0000
1000
0000
0000
1000
0000
,
0000
0001
0010
0001
0010
0000
0100
0000
,
1000
0000
0000
1000
0000
0000
1000
0000
,
0000
0001
0100
0001
0100
0000
0010
0000
,
0100
0000
0000
0100
0000
0000
0100
0000
,
0000
0001
0010
0001
0010
0000
0100
0000
,
2000
3200
0320
0032
,
0103
0010
0100
0010
0100
0000
0000
0000
,
0101
0000
0000
0101
0000
0000
0101
0000
,
0000
0001
0100
0001
1000
0000
0100
0000
,
1100
0000
0000
1100
0000
0000
1100
0000
,
0000
1000
0010
1000
0001
0000
0010
0000
,
0011
0000
0000
0011
0000
0000
0011
0000
,
0000
0100
0010
0100
0001
0000
1000
0000
,
1010
0000
0000
1010
0000
0000
1010
0000
,
1000
0001
1000
0001
0100
0000
0000
0000
,
0001
1000
0001
1000
,
0010
0100
0010
0100
,
0001
0010
0001
0010
,
0100
1000
0100
1000
,
0010
1000
0001
0100
,
0001
0010
0100
1000
,
0010
0100
0010
1000
,
0001
0001
0110
0000
,
2002
0000
0000
3003
;

//---------------dance-single - ----------------
#NOTEDATA:;
#CHARTNAME:;
#STEPSTYPE:dance-single;
#DESCRIPTION:;
#CHARTSTYLE:;
#DIFFICULTY:Easy;
#METER:9;
#RADARVALUES:0.420710,1.050860,0.320105,0.237793,0.045729,322.000000,287.000000,35.000000,26.000000,0.000000,0.000000,0.000000,0.000000,0.000000,0.420710,1.050860,0.320105,0.237793,0.045729,322.000000,287.000000,35.000000,26.000000,0.000000,0.000000,0.000000,0.000000,0.000000;
#CREDIT:;
#DISPLAYBPM:75.000000:300.000000;
#NOTES:
0000
0000
0000
0000
,
0002
0000
0000
0000
,
0000
0000
0000
0000
0003
0000
0000
0000
1000
0000
0000
0001
0000
0000
1000
0000
,
0200
0000
0000
0300
,
2000
0000
0000
3001
,
1000
0000
1100
0000
,
0001
0000
0101
0000
,
1000
0000
1010
0000
,
0001
0000
0011
0000
,
1000
0100
1000
0100
,
0010
0001
0010
0001
,
0100
0000
0010
0000
1000
0001
1001
0000
,
1001
0000
1000
0000
,
0001
0000
0100
0000
,
0001
0000
0010
0000
,
0100
0000
1000
0000
,
0010
0000
1000
0000
,
0001
0000
0100
0000
,
0001
0000
1000
0000
,
0010
0100
0010
0000
,
0110
0000
0010
0000
,
0100
0000
0001
0000
,
1000
0000
0001
0000
,
0100
0000
0010
0000
,
1000
0000
0100
0000
,
0010
0000
0001
0000
,
0011
0000
0001
1000
0100
0000
1100
0000
,
1001
0000
0010
0000
,
1000
0000
0001
0000
,
1000
0000
0010
0000
,
0100
0010
0000
0000
0100
0000
0000
0000
,
1000
0000
0001
0000
,
0100
0000
0010
0000
,
1000
0000
0100
0000
,
1000
0001
0100
0000
,
0110
0000
0100
0000
,
0001
0000
0010
0000
,
0001
0000
0100
0000
,
1000
0001
0000
0000
1000
0000
0000
0000
,
0001
0000
0100
0000
,
0010
0000
1000
0000
,
0020
0000
0200
0330
,
2002
0000
0000
0000
0000
0000
0000
0000
0000
0000
0000
0000
0000
0000
0000
0000
3003
0000
0000
0000
0000
0000
0000
0000
0100
0000
0000
0010
0000
0000
1000
0000
,
0002
0000
0003
0000
0200
0000
0300
0010
,
1000
1100
0001
0101
,
1000
1010
0001
0011
,
1000
0100
1000
0000
0001
0100
0001
0000
,
1000
0010
1000
0000
0001
0010
0001
0000
,
1001
0000
0100
0000
1001
0000
0100
0000
0002
0003
0002
0003
0002
0003
0002
0003
,
0101
0000
0100
0000
0020
1000
1030
0000
0002
0100
0103
0000
0001
1000
0001
0000
,
0110
0000
1000
0000
0110
0000
1000
0000
0020
0030
0020
0030
0020
0030
0020
0030
,
1010
0000
1000
0000
0020
0100
0130
0000
0002
1000
1003
0000
0100
1000
0100
0000
,
2000
0000
0000
0000
,
0000
0000
0000
0000
3000
0000
0000
0000
0010
0000
0000
0100
0000
0000
0001
0000
,
0200
0000
0000
0300
,
0020
0000
0000
1030
,
0001
0000
0011
0000
,
1000
0000
1010
0000
,
0001
0000
0101
0000
,
1000
0000
1100
0000
,
0001
1000
0001
1000
,
0010
0100
0010
0100
,
0001
0000
1000
0000
0010
0100
0110
0000
,
0110
0000
0000
0010
0000
0000
0010
0000
,
0000
1000
0100
0010
,
0001
0000
0000
0001
0000
0000
0001
0000
,
0000
0100
0010
1000
,
0100
0000
0000
0100
0000
0000
0100
0000
,
0000
1000
0001
1000
,
0001
0000
0000
0001
0000
0000
0001
0000
,
0100
0010
0100
0000
,
1001
0000
0000
1000
0000
0000
1000
0000
,
0000
0100
0010
0001
,
1000
0000
0000
1000
0000
0000
1000
0000
,
0000
0010
0100
0001
,
0100
0000
0000
0100
0000
0000
0100
0000
,
0000
0001
1000
0100
,
1000
0001
1000
0001
,
0100
0100
0100
0000
,
1001
0000
0000
0100
0000
0000
0010
0000
,
0000
1000
0010
0100
,
0101
0000
0000
0010
0000
0000
1000
0000
,
0000
0001
1000
0010
,
1010
0000
0000
0001
0000
0000
0100
0000
,
0000
0010
0100
0001
,
0110
0000
0000
0001
0000
0000
1000
0000
,
0100
1000
0001
0000
,
1000
0010
1000
0000
,
0001
0100
0001
0000
,
1000
0100
1000
0000
,
0001
0010
0001
0000
,
1000
0010
1000
0010
,
0100
0001
0100
0001
,
1000
0000
0100
0000
,
0010
0001
0101
0000
,
2002
0000
0000
3003
;

//---------------dance-single - ----------------
#NOTEDATA:;
#CHARTNAME:;
#STEPSTYPE:dance-single;
#DESCRIPTION:;
#CHARTSTYLE:;
#DIFFICULTY:Beginner;
#METER:5;
#RADARVALUES:0.236486,0.700573,0.146334,0.118896,0.000000,181.000000,165.000000,16.000000,13.000000,0.000000,0.000000,0.000000,0.000000,0.000000,0.236486,0.700573,0.146334,0.118896,0.000000,181.000000,165.000000,16.000000,13.000000,0.000000,0.000000,0.000000,0.000000,0.000000;
#CREDIT:;
#DISPLAYBPM:75.000000:300.000000;
#NOTES:
// measure 0
0000
0000
0000
0000
,  // measure 1
0002
0000
0000
0000
,  // measure 2
0003
0000
1000
0100
,  // measure 3
2000
0000
3000
0000
,  // measure 4
0002
0000
0003
0000
,  // measure 5
0010
0000
0000
0000
,  // measure 6
0010
0000
0000
0000
,  // measure 7
0100
0000
0000
0000
,  // measure 8
0100
0000
0000
0000
,  // measure 9
0001
0000
0001
0000
,  // measure 10
1000
0000
1000
0000
,  // measure 11
1001
0000
0000
0000
,  // measure 12
1001
0000
0000
0000
,  // measure 13
0100
0000
0000
0000
,  // measure 14
0010
0000
0000
0000
,  // measure 15
1000
0000
0000
0000
,  // measure 16
0001
0000
0000
0000
,  // measure 17
1000
0000
0000
0000
,  // measure 18
0010
0000
0010
0000
,  // measure 19
0010
0000
0010
0000
,  // measure 20
0110
0000
0000
0000
,  // measure 21
0010
0000
0000
0000
,  // measure 22
1000
0000
0000
0000
,  // measure 23
0100
0000
0000
0000
,  // measure 24
1000
0000
0000
0000
,  // measure 25
0001
0000
0000
0000
,  // measure 26
0100
0100
0100
0000
,  // measure 27
1001
0000
0000
0000
,  // measure 28
0001
0000
0000
0000
,  // measure 29
1000
0000
0000
0000
,  // measure 30
0010
0000
0100
0000
,  // measure 31
0010
0000
0000
0000
,  // measure 32
1000
0000
0000
0000
,  // measure 33
0001
0000
0001
0000
,  // measure 34
0001
0000
0001
0000
,  // measure 35
0110
0000
0000
0000
,  // measure 36
0001
0000
0000
0000
,  // measure 37
1000
0000
0000
0000
,  // measure 38
0010
0000
0100
0000
,  // measure 39
0010
0000
0000
0000
,  // measure 40
1000
0000
0000
0000
,  // measure 41
0200
0000
0300
0000
,  // measure 42
2002
0000
0000
0000
3003
0000
0100
0010
,  // measure 43
0200
0300
0002
0003
,  // measure 44
1000
1000
1000
0000
,  // measure 45
0001
0001
0001
0000
,  // measure 46
0100
0100
0100
0000
,  // measure 47
0010
0010
0010
0000
,  // measure 48
1001
0000
0110
0000
1000
0001
1000
0001
,  // measure 49
0100
0000
0110
0000
0010
1000
0001
0000
,  // measure 50
0110
0000
1001
0000
0010
0100
0010
0100
,  // measure 51
0001
0000
1001
0000
1000
0010
0100
0000
,  // measure 52
0002
0000
0000
0000
,  // measure 53
0003
0000
0100
0010
,  // measure 54
2000
0000
3000
0000
,  // measure 55
0002
0000
0003
0000
,  // measure 56
1000
0000
0000
0000
,  // measure 57
1000
0000
0000
0000
,  // measure 58
0001
0000
0000
0000
,  // measure 59
0001
0000
0000
0000
,  // measure 60
0100
0000
0100
0000
,  // measure 61
0010
0000
0010
0000
,  // measure 62
0110
0000
0000
0000
,  // measure 63
1001
0000
1000
0000
,  // measure 64
0001
0000
0100
0000
,  // measure 65
0001
0000
0010
0000
,  // measure 66
0100
0000
1000
0000
,  // measure 67
0010
0000
1000
0000
,  // measure 68
0001
0000
0100
0000
,  // measure 69
0001
0000
1000
0000
,  // measure 70
0100
0000
0010
0000
,  // measure 71
0001
0000
0100
0000
,  // measure 72
0010
0000
1000
0000
,  // measure 73
0100
0000
0010
0000
,  // measure 74
1000
0000
0001
0000
,  // measure 75
0010
0000
0001
0000
,  // measure 76
1000
0000
0100
0000
,  // measure 77
0010
0000
0010
0000
,  // measure 78
0010
0000
0000
0000
,  // measure 79
0100
0000
0010
0000
,  // measure 80
1000
0000
0001
0000
,  // measure 81
0010
0000
0001
0000
,  // measure 82
0100
0000
1000
0000
,  // measure 83
0001
0000
1000
0000
,  // measure 84
0100
0000
0010
0000
,  // measure 85
0100
0000
1000
0000
,  // measure 86
0001
0000
0000
0000
,  // measure 87
0010
0000
0010
0000
,  // measure 88
0010
0000
0000
0000
,  // measure 89
0001
0000
0001
0000
,  // measure 90
0001
0000
0000
0000
,  // measure 91
1000
0000
1000
0000
,  // measure 92
0100
0000
0100
0000
,  // measure 93
1001
0000
0000
0000
,  // measure 94
1000
0000
0001
0000
,  // measure 95
2002
0000
0000
3003
;
