#TITLE:She Works Hard for the Money;
#SUBTITLE:;
#ARTIST:Donna Summer;
#TITLETRANSLIT:;
#SUBTITLETRANSLIT:;
#ARTISTTRANSLIT:;
#GENRE:;
#CREDIT:;
#BANNER:She Works Hard for the Money-bn.png;
#BACKGROUND:She Works Hard for the Money-bg.png;
#LYRICSPATH:;
#CDTITLE:;
#MUSIC:She Works Hard for the Money.ogg;
#OFFSET:0.000000;
#SAMPLESTART:23.912001;
#SAMPLELENGTH:20.000000;
#SELECTABLE:YES;
#DISPLAYBPM:136.000000:138.000000;
#BPMS:0.000000=136.750000
,56.000000=136.000000
,64.000000=136.750000
,72.000000=137.000000
,88.000000=136.000000
,96.000000=136.666672
,104.000000=136.125000
,112.000000=137.000000
,152.000000=136.000000
,160.000000=136.250000
,168.000000=138.000000
,174.000000=136.750000
,184.000000=136.000000
,192.000000=136.750000
;
#STOPS:
;
#BGCHANGES:;
#KEYSOUNDS:;
#ATTACKS:;

//---------------dance-single - ----------------
#NOTES:
     dance-single:
     :
     Hard:
     12:
     0.557068,0.588372,0.457239,0.120780,0.017254,452.000000,399.000000,53.000000,14.000000,0.000000,0.000000,0.557068,0.588372,0.457239,0.120780,0.017254,452.000000,399.000000,53.000000,14.000000,0.000000,0.000000:
0000
0000
0000
0000
,
0000
0000
0000
0000
,
0000
0000
0000
0000
,
0000
0000
0000
0000
,
0000
0000
0000
0000
,
1000
0010
1000
0000
0001
0100
0001
0000
0010
0100
1000
0000
1100
0000
0000
0000
,
1001
0000
0100
0101
1000
0010
0100
0001
,
0011
0000
1000
1010
0001
0100
1000
0000
,
0110
0000
1000
1010
0100
0010
0001
0100
,
0101
0000
1000
1100
0010
0100
0001
0000
,
1000
0010
0100
0001
0100
1000
0010
0001
,
0010
0001
1000
0100
0001
1000
0010
0100
,
1001
0000
0010
1010
0100
0010
0001
1000
,
1100
0000
0001
0011
0000
0100
0010
2000
,
0001
0000
3100
1000
0001
0100
0010
1000
,
1010
0000
0001
0101
0000
1000
0010
0200
,
0001
0000
0310
0100
0010
1000
0100
0001
,
0011
0000
0100
0110
0000
0010
1000
0002
,
0010
0000
1003
0001
0010
0100
0010
0001
,
0100
0010
0100
1000
0100
0010
1000
0001
,
1010
0000
0010
1001
1000
0001
0010
0100
,
1100
0000
1000
0110
0000
0001
1000
0020
,
0001
0000
1030
0001
0010
0001
0100
0010
,
1010
0000
0001
0011
0000
0100
0010
2000
,
0100
0000
3010
0100
0001
0010
1000
0001
,
0101
0000
1000
1001
0000
0010
1000
0200
,
0010
0000
1300
0001
0010
0100
1000
0001
,
0100
1000
0100
0010
1000
0100
0010
0001
,
0011
0000
0100
1010
0001
0010
1000
0100
,
1001
0000
0010
0110
0001
0100
1000
0000
,
0010
0100
0001
0010
1000
0010
0100
1000
,
0010
0100
0010
1000
0100
0010
0001
0100
,
0010
0001
0010
1000
0100
0010
0001
0100
,
0010
1000
0100
0010
0001
0100
0010
2000
,
0001
0000
3010
1100
0000
0100
0010
0001
,
1000
0001
1000
0010
0100
0001
0010
0100
,
0011
0000
0100
0101
1000
0010
0100
0001
,
1010
0000
1000
1001
0100
0001
0010
0000
,
1000
0100
0001
0100
0010
0100
1000
0010
,
0100
1000
0100
0001
0010
0100
1000
0001
,
0010
1000
0010
0100
0010
0001
0100
1000
,
0100
0010
1000
0001
0010
1000
0010
0100
,
1000
0010
0100
0001
0010
0100
1000
0000
,
0001
0000
0100
0000
0010
0000
1000
0000
0000
0000
0020
0000
0000
0130
0000
0000
,
0110
0000
0001
0011
1000
0001
0100
0010
,
0101
0000
0010
1010
0000
1000
0100
0002
,
1000
0000
0103
0001
0010
0100
0010
0001
,
1001
0000
0010
1100
0000
0001
0100
0020
,
0001
0000
0130
0001
1000
0100
1000
0010
,
1010
0000
1000
0101
0000
0001
0010
0200
,
0001
0000
1300
0001
1000
0010
0100
1000
,
0100
0010
1000
0100
0001
0100
0010
0001
,
1100
0000
0010
0110
0100
0001
1000
0100
,
0011
0000
0100
1001
0000
0001
0010
2000
,
0100
0000
3010
1000
0001
0010
0100
1000
,
0101
0000
0010
1010
0000
1000
0100
0002
,
0100
0000
0013
0001
0100
0010
1000
0001
,
1001
0000
0100
1100
0000
0001
1000
0020
,
1000
0000
0130
0001
0010
1000
0010
0100
,
0010
0001
0100
1000
0100
0010
1000
0001
,
1000
0010
0100
0001
0000
0010
0011
1000
,
0001
0100
0010
1010
0000
1000
1000
0000
,
0110
0000
0000
0000
;

//---------------dance-single - ----------------
#NOTES:
     dance-single:
     :
     Medium:
     9:
     0.422731,0.427907,0.509002,0.327832,0.004314,343.000000,284.000000,59.000000,38.000000,0.000000,0.000000,0.422731,0.427907,0.509002,0.327832,0.004314,343.000000,284.000000,59.000000,38.000000,0.000000,0.000000:
0000
0000
0000
0000
,
0000
0000
0000
0000
,
0000
0000
0000
0000
,
0000
0000
0000
0000
,
0000
0000
0000
0000
,
1000
0100
0010
0001
0100
0010
0110
0000
,
1001
0000
1000
1100
0000
0000
0000
0001
,
0101
0000
0010
1010
0000
0000
0000
0000
,
1100
0000
0001
0011
0000
0000
0000
1000
,
1001
0000
0010
0110
0000
0000
0000
0000
,
0002
0000
0023
0000
0031
0100
1000
0000
,
0020
0000
0230
0000
0310
1000
0001
0000
,
0011
0000
0100
0101
0000
0000
0000
1000
,
1010
0000
0001
1001
0000
1000
0010
0200
,
0000
0000
0310
0100
0010
1000
0000
0001
,
0011
0000
1000
1100
0000
0002
0000
2003
,
0000
0000
3100
1000
0001
0100
0000
0010
,
0110
0000
0001
0101
0000
1000
0001
0020
,
0000
0000
0031
0100
0010
0000
1000
0100
,
0010
0000
1001
0000
1000
0100
0000
0002
,
0000
0000
1003
1010
0000
0000
0000
0100
,
1100
0000
0001
0110
0000
1000
0010
0200
,
0000
0000
0301
1000
0100
1000
0000
0010
,
1001
0000
1000
0101
0000
0002
0000
0023
,
0000
0000
0130
0010
0001
0100
0000
1000
,
1010
0000
0010
0011
0000
0001
0100
2000
,
0000
0000
3010
1000
0100
0000
0010
0001
,
1000
0000
0110
0000
0010
0100
0000
0002
,
0000
0000
0103
0101
0000
0000
0000
1000
,
1100
0000
0001
0011
0000
0100
0100
0000
,
1000
0020
0000
0230
0000
0301
0010
0200
,
0000
2300
0000
3002
0000
0013
0100
1000
,
0000
1100
0000
0101
0000
0000
0010
0100
,
0001
0000
1001
0000
0000
0100
0010
2000
,
0000
0000
3100
0110
0000
0000
0000
0001
,
1000
0100
1000
0010
0200
0000
0301
1000
,
1010
0000
0001
1100
0000
0000
0000
0010
,
0101
0000
1000
0011
0000
0001
0001
0000
,
0100
0020
0000
2030
0000
3010
1000
0002
,
0000
0023
0000
0230
0000
1300
0001
0200
,
0000
0310
0000
1001
0000
0101
0000
0011
,
0000
0000
1000
0000
0001
1000
0010
0100
,
0001
0010
0000
1000
0100
0000
0000
1000
,
0001
0000
0010
0000
0100
0000
1000
0000
0000
0000
0020
0000
0000
0130
0000
0000
,
0110
0000
0001
1100
0000
0000
0000
0010
,
1001
0000
0100
1010
0000
1000
0010
0002
,
0000
0000
1003
0001
0010
0100
0000
1000
,
1100
0000
0001
0101
0000
2000
0000
3200
,
0000
0000
1300
0010
1000
0001
0000
0100
,
0110
0000
0010
1010
0000
0001
0100
2000
,
0000
0000
3010
1000
0100
0000
1000
0001
,
1000
0000
0101
0000
0010
0100
0000
0002
,
0000
0000
0013
1001
0000
0000
0000
1000
,
1010
0000
0001
0011
0000
0100
0010
2000
,
0000
0000
3001
0100
1000
0010
0000
0100
,
0101
0000
0100
0110
0000
2000
0000
3020
,
0000
0000
1030
0001
0010
0001
0000
0100
,
0101
0000
1000
1001
0000
0010
0100
0002
,
0000
0000
0013
0100
1000
0000
0001
0010
,
0100
0000
1100
0000
0010
1000
0000
0002
,
0000
0103
0010
1000
0000
0001
1000
0100
,
0010
0001
1000
0010
0000
0100
1001
0000
,
0110
0000
0000
0000
;

//---------------dance-single - ----------------
#NOTES:
     dance-single:
     :
     Easy:
     6:
     0.264977,0.267442,0.120780,0.069017,0.000000,215.000000,201.000000,14.000000,8.000000,0.000000,0.000000,0.264977,0.267442,0.120780,0.069017,0.000000,215.000000,201.000000,14.000000,8.000000,0.000000,0.000000:
0000
0000
0000
0000
,
0000
0000
0000
0000
,
0000
0000
0000
0000
,
0000
0000
0000
0000
,
0000
0000
0000
0000
,
1000
0001
1000
1001
,
0010
0100
0010
0000
,
1000
0100
0010
0000
,
0001
0100
0001
0000
,
1000
0010
0001
0000
,
2000
3200
0320
0032
,
2003
3020
0230
0302
,
0013
0001
0100
0000
,
0010
1000
0100
0001
,
0011
1000
0100
0000
,
1000
0001
0010
0100
,
1100
0001
1000
0000
,
0010
0100
0010
1000
,
0110
0001
0100
1000
,
0010
0010
1000
0000
,
0001
1000
0100
0000
,
1000
0010
0100
0001
,
1001
0010
0100
0000
,
0010
1000
0001
0010
,
0110
1000
0010
0000
,
0100
0010
1000
0100
,
1100
0001
1000
0010
,
1000
1000
0100
0000
,
0001
0010
0001
0000
,
0100
0010
1000
0000
,
0001
0010
0001
0100
,
0010
1000
0100
0010
,
0001
0100
1000
0100
,
0010
1000
0100
0001
,
1000
0010
0100
0000
,
0001
1000
0001
0010
,
0001
1000
0010
0000
,
1000
0100
0001
0000
,
0010
0100
0010
0001
,
0100
0010
0100
0001
,
0010
1000
0100
0010
,
0001
0100
0010
1000
,
0100
0010
0001
0000
,
1000
0001
0010
0100
,
1000
0010
0100
0000
,
0010
1000
0001
0100
,
0110
0100
0001
0000
,
0010
0001
0100
1000
,
1010
0100
0001
0000
,
1000
0001
0010
0100
,
0011
0010
0100
1000
,
0010
0010
0100
0000
,
0001
1000
0100
0000
,
1000
0001
0010
0100
,
1100
0001
0100
0000
,
0001
1000
0100
0010
,
1001
0100
1000
0000
,
0010
0100
0001
0010
,
0101
1000
0100
0010
,
0100
0100
1000
0000
,
0001
0010
0001
0000
,
0100
0010
1000
0000
,
0110
0000
0000
0000
;

//---------------dance-single - ----------------
#NOTES:
     dance-single:
     :
     Beginner:
     3:
     0.130640,0.160465,0.025881,0.000000,0.000000,106.000000,103.000000,3.000000,0.000000,0.000000,0.000000,0.130640,0.160465,0.025881,0.000000,0.000000,106.000000,103.000000,3.000000,0.000000,0.000000,0.000000:
// measure 0
0000
0000
0000
0000
,  // measure 1
0000
0000
0000
0000
,  // measure 2
0000
0000
0000
0000
,  // measure 3
0000
0000
0000
0000
,  // measure 4
0000
0000
0000
0000
,  // measure 5
0000
0000
0000
0000
,  // measure 6
1000
1000
0000
0000
,  // measure 7
0001
0001
0000
0000
,  // measure 8
0100
0100
0000
0000
,  // measure 9
0010
0010
0000
0000
,  // measure 10
1000
0000
0001
0000
,  // measure 11
1000
0000
0001
0000
,  // measure 12
0010
0010
0000
0000
,  // measure 13
0100
0100
0000
0000
,  // measure 14
1000
1000
1000
0000
,  // measure 15
0000
0000
0000
0000
,  // measure 16
0010
0010
0010
0000
,  // measure 17
0000
0000
0000
0000
,  // measure 18
0100
0000
0010
0000
,  // measure 19
0100
0000
0010
0000
,  // measure 20
0001
0001
0000
0000
,  // measure 21
0010
0010
0000
0000
,  // measure 22
0001
0001
0001
0000
,  // measure 23
0000
0000
0000
0000
,  // measure 24
0100
0100
0100
0000
,  // measure 25
0000
0000
0000
0000
,  // measure 26
0010
0000
1000
0000
,  // measure 27
0010
0000
1000
0000
,  // measure 28
0001
0001
0000
0000
,  // measure 29
0010
0010
0000
0000
,  // measure 30
1000
0000
1000
0000
,  // measure 31
0010
0000
0010
0000
,  // measure 32
0100
0000
0100
0000
,  // measure 33
0100
0000
0000
0000
,  // measure 34
1001
0000
0000
0000
,  // measure 35
0001
0001
0001
0000
,  // measure 36
0100
0100
0000
0000
,  // measure 37
0010
0010
0000
0000
,  // measure 38
1000
0000
0001
0000
,  // measure 39
1000
0000
0001
0000
,  // measure 40
0010
0000
0010
0000
,  // measure 41
0010
0000
0000
0000
,  // measure 42
1001
0000
0000
0000
,  // measure 43
0100
0100
0100
0000
,  // measure 44
0001
0001
0000
0000
,  // measure 45
1000
1000
0000
0000
,  // measure 46
0100
0100
0100
0000
,  // measure 47
0000
0000
0000
0000
,  // measure 48
1000
1000
1000
0000
,  // measure 49
0000
0000
0000
0000
,  // measure 50
0010
0000
0100
0000
,  // measure 51
0010
0000
1000
0000
,  // measure 52
0001
0001
0000
0000
,  // measure 53
1000
1000
0000
0000
,  // measure 54
0001
0001
0001
0000
,  // measure 55
0000
0000
0000
0000
,  // measure 56
0010
0010
0010
0000
,  // measure 57
0000
0000
0000
0000
,  // measure 58
0100
0000
1000
0000
,  // measure 59
0010
0000
1000
0000
,  // measure 60
0001
0001
0000
0000
,  // measure 61
0100
0100
0000
0000
,  // measure 62
0110
0000
0000
0000
;
