#TITLE:She Turns Me On;
#SUBTITLE:;
#ARTIST:BEMANI Sound Team "Sota Fujimori";
#TITLETRANSLIT:;
#SUBTITLETRANSLIT:;
#ARTISTTRANSLIT:;
#GENRE:;
#CREDIT:;
#BANNER:She Turns Me On-bn.png;
#BACKGROUND:She Turns Me On-bg.png;
#LYRICSPATH:;
#CDTITLE:;
#MUSIC:She Turns Me On.ogg;
#OFFSET:0.000000;
#SAMPLESTART:69.572998;
#SAMPLELENGTH:20.000000;
#SELECTABLE:YES;
#DISPLAYBPM:100.000000:400.000000;
#BPMS:0.000000=200.000000
,32.000000=400.000000
,94.000000=200.000000
,95.000000=400.000000
,156.000000=100.000000
,172.000000=200.000000
,232.000000=100.000000
,268.000000=200.000000
,300.000000=400.000000
,426.000000=100.000000
,434.000000=400.000000
,436.000000=200.000000
,438.000000=400.000000
,440.000000=200.000000
,444.000000=400.000000
,446.000000=200.000000
,448.000000=400.000000
,450.000000=200.000000
,452.000000=400.000000
;
#STOPS:134.000000=0.150000,
135.000000=0.300000,
215.500000=0.900000,
231.500000=0.300000,
393.000000=0.300000
;
#BGCHANGES:;
#KEYSOUNDS:;
#ATTACKS:;

//---------------dance-single - ----------------
#NOTES:
     dance-single:
     :
     Hard:
     18:
     1.072189,2.249177,0.891888,0.370218,0.635260,892.000000,786.000000,106.000000,44.000000,0.000000,0.000000,1.072189,2.249177,0.891888,0.370218,0.635260,892.000000,786.000000,106.000000,44.000000,0.000000,0.000000:
0000
0000
0000
0000
,
0000
0000
0000
0000
,
0000
0000
0000
0000
,
0000
0000
0000
0000
0000
0000
0000
0000
0000
0000
0000
0000
0000
0000
1000
0001
,
2000
0100
0100
0100
,
0100
0100
0100
3100
,
1001
0100
0000
0100
1001
0100
0000
0100
,
1001
1001
0110
0110
1010
0001
1001
0000
,
0100
0010
0100
0001
,
1000
0010
0100
0000
0001
0000
0010
0000
,
0100
1000
0001
0100
,
0001
1000
0100
1000
0001
0000
0100
0000
,
0010
0100
1000
0010
,
1000
0001
0100
0000
0010
0000
0100
0000
,
0001
0010
0100
1000
,
0010
1000
0100
0010
0001
0000
1000
0000
,
0010
0100
0010
1000
,
0100
0010
0001
0000
0100
0000
0001
0000
,
0010
0100
1000
0001
,
0100
0001
0010
0100
1000
0000
0001
0000
,
0010
0100
0010
0001
,
0100
0010
1000
0000
0001
0000
0100
0000
,
0001
0010
0100
1000
,
0001
0100
0001
0100
2000
0000
3100
0000
,
0001
0000
0010
0000
0100
0000
1000
0010
,
0100
0010
1000
0000
0100
0000
0010
0000
,
0001
0000
1000
0000
0010
0000
1000
0001
,
0010
0100
1000
0010
0100
0000
0001
0000
,
1000
0000
0010
0000
1000
0000
0100
0010
,
0100
1000
0001
0000
0100
0000
0001
0000
,
0010
0100
1000
0000
0001
0000
0010
0001
,
0100
0001
1000
0000
0010
0000
1000
0000
,
0100
0010
0001
0000
0100
0010
1000
0000
,
0001
1000
0100
0000
1010
0000
0101
0000
,
0001
1000
0001
1000
0100
0000
0100
0000
,
1000
0010
0100
0001
,
1000
0100
0010
0001
0100
0010
1000
0000
,
0000
0101
0101
0000
,
0001
0010
1000
0010
0001
0100
0001
0000
,
1100
0000
1100
0000
0000
0000
0101
0000
0101
0000
0000
0000
0011
0000
0011
0000
0000
0000
1010
0000
1010
0000
0000
0000
0010
0000
1000
0001
0100
0000
0000
0000
,
0110
0110
0000
1010
1010
0000
1100
1100
0000
1001
1001
0000
0020
0230
0302
2003
,
3001
0000
0001
0000
0000
0000
0011
0000
0011
0000
0000
0000
1100
0000
1100
0000
0000
0000
1001
0000
1001
0000
0000
0000
1000
0000
0010
0100
0001
0000
0000
0000
,
0101
0101
0000
0110
0110
0000
1010
1010
0000
1001
1001
0000
2000
3002
0203
0320
,
1030
0000
0000
0000
0011
0000
0000
0001
0100
0000
0010
0000
1000
0000
1200
0000
,
0000
0000
1300
0010
1000
0000
0001
0010
0001
0000
1000
0100
1000
0000
0001
0100
,
0001
0000
0000
0000
1010
0000
0000
1000
0100
0000
0010
0000
0001
0000
0021
0000
,
0000
0000
0031
0000
0100
0000
0001
0000
1000
0010
0001
0010
1000
0000
0000
0000
,
0100
0000
0000
0000
1001
0000
0000
1000
0001
0000
0010
0000
0100
0000
2100
0000
,
0000
0000
3010
1000
0010
0000
0100
0001
0100
0000
0001
0010
0001
0000
1000
0100
,
1000
0000
0000
0000
0101
0000
0000
0100
0001
0000
1000
0000
0100
0000
0110
0000
,
0000
0000
0011
0000
0000
0000
1001
0000
0010
1000
0100
0010
0002
0000
0000
0000
,
0013
0000
0000
0000
1100
0000
0000
0001
0100
0000
0010
0000
1000
0000
0201
0000
,
0000
0000
0310
1000
0100
0000
0010
0001
0100
0000
0010
1000
0100
0000
0010
0001
,
0100
0000
0000
0000
0011
0000
0000
0010
0100
0000
1000
0000
0001
0000
0101
0000
,
1001
0000
0000
0000
0100
0000
0000
0000
1001
0000
0000
0010
1000
0000
0100
0000
,
0010
0000
0012
0000
0000
0000
0013
0100
1000
0000
0010
0100
0001
0000
1000
0001
,
0100
0000
0001
1000
0010
0000
0000
0000
0101
0000
0000
1000
0001
0000
1000
0000
,
0010
1100
0001
0100
0010
1000
0001
1001
,
0010
0000
1000
0000
0001
0000
1000
0000
0010
0000
0100
0001
0100
0000
0010
0000
1000
0000
1000
0000
0000
0000
0001
0100
1000
0000
1000
0000
0000
0000
0000
0000
,
0001
0000
0010
0000
0100
0000
1000
0010
1000
0000
0001
0000
0100
0000
0010
0000
1000
0000
1000
0100
0000
0100
0001
0000
0010
0000
0001
0100
1000
0000
0000
0000
,
1100
0000
1100
0000
0000
0000
0001
0000
1000
0000
0010
0100
0010
0000
1000
0000
0001
0000
0010
0100
1000
0000
0100
0010
0001
0100
1000
0100
0001
0010
0100
0000
,
0110
0000
0110
0000
0010
1000
0001
0000
0010
0100
0010
0100
1000
0010
0100
0000
0001
0000
0001
0000
0001
0000
0001
0100
1000
0000
1000
0000
1000
0000
0000
0000
,
1002
0000
0000
0000
0100
0000
0100
0000
0000
0000
1000
0000
1000
0000
0000
0000
0010
0000
0010
0000
0000
0000
1003
0001
0100
0000
0100
0000
0110
0000
0000
0000
,
2002
0000
0000
0003
0000
0000
3010
0000
1000
0000
0100
0010
0001
0100
0002
0000
0000
0000
0000
0000
1003
0000
0010
0100
0001
0000
0000
0000
0101
0000
0000
0000
,
2200
0000
0000
0300
0000
0000
0001
0000
3001
0000
0010
0000
0100
0000
1000
0000
0010
0000
0100
0000
0001
0000
2000
0000
0000
0000
0100
0000
3100
0000
0000
0000
,
2020
0000
0000
3000
0000
0000
0130
0000
0010
1000
0010
1000
0001
0000
0011
0000
0000
0000
2200
0000
0000
0300
0000
0000
3002
0000
0023
0000
0230
0000
2300
0000
,
0000
0000
0000
0000
3001
0000
0100
0010
1000
0000
0001
0000
0100
0000
0001
0000
0010
0000
0100
0000
1000
0000
0002
0000
0000
0000
0100
0000
0103
0000
0000
0000
,
1001
0100
0010
0101
0000
1100
0000
2010
,
0001
0000
0000
0000
3001
1000
0100
1000
0001
0000
0000
0000
0110
0000
0000
0000
,
0102
0000
0013
0001
0100
0010
1000
0100
,
1000
0000
0001
0100
0001
0000
1000
0000
0001
0100
0001
0000
1000
0000
0000
0000
,
2002
0000
0000
0003
0000
0000
0010
0000
3010
1000
0100
0010
0001
0000
1100
0000
,
0000
0102
1000
0000
2003
3002
0203
0320
,
0000
0000
0100
0000
0130
0000
0010
1000
0001
0000
0010
0001
1000
0000
0100
0000
,
1000
0001
0100
0010
1000
0100
0011
0000
,
0110
0000
0100
0000
1000
0000
0001
0100
,
0001
0010
1000
0010
0100
0001
1000
0000
,
0010
0000
0100
0000
1000
0010
0001
0010
,
1000
0100
0010
0001
,
0101
0001
0010
0100
,
1000
0001
0010
1000
0010
0001
0100
0010
,
1000
0100
0010
0100
0010
0000
0100
1000
,
0010
0100
0001
0000
1000
0001
0010
0000
,
0101
0000
0100
0000
0010
0000
1000
0001
,
0010
0001
0010
0100
0010
1000
0010
0000
,
0001
0000
0100
0001
1000
0000
0100
1000
,
0001
0010
1000
0010
0001
0100
0010
0000
,
1000
0000
1010
0000
0010
1000
0010
1000
,
0001
0010
0100
1000
0010
0100
0010
0100
,
0001
0010
0100
1000
0010
0100
0001
1000
,
0100
0010
0001
0100
0010
1000
0001
0000
,
0011
0000
0010
0100
1000
0000
1010
0000
,
0001
1100
0010
1001
,
0100
0000
0010
0100
0001
0010
0100
0010
,
0100
0000
1000
0010
1000
0001
0010
0100
,
1000
0000
0001
0000
0100
0000
0010
0100
,
0001
0010
0100
1000
0010
1000
0001
0100
,
0001
0010
0100
1000
0010
0000
1000
0001
,
0100
0010
0100
0000
1001
0000
0100
0000
,
0010
0000
1000
0000
0100
0001
0100
1000
,
0100
0010
0100
0000
1000
0000
0001
0100
,
0001
0000
0010
0100
1000
0010
0001
0010
,
0100
1000
0001
0000
0011
0000
0010
0000
,
0001
0000
0100
0010
1000
0100
0001
0100
,
1000
0010
0001
0010
1000
0001
0010
0100
,
0010
0100
0010
0001
0100
0010
1000
0001
,
0100
0000
0000
0000
0001
0000
0000
0000
0010
0000
0000
0000
1000
0000
0000
0000
2002
0000
0000
0000
0000
0000
0000
0000
0000
0000
0000
3000
0000
0000
0103
0010
,
1000
0000
0101
0000
2100
0100
3001
0000
0011
0010
0100
1000
0001
0100
0010
1000
,
0010
1000
0100
0010
0001
0100
1000
0000
1010
0000
0000
0000
1010
0000
0000
0000
,
0000
0000
0011
0011
,
0000
0000
0000
0000
1000
0001
1000
0001
,
0101
0101
0000
0000
,
1100
1100
0000
0000
,
0010
0001
0010
0100
0001
0100
1000
0000
;

//---------------dance-single - ----------------
#NOTES:
     dance-single:
     :
     Medium:
     14:
     0.786112,1.674919,0.639467,0.605811,0.424909,654.000000,578.000000,76.000000,72.000000,0.000000,0.000000,0.786112,1.674919,0.639467,0.605811,0.424909,654.000000,578.000000,76.000000,72.000000,0.000000,0.000000:
0000
0000
0000
0000
,
0000
0000
0000
0000
,
0000
0000
0000
0000
,
0000
0000
0000
0000
0000
0000
0000
0000
0000
0000
0000
0000
0000
0000
1000
0001
,
2000
0100
0100
0100
,
0100
0100
0100
3100
,
1000
0100
0000
1000
0001
0100
0000
0001
,
1000
1000
0001
0001
0010
0100
1001
0000
,
0010
1000
0010
0100
,
0001
1000
0001
0010
,
0000
0001
0001
1000
,
0010
1000
0100
0010
,
0100
1000
0010
0100
,
0001
1000
0010
0100
,
0000
0010
0010
1000
,
0100
1000
0001
0100
,
0010
1000
0100
0010
,
0001
0100
0010
1000
,
0000
0100
0100
0000
,
1000
0010
0100
0001
,
0010
0100
0010
0001
,
0100
0010
1000
0001
,
0000
1000
0001
1000
,
0010
0100
0010
0100
0020
0000
1030
0000
,
0010
1000
0100
0010
,
0001
0100
0001
0000
,
0100
0110
0000
1000
,
0001
0010
0100
0010
,
0100
1000
0010
1000
,
0001
0100
0001
0000
,
1000
0000
1001
0000
0000
0000
0001
0100
,
0001
0010
0100
1000
,
0001
1000
0010
0100
,
0001
1000
1100
0101
,
1000
0010
0100
0001
,
0010
0001
1000
0100
,
1000
0010
0100
0001
,
0000
0100
0110
0000
,
0010
1000
0010
1000
0010
0000
0000
0000
,
1000
2000
0000
0001
3002
0000
0100
0203
0000
0010
0320
0000
1000
0000
0001
0000
,
0130
0200
0000
0001
0302
0000
1000
2003
0000
0010
3020
0000
1030
0010
0100
0001
,
0010
0020
0000
0001
0032
0000
1000
2003
0000
0100
3200
0000
0001
0000
1000
0000
,
0301
0200
0000
1300
0002
0000
0013
0200
0000
1300
0020
0000
0130
0010
1000
0001
,
0100
0000
0000
0000
1010
0000
0000
0010
1000
0000
0100
0000
0010
0000
0001
0000
,
0000
0101
0000
1100
0000
0011
0000
1010
,
0000
0000
0000
0000
0110
0000
0000
0010
1000
0000
0001
0000
0100
0000
1001
0000
,
0000
1000
0001
0200
0000
0010
0310
0000
,
0001
0000
0000
0000
1100
0000
0000
1000
0001
0000
0100
0000
0010
0000
1000
0000
,
0000
1100
0000
0011
0000
0101
0000
1010
,
0000
0000
0000
0000
1001
0000
0000
1000
0010
0000
0100
0000
0001
0000
0011
0000
,
0000
1100
0000
0102
0000
1000
1003
0000
,
0010
0000
0000
0000
0101
0000
0000
0100
0010
0000
1000
0000
0001
0000
1000
0000
,
0000
1010
0000
0101
0000
0011
0000
1100
,
0000
0000
0000
0000
0101
0000
0000
0001
1000
0000
0010
0000
0100
0000
0110
0000
,
1001
0000
0000
0000
1000
0000
0000
0000
0011
0000
0000
0010
0100
0000
1000
0000
,
0001
0100
0000
0101
0000
0011
0000
1010
,
0000
0000
1100
0000
0000
0000
0000
0000
0011
0000
0000
0010
0100
0000
1000
0000
,
0001
1001
0000
1010
0000
1100
0001
0001
,
0010
0000
0001
0000
0010
0000
0100
0000
1000
0000
0010
0000
1000
0100
1000
0000
0001
0000
0001
0000
0000
0000
0100
0010
0100
0000
0001
0000
0000
0000
0000
0000
,
0010
0000
0100
0000
1000
0000
0001
1000
0001
0000
0010
0000
0100
0000
1000
0000
0020
0000
0000
0230
0000
0000
0302
0000
1000
0000
1000
0000
2003
0000
0000
0000
,
3010
0000
0010
0000
0000
0000
1000
0000
0001
0000
0100
0010
0100
0000
0001
0000
1000
0000
0010
0000
1000
0100
1000
0000
0001
0000
0100
0000
0001
0000
0000
0000
,
0010
0000
0001
1000
0001
1000
0001
0000
0100
0000
0000
0010
0100
0000
0001
0000
1000
0000
1000
0000
1000
0000
0001
0000
0100
0000
0100
0000
0100
0000
0000
0000
,
1002
0000
0103
0020
0000
1030
0002
0000
1003
0200
0000
1300
0001
0000
0110
0000
,
2001
0000
0000
3010
1000
0001
1000
0200
0000
0000
1300
0001
1000
0010
0200
0000
,
0302
0000
0000
1000
1003
0001
0010
0100
0010
0000
0001
1000
0000
0010
0100
0000
,
0102
0000
0000
1003
0001
0100
0001
0020
0000
0032
0000
0000
0103
0010
1000
0200
,
0000
1000
1300
0100
0010
0001
0100
0010
1000
0001
1000
0001
0000
0100
0110
0000
,
2010
0000
0001
3002
0000
2003
0000
3200
,
0000
0000
0000
0000
1300
0010
1000
0000
0002
0000
0000
0000
0103
0000
0000
0000
,
0201
0000
0000
0010
0310
1000
0001
0100
,
0001
0010
0100
2000
0000
3001
0100
0000
,
0120
0000
0000
0000
0000
0000
1000
0000
1030
0000
0001
0010
0001
0000
0200
0000
,
0000
0320
0000
0000
0130
0010
1000
0002
,
0000
0010
0013
0001
0100
0001
1000
0100
,
1000
0010
1000
0001
0100
0010
1001
0000
,
2200
0000
3300
0100
,
1000
0001
1000
0001
1000
0000
0020
0000
,
0000
0000
0000
0000
0130
0000
0001
0010
,
0001
1000
0020
0000
,
2030
0000
3001
1000
,
0010
0100
0001
0010
,
0100
1000
0010
0100
,
0001
0010
1000
0000
,
0022
0000
0000
0000
0033
0000
0100
0001
,
0100
0001
0100
0001
0100
0000
0110
0000
,
0000
1002
1003
0000
,
0001
0010
0100
2010
,
0000
0001
3001
1000
,
0100
0010
0001
0100
,
0010
1000
0100
0010
,
0001
0100
1000
0000
,
0110
0100
0001
1001
,
0000
1010
0000
2100
,
0001
0000
0000
0000
3010
0100
0010
0100
,
0010
1000
0001
0000
,
2100
0000
3100
0010
,
0001
1000
0100
0010
,
0011
0001
0100
1010
,
1000
1001
0220
0000
,
0030
0000
0001
0000
0301
0000
1000
0100
,
1000
1100
0000
0102
,
0013
0000
0002
2003
,
3020
0030
2001
0000
,
3001
1000
0001
0010
,
0100
1000
0010
1000
,
0100
0010
0001
0100
,
1000
0000
0000
0000
0000
0000
0000
0000
0000
0000
0000
0000
0000
0000
0000
0000
2002
0000
0000
0000
0000
0000
0000
0000
0000
0000
0000
0000
3003
0000
1000
0100
,
2000
0000
3001
0000
0020
0230
2300
3000
1100
0000
0001
1000
0001
0010
0100
1000
,
0000
0101
0100
0000
1000
2000
3001
0000
1010
0000
0000
0000
1010
0000
0000
0000
,
0000
0000
0101
0101
,
0000
0000
0000
0000
1000
0100
0001
0000
,
0011
0011
0000
0000
,
1100
1100
0000
0000
,
0001
0010
0100
1000
;

//---------------dance-single - ----------------
#NOTES:
     dance-single:
     :
     Easy:
     10:
     0.536094,1.196371,0.378632,0.689951,0.172488,446.000000,401.000000,45.000000,82.000000,0.000000,0.000000,0.536094,1.196371,0.378632,0.689951,0.172488,446.000000,401.000000,45.000000,82.000000,0.000000,0.000000:
0000
0000
0000
0000
,
0000
0000
0000
0000
,
0000
0000
0000
0000
,
0000
0000
0000
0000
,
2000
0100
0100
0100
,
0100
0100
0100
3100
,
1001
0000
1001
0000
,
0010
0100
0010
1001
,
1000
0000
0001
0000
,
1000
0100
0000
0010
,
0000
0001
0100
0000
,
0001
0000
1000
0000
,
0010
0000
1000
0000
,
0001
1000
0000
0100
,
0000
0010
0001
0000
,
0100
0000
1000
0000
,
0001
0000
1000
0000
,
0010
1000
0000
0100
,
0000
0010
0001
0000
,
0100
0000
0001
0000
,
0010
0000
0100
0000
,
1000
0010
0000
1000
,
0000
0001
0100
0000
,
0001
0000
0120
1030
,
0000
0001
0000
0100
,
0010
0000
0100
0000
,
0001
1000
0000
0010
,
0000
1000
0000
0100
,
0000
0010
0000
0001
,
0100
0000
0001
0000
,
1000
0100
0000
1000
,
0000
0010
0000
0100
,
0000
0010
0000
1000
,
0001
0000
1010
0101
,
0001
1000
0001
0000
,
0010
0000
0100
0000
,
1000
0010
0000
1000
,
0000
0001
0100
0000
,
0001
1000
0001
0000
,
2000
0000
0000
3002
0000
0000
0203
0000
0000
0320
0000
0000
0130
0000
1001
0000
,
0002
0000
0000
0023
0000
0000
0230
0000
0000
2300
0000
0000
3001
1000
0100
0000
,
0020
0000
0000
0230
0000
0000
2300
0000
0000
3002
0000
0000
1003
0000
0110
0000
,
0200
0000
0000
0302
0000
0000
2003
0000
0000
3020
0000
0000
0130
0010
1000
0000
,
0001
0000
0011
0000
0100
0000
0010
1000
,
0000
0002
0000
0023
0000
0230
0000
2300
,
0000
3000
1100
0000
0010
0000
0100
0001
,
0000
2000
0000
3002
0000
0000
1003
0000
,
0100
0000
0101
0000
0001
0000
1000
0010
,
0000
0200
0000
0320
0000
2030
0000
3002
,
0000
0003
0101
0000
1000
0000
0001
0100
,
0000
0020
0000
0230
0000
0000
0301
0000
,
1000
0000
1010
0000
0100
0000
0010
0001
,
0000
2000
0000
3020
0000
0230
0000
0302
,
0000
0003
1001
0000
0010
0000
1000
0001
,
1001
0100
0110
1000
,
0001
0010
0000
0020
0000
0032
0000
2003
,
0000
3200
0000
0300
1100
0000
1000
0000
,
0100
0010
0000
0001
0000
1000
0001
0100
,
0010
0100
0010
1000
0100
0010
0001
0000
1000
1000
0000
0001
0101
0000
0000
0000
,
0010
1000
0100
0010
0100
1000
0001
0000
0020
0000
0032
0000
2003
0000
0000
0000
,
3001
1000
0000
0000
1001
0000
0100
0000
0010
0000
0100
0000
1000
0001
0010
0000
,
0001
1000
0010
1000
0100
0010
0001
0000
1000
1000
1000
0000
0001
0001
0001
0000
,
1002
0000
0000
0100
0000
0000
0010
0000
0000
1003
0000
0000
0001
0000
0110
0000
,
2002
0000
3000
0000
1003
0100
1000
0002
0000
0000
0100
0000
0010
0000
1000
0000
,
0203
0000
0000
0000
0301
1000
0001
0000
0011
0000
0000
0101
0000
0000
1100
0000
,
2002
0000
0003
0000
3001
1000
0100
0010
0000
0020
0000
0000
0031
0100
0010
2000
,
0000
3000
1010
0000
1000
0001
0100
0000
0010
0000
0100
0001
0000
1000
0010
0000
,
0120
0000
1000
2030
0000
3002
0000
0203
,
0000
0000
0301
0010
0100
0000
1100
0000
,
0022
0000
0030
0000
1000
1000
1003
0000
,
0001
0000
1000
0100
0000
1000
0100
0000
,
2002
0000
3000
0000
0103
0010
1000
0001
,
0000
0002
0000
0000
0013
0100
1000
0002
,
0000
0003
0011
0000
1000
0001
1000
0000
,
0010
1000
0001
0100
0000
0000
1001
0000
,
2020
0000
3000
0000
,
1030
0010
1000
0002
,
0000
0000
0100
0000
,
1000
0000
0013
0000
,
0022
0000
0030
0000
,
0100
0100
0103
0000
,
0001
1000
0010
0100
,
0000
0010
1000
0000
,
2200
0000
0300
0000
,
3010
1000
0001
0100
,
0000
0200
0000
0000
,
0301
0100
0010
2000
,
0000
3000
0110
0000
,
0001
0100
1000
0000
,
0010
1000
0100
0010
,
0001
0100
0001
0000
,
2001
0000
0010
3020
,
0000
0230
0000
0302
,
0000
0000
1003
0000
,
0001
0010
0100
0000
,
0022
0000
0030
0000
,
0010
0010
0013
0000
,
0001
1000
0001
1000
,
0000
1001
0220
0000
,
0030
0000
0301
0100
,
0010
1000
0000
2000
,
0000
0000
3010
0100
,
0001
0000
1010
0000
,
1000
0010
1000
0001
,
0010
0100
1000
0010
,
0100
0010
1000
0100
,
0001
0000
2002
0000
,
3000
0000
0000
0000
0203
0000
0000
0010
0320
0000
1000
0000
0100
0000
0001
0000
,
0100
0000
1030
0000
0001
0001
0000
0000
0010
0000
0000
0000
0100
0000
0000
0000
,
0000
0000
0001
1000
,
0000
0000
1100
0011
,
0100
0010
0000
0000
,
1000
0001
0000
0000
,
0100
0010
0001
1000
;

//---------------dance-single - ----------------
#NOTES:
     dance-single:
     :
     Beginner:
     7:
     0.324541,0.572996,0.134625,0.033656,0.000000,270.000000,254.000000,16.000000,4.000000,0.000000,0.000000,0.324541,0.572996,0.134625,0.033656,0.000000,270.000000,254.000000,16.000000,4.000000,0.000000,0.000000:
// measure 0
0000
0000
0000
0000
,  // measure 1
0000
0000
0000
0000
,  // measure 2
0000
0000
0000
0000
,  // measure 3
0000
0000
0000
0000
,  // measure 4
2000
0000
0000
0000
,  // measure 5
3000
0000
0000
0000
,  // measure 6
0001
0000
1000
0000
,  // measure 7
0010
0010
0010
0000
,  // measure 8
1000
0000
0100
0000
,  // measure 9
1000
0000
0000
0000
,  // measure 10
0001
0000
0100
0000
,  // measure 11
0001
0000
0010
0000
,  // measure 12
0001
0000
0010
0000
,  // measure 13
0001
0000
0000
0000
,  // measure 14
1000
0000
0010
0000
,  // measure 15
1000
0000
0100
0000
,  // measure 16
1000
0000
0010
0000
,  // measure 17
1000
0000
0000
0000
,  // measure 18
0001
0000
0010
0000
,  // measure 19
0001
0000
0100
0000
,  // measure 20
0001
0000
0100
0000
,  // measure 21
0001
0000
0000
0000
,  // measure 22
1000
0000
0100
0000
,  // measure 23
1000
0000
0010
0100
,  // measure 24
0000
0001
0000
1000
,  // measure 25
0000
0000
0000
0010
,  // measure 26
0000
1000
0000
0001
,  // measure 27
0000
0100
0000
0010
,  // measure 28
0000
1000
0000
0001
,  // measure 29
0000
0000
0000
0010
,  // measure 30
0000
0100
0000
1000
,  // measure 31
0000
0001
0000
1000
,  // measure 32
0000
0010
0000
0100
,  // measure 33
0000
0000
1001
0000
,  // measure 34
0001
0000
1000
0000
,  // measure 35
0001
0000
0010
0000
,  // measure 36
0100
0000
0000
0000
,  // measure 37
1000
0000
0001
0000
,  // measure 38
1000
0000
0000
0000
,  // measure 39
0010
0010
1000
1001
,  // measure 40
0001
0001
0100
0110
,  // measure 41
1000
1000
0001
0011
,  // measure 42
0100
0100
0010
1010
,  // measure 43
0001
0001
0001
0000
,  // measure 44
1000
0100
0010
0001
,  // measure 45
0100
0010
0100
0000
,  // measure 46
0001
1000
0010
0000
,  // measure 47
1000
1000
1000
0000
,  // measure 48
0010
0100
0001
1000
,  // measure 49
0100
0010
0100
0000
,  // measure 50
1000
0001
1000
0000
,  // measure 51
0010
0010
0010
0000
,  // measure 52
0100
0010
1000
0001
,  // measure 53
0010
0001
0100
1000
,  // measure 54
0000
0100
0100
0100
,  // measure 55
0000
1000
0010
1000
,  // measure 56
0001
0100
0010
0100
,  // measure 57
0000
0001
0010
0001
,  // measure 58
1000
1000
0001
0100
,  // measure 59
0001
0010
0100
1000
,  // measure 60
0010
0100
0010
1000
,  // measure 61
0100
0010
0001
1000
,  // measure 62
1001
0000
0110
0000
,  // measure 63
1001
1000
0001
0100
,  // measure 64
0001
1000
0010
0010
,  // measure 65
0010
1000
0100
0010
,  // measure 66
0001
1000
0100
0100
,  // measure 67
1000
0010
1000
0001
,  // measure 68
0100
0010
0100
0000
,  // measure 69
0001
0000
1000
0001
,  // measure 70
0010
0100
1000
0001
,  // measure 71
0100
0000
0010
0100
,  // measure 72
1000
1000
0001
0001
,  // measure 73
0010
0001
0100
0001
,  // measure 74
1000
0100
1000
0000
,  // measure 75
1001
0000
0000
0000
,  // measure 76
1000
0000
0001
0000
,  // measure 77
1000
0000
0100
0000
,  // measure 78
0010
0000
0001
0000
,  // measure 79
0100
0000
0000
0000
,  // measure 80
0100
0000
0001
0000
,  // measure 81
1000
0000
0001
0000
,  // measure 82
1000
0000
0100
0000
,  // measure 83
0010
0000
0000
0000
,  // measure 84
0001
0000
1000
0000
,  // measure 85
0100
0000
0100
0000
,  // measure 86
0010
0000
0010
0000
,  // measure 87
0001
0000
0100
0000
,  // measure 88
1000
0000
0010
0000
,  // measure 89
0100
0000
0010
0000
,  // measure 90
1000
0000
0000
0000
,  // measure 91
0110
0000
0000
0000
,  // measure 92
0010
0000
0100
0000
,  // measure 93
1000
0000
0001
0000
,  // measure 94
0001
0000
0000
0000
,  // measure 95
0100
0000
0000
0000
,  // measure 96
0001
0000
1000
0000
,  // measure 97
0010
0000
0010
0000
,  // measure 98
0010
0000
1010
0000
,  // measure 99
0000
0000
1000
0000
,  // measure 100
0100
0000
0001
0000
,  // measure 101
0000
0000
0010
0000
,  // measure 102
0100
0000
1000
0000
,  // measure 103
0010
0000
1000
0000
,  // measure 104
0001
0000
1000
0000
,  // measure 105
0100
0000
0010
0000
,  // measure 106
0001
0000
2002
3003
,  // measure 107
0000
0100
0200
0300
,  // measure 108
0000
0001
0101
0000
,  // measure 109
0000
0000
1100
0000
,  // measure 110
0000
0000
0010
0010
,  // measure 111
1010
0000
0000
0000
,  // measure 112
0011
0000
0000
0000
,  // measure 113
1000
0000
1000
0000
;
