#VERSION:0.83;
#TITLE:Shake It Off;
#SUBTITLE:;
#ARTIST:Taylor Swift;
#TITLETRANSLIT:;
#SUBTITLETRANSLIT:;
#ARTISTTRANSLIT:;
#GENRE:;
#ORIGIN:;
#CREDIT:;
#BANNER:Shake It Off-bn.png;
#BACKGROUND:Shake It Off-bg.png;
#PREVIEWVID:;
#JACKET:Shake It Off-jacket.png;
#CDIMAGE:;
#DISCIMAGE:;
#LYRICSPATH:;
#CDTITLE:;
#MUSIC:Shake It Off.ogg;
#OFFSET:-0.111111;
#SAMPLESTART:29.013889;
#SAMPLELENGTH:20.000000;
#SELECTABLE:YES;
#DISPLAYBPM:160.000000;
#BPMS:0.000=160.000;
#STOPS:;
#DELAYS:;
#WARPS:;
#TIMESIGNATURES:0.000=4=4;
#TICKCOUNTS:0.000=4;
#COMBOS:0.000=1;
#SPEEDS:0.000=1.000=0.000=0;
#SCROLLS:0.000=1.000;
#FAKES:;
#LABELS:0.000=Song Start;
#BGCHANGES:;
#KEYSOUNDS:;
#ATTACKS:
;

//---------------dance-single - old scale 9----------------
#NOTEDATA:;
#CHARTNAME:;
#STEPSTYPE:dance-single;
#DESCRIPTION:old scale 9;
#CHARTSTYLE:;
#DIFFICULTY:Challenge;
#METER:13;
#RADARVALUES:0.611251,0.592298,0.417847,0.116997,0.000000,512.000000,462.000000,50.000000,14.000000,0.000000,0.000000,0.000000,0.000000,0.000000,0.611251,0.592298,0.417847,0.116997,0.000000,512.000000,462.000000,50.000000,14.000000,0.000000,0.000000,0.000000,0.000000,0.000000;
#CREDIT:;
#DISPLAYBPM:160.000000;
#NOTES:
// measure 0
0000
0000
0000
0000
,  // measure 1
0000
0000
0000
0000
,  // measure 2
0000
0000
0000
0000
,  // measure 3
0000
0000
0000
0000
0100
0010
0100
0010
,  // measure 4
1000
0001
0001
0000
0101
0000
0010
1000
,  // measure 5
1000
0000
1100
0000
0001
1000
0001
1000
,  // measure 6
0010
0100
0100
0000
1010
0000
1000
0001
,  // measure 7
0001
0000
0011
0000
0100
0010
0100
0010
,  // measure 8
1000
0100
0100
0000
1000
0001
0001
0000
,  // measure 9
0100
0010
1000
0000
1000
0010
0100
0001
,  // measure 10
0010
0001
0001
0000
0010
0100
0100
0000
,  // measure 11
1001
0000
1000
0100
0010
0001
0100
0001
,  // measure 12
1000
0010
0100
0000
0011
0000
1000
0001
,  // measure 13
0010
0000
1100
0000
0100
0010
1000
0001
,  // measure 14
0010
0100
1000
0000
1010
0000
0100
0001
,  // measure 15
1000
0000
0101
0000
0010
0100
0010
1000
,  // measure 16
0100
0010
0010
0000
0001
0100
0100
0000
,  // measure 17
1000
0100
0001
0000
0010
0100
0010
1000
,  // measure 18
0100
1000
1000
0000
0100
0010
0010
0000
,  // measure 19
0011
0000
0001
0100
1000
0100
0001
0000
,  // measure 20
2000
0100
3100
1000
0020
0100
0130
0000
,  // measure 21
0001
0010
0100
1000
0100
0010
0001
0000
,  // measure 22
0200
0001
0301
0100
0002
0010
0013
0000
,  // measure 23
1000
0100
0010
0001
0010
0100
1000
0000
,  // measure 24
0020
1000
1030
0100
0002
0010
0013
0000
,  // measure 25
0010
0100
0010
1000
0100
0000
1000
0001
,  // measure 26
0100
0000
0100
0001
0100
0010
0000
1000
,  // measure 27
0000
0000
1001
0000
1001
0000
1001
0100
,  // measure 28
0001
0100
1000
0100
0001
0010
1000
0000
,  // measure 29
0100
0010
0001
0100
1000
0000
1000
0010
,  // measure 30
1000
0100
0001
0100
1000
0010
0001
0000
,  // measure 31
0100
0010
1000
0100
0001
0000
0001
1000
,  // measure 32
0010
0001
0010
0100
0010
1000
0010
0000
,  // measure 33
0100
1000
0100
0010
0100
0001
0100
0000
,  // measure 34
0001
0001
0001
0100
0010
0000
1000
1000
,  // measure 35
1000
0011
0011
0011
,  // measure 36
0100
0001
0100
0010
0001
0100
1000
0000
,  // measure 37
0100
0010
0100
0010
0100
0000
0001
1000
,  // measure 38
0100
0010
0001
0100
0010
1000
0001
0000
,  // measure 39
1000
0100
0001
1000
0001
0000
0100
0010
,  // measure 40
0001
0010
1000
0100
1000
0010
0001
0000
,  // measure 41
0100
0010
0001
0100
1000
0001
1000
0000
,  // measure 42
0010
0010
0010
1000
0001
0000
0100
0100
,  // measure 43
0100
0000
1000
0010
0001
0100
1000
0000
,  // measure 44
1001
0000
0001
0000
0100
0010
0100
0000
,  // measure 45
1000
0000
1100
0000
0001
0100
0001
0000
,  // measure 46
0011
0000
1000
0000
0100
0010
0100
0000
,  // measure 47
1000
0000
0101
0000
0001
1000
0001
0000
,  // measure 48
0110
0000
1000
0000
0100
0010
0001
0000
,  // measure 49
0001
0000
1010
0000
0100
0010
1000
0000
,  // measure 50
2010
3001
0201
0310
,  // measure 51
1001
0110
0110
0110
,  // measure 52
1001
0000
0011
0000
1100
0000
1000
0100
,  // measure 53
1100
0000
1001
0000
0101
0000
0010
1000
,  // measure 54
0110
0000
0011
0000
1100
0001
0001
0000
,  // measure 55
1000
1000
0001
0001
0100
0100
0010
0010
,  // measure 56
1000
0100
0001
0100
2000
3010
0001
0010
,  // measure 57
0100
0010
1000
0100
0020
0031
1000
0001
,  // measure 58
0100
0100
0010
0010
1000
1000
0001
0001
,  // measure 59
0011
0000
0000
1001
0000
0000
1100
0000
,  // measure 60
0000
0000
0000
0000
,  // measure 61
0000
0000
1001
0000
1001
0000
1001
1000
,  // measure 62
0100
0010
0001
0010
0100
1000
0001
0000
,  // measure 63
0100
0010
0100
0010
0001
0000
0001
1000
,  // measure 64
0100
0010
1000
0100
0001
0010
0001
0000
,  // measure 65
1000
0100
0001
0100
1000
0000
0010
0010
,  // measure 66
0100
0010
0001
0100
1000
0010
0100
0000
,  // measure 67
0010
0100
1000
0001
0100
0001
0010
0000
,  // measure 68
0002
1000
1003
0001
0100
0000
0200
0010
,  // measure 69
0310
1010
1010
1010
,  // measure 70
0010
0100
1000
0100
0001
1000
0010
0000
,  // measure 71
0100
0010
0100
1000
0100
0000
0001
1000
,  // measure 72
0010
0001
0010
1000
0010
0100
0010
0000
,  // measure 73
0001
0100
1000
0001
0010
0000
0100
1000
,  // measure 74
0010
0001
0010
0001
0100
0010
1000
0000
,  // measure 75
0100
0010
0100
1000
0100
0010
0001
0000
,  // measure 76
1000
1000
1000
0001
0100
0000
0001
0001
,  // measure 77
0001
0000
1100
1010
0000
0011
0000
2002
,  // measure 78
0000
0000
0000
3003
;

//---------------dance-single - old scale 8----------------
#NOTEDATA:;
#CHARTNAME:;
#STEPSTYPE:dance-single;
#DESCRIPTION:old scale 8;
#CHARTSTYLE:;
#DIFFICULTY:Hard;
#METER:11;
#RADARVALUES:0.575435,0.559393,0.902550,0.183853,0.000000,482.000000,374.000000,108.000000,22.000000,0.000000,0.000000,0.000000,0.000000,0.000000,0.575435,0.559393,0.902550,0.183853,0.000000,482.000000,374.000000,108.000000,22.000000,0.000000,0.000000,0.000000,0.000000,0.000000;
#CREDIT:;
#DISPLAYBPM:160.000000;
#NOTES:
0000
0000
0000
0000
,
0000
0000
0000
0000
,
0000
0000
0000
0000
,
0000
0000
0000
0000
0100
0010
0100
0010
,
1000
0100
0100
1000
,
0001
0000
0001
0000
0010
0100
0010
0100
,
1000
0010
0010
0001
,
1000
0000
0001
0000
1000
0001
1000
0001
,
0100
0010
0100
0000
0001
0000
1100
0000
,
0101
0000
0010
0000
0001
1000
0001
1000
,
0010
0100
0010
0000
1000
0000
1010
0000
,
0011
0000
0100
0010
1000
0100
0010
0001
,
0100
0001
0001
0100
,
0010
0000
0010
0000
1000
0100
1000
0100
,
0010
0100
0100
1000
,
0010
0000
0001
0000
0100
0001
1000
0001
,
0100
0010
0100
0000
0001
0000
1010
0000
,
0101
0000
1000
0000
0100
0010
0100
0010
,
0001
0100
1000
0000
0010
0000
1100
0000
,
0011
2000
3002
2003
,
3020
0000
1030
0100
2000
0000
3001
0000
,
0110
1001
0110
1001
,
2000
0000
3010
0100
0020
0000
1030
0100
,
1000
0101
1100
1001
,
0002
0000
0103
0010
2000
0000
3001
0000
,
0011
0000
1010
0000
0110
0000
0100
0010
,
1000
0000
1000
0100
0010
0001
0000
0001
,
0000
1001
1001
1001
,
0001
0100
1000
0100
0001
0000
0011
0000
,
0101
1100
1010
0110
,
1000
0100
0001
0100
1000
0000
1100
0000
,
0011
0000
1010
0000
0101
0000
1000
0001
,
1000
0010
0001
0010
1000
0000
0011
0000
,
0101
0000
1100
0000
1010
0100
1000
0000
,
0001
1000
1001
0000
0000
0000
0010
0100
,
0110
1001
1001
1001
,
1000
0100
0001
0100
1000
0000
0011
0000
,
0110
1100
1001
0101
,
0001
0010
1000
0010
0001
0000
0110
0000
,
1100
0000
0011
0000
1001
0000
0010
0100
,
0001
0100
1000
0100
0001
0000
0011
0000
,
1010
0000
0101
0000
1100
0001
0100
0000
,
1000
0100
1100
0000
0000
0000
0010
0001
,
0011
0100
0100
0100
,
1001
0000
0100
0000
0010
1000
0010
0000
,
1000
0000
1100
0000
0001
1000
0001
0000
,
0101
0000
0010
0000
1000
0001
1000
0000
,
0100
0000
0011
0000
0001
0010
0001
0000
,
1010
0000
1000
0000
0100
0010
0001
0000
,
0110
0000
0010
0000
1000
0001
0100
0000
,
1010
0000
0101
0000
,
1001
0110
0110
0110
,
2001
0000
3200
0000
0320
0000
0031
0100
,
0002
0000
2003
0000
3020
0000
1030
0001
,
0200
0302
2000
3003
,
0010
1000
0010
1000
0010
1000
0010
1000
,
0010
0100
0001
0100
0020
0000
1030
0010
,
1000
0100
0001
0000
1002
0000
0103
0001
,
1000
0001
1000
0001
0100
0010
0100
0010
,
1010
0000
0000
1001
0000
0000
0101
0000
,
0000
0000
0000
0000
,
0000
1001
1001
1001
,
0010
1000
0100
1000
0010
0000
0101
0000
,
1100
0011
1010
1001
,
0100
0001
0010
0001
0100
0000
1001
0000
,
1010
0000
0101
0000
0011
0000
0100
0010
,
1000
0001
1000
0010
0100
0000
0011
0000
,
1100
0000
0110
0000
1001
0100
0010
0000
,
1000
1000
1100
0000
0000
0000
0001
0001
,
0101
0110
0110
0110
,
1000
0001
0010
0001
1000
0000
1100
0000
,
0110
0011
0110
1100
,
0100
0001
1000
0001
0100
0000
0011
0000
,
1010
0000
1100
0000
0101
0000
0001
1000
,
0100
0010
0100
1000
0001
0000
0110
0000
,
1100
0000
0011
0000
0101
0001
1000
0000
,
0100
0100
0110
0000
0000
0000
0010
0010
,
0110
0000
1000
0001
0000
0100
0000
2002
,
0000
0000
0000
3003
;

//---------------dance-single - old scale 6----------------
#NOTEDATA:;
#CHARTNAME:;
#STEPSTYPE:dance-single;
#DESCRIPTION:old scale 6;
#CHARTSTYLE:;
#DIFFICULTY:Medium;
#METER:9;
#RADARVALUES:0.419041,0.493582,0.392776,0.309207,0.000000,351.000000,304.000000,47.000000,37.000000,0.000000,0.000000,0.000000,0.000000,0.000000,0.419041,0.493582,0.392776,0.309207,0.000000,351.000000,304.000000,47.000000,37.000000,0.000000,0.000000,0.000000,0.000000,0.000000;
#CREDIT:;
#DISPLAYBPM:160.000000;
#NOTES:
0000
0000
0000
0000
,
0000
0000
0000
0000
,
0000
0000
0000
0000
,
0000
0000
0000
0000
0100
0010
0100
0010
,
2000
0000
0000
3000
,
0000
0000
0000
0001
1000
0100
1000
0001
,
0200
0000
0000
0300
,
0000
0000
0000
0000
0001
0010
0001
0010
,
0001
1000
0001
0000
0000
0000
1100
0000
,
0101
0000
0000
0000
0010
0100
0010
0100
,
0001
1000
0001
0000
0000
0000
1010
0000
,
0011
0000
0100
0010
1000
0010
0100
0010
,
2000
0000
0000
3000
,
0000
0000
0000
0010
1000
0100
1000
0001
,
0020
0000
0000
0030
,
0000
0001
1000
0000
1000
0100
0010
0001
,
0100
0010
0100
0000
0000
0000
0011
0000
,
1010
0000
0000
0000
1000
0100
1000
0010
,
0100
0010
1000
0000
0000
0000
0101
0000
,
1100
2000
3002
2003
,
3020
0000
0000
0100
0200
0000
0330
0000
,
0002
0023
0230
2300
,
3002
0000
0000
1000
2000
0000
3003
1000
,
0020
0230
0302
2003
,
3002
0000
0000
0010
0020
0000
0033
0000
,
2000
0000
3002
0000
0203
0000
0301
1000
,
0001
0000
0001
0010
0100
1000
0000
1000
,
0000
1001
1001
1001
,
0010
1000
0001
0100
,
0001
0000
0001
0000
0001
0000
1000
0100
,
1000
0010
0100
0001
,
1000
0000
1000
0000
1000
0000
0001
0100
,
0001
0010
0100
1000
,
1100
0101
1100
0000
,
0001
1000
0001
0000
0000
0000
1000
0001
,
1000
1001
1001
1001
,
0010
0100
0001
1000
,
0010
0000
0010
0000
0010
0000
0100
0001
,
0100
0001
0010
1000
,
0100
0000
0100
0000
0100
0000
0010
0001
,
1000
0001
0100
0010
,
1010
0011
1010
0000
,
0100
0010
0100
0000
0000
0000
0010
0100
,
0010
1000
0001
0100
,
1001
0000
0100
0000
0000
0010
0100
0000
,
1000
0000
1100
0000
0000
0001
0100
0000
,
1001
0000
1000
0000
0000
0001
1000
0000
,
0010
0000
1010
0000
0000
1000
0100
0000
,
1001
0000
0001
0000
0000
0100
0001
0000
,
0010
0000
0101
0000
0000
0100
0010
0000
,
2000
0000
0002
3003
,
1001
0110
0110
0110
,
2001
0000
3020
0000
2030
0000
3100
0010
,
0002
0000
2003
0000
3200
0000
1300
0001
,
0100
0100
0200
0300
,
0001
1000
0001
1000
,
0001
0100
0010
0100
0002
0000
1003
0000
,
0010
1000
0010
0000
0200
0000
0301
0000
,
1000
0100
1000
0000
0001
0100
0001
0000
,
0101
0000
0000
1100
0000
0000
1001
0000
,
0000
0000
0000
0000
,
0000
0110
0110
0110
,
1000
0100
0010
0001
,
1000
0000
1000
0000
1000
0000
0100
0010
,
0001
1000
0100
0010
,
0001
0000
0001
0000
0001
0000
0010
0100
,
1000
0010
0100
0001
,
0101
1010
0101
0000
,
1000
0100
1000
0000
0000
0000
0001
0100
,
0001
1001
1001
1001
,
0010
0001
0100
1000
,
0010
0000
0010
0000
0010
0000
1000
0001
,
0100
0010
1000
0001
,
0100
0000
0100
0000
0100
0000
0001
0100
,
0010
0001
1000
0100
,
1100
0011
1100
0000
,
1000
0010
1000
0000
0000
0000
0001
0010
,
0001
0000
0100
0010
0000
1000
0000
2002
,
0000
0000
0000
3003
;

//---------------dance-single - old scale 4----------------
#NOTEDATA:;
#CHARTNAME:;
#STEPSTYPE:dance-single;
#DESCRIPTION:old scale 4;
#CHARTSTYLE:;
#DIFFICULTY:Easy;
#METER:6;
#RADARVALUES:0.272198,0.394865,0.100283,0.083569,0.000000,228.000000,216.000000,12.000000,10.000000,0.000000,0.000000,0.000000,0.000000,0.000000,0.272198,0.394865,0.100283,0.083569,0.000000,228.000000,216.000000,12.000000,10.000000,0.000000,0.000000,0.000000,0.000000,0.000000;
#CREDIT:;
#DISPLAYBPM:160.000000;
#NOTES:
0000
0000
0000
0000
,
0000
0000
0000
0000
,
0000
0000
0000
0000
,
0000
0000
0100
0100
,
1000
0000
0000
0000
,
0000
0000
0001
0001
,
0100
0000
0000
0000
,
0000
0000
0010
0010
,
1000
0001
0000
0100
,
0100
0000
0010
0100
,
0001
1000
0000
0010
,
0010
1000
0001
0100
,
0001
0000
0000
0000
,
0000
0000
0100
0010
,
0100
0000
0000
0000
,
0000
0001
1000
0001
,
0100
0010
0000
1000
,
1000
0000
0100
0001
,
1000
0010
0000
0001
,
0001
0010
0100
1000
,
0002
0000
2000
3003
,
1000
0100
0010
0001
,
0200
0000
0020
0330
,
0100
0010
1000
0001
,
2000
0000
0200
3300
,
1000
0001
0100
0010
,
1000
0010
0100
0001
,
1000
0000
0000
0000
,
0001
0100
0001
1000
,
0100
0010
0001
0000
,
0010
1000
0010
0100
,
0001
0100
1000
0000
,
0010
1000
0010
0100
,
0001
1000
0001
0000
,
1000
1100
0000
0001
,
0101
0000
0000
0000
,
0010
0100
0010
1000
,
0100
0010
0001
0000
,
1000
0001
0010
1000
,
0100
0010
0001
0000
,
0001
0100
0001
0100
,
0010
1000
0010
0000
,
0001
0101
0000
1000
,
1100
1000
0001
0100
,
0002
0100
0000
0100
,
0000
0100
0000
0103
,
0000
1000
0000
0001
,
0000
1000
0000
0001
,
0000
0100
0000
0010
,
0000
1000
0000
0001
,
1000
0000
1000
0000
,
0020
0000
0000
0030
,
1000
1000
1000
0000
,
0001
0001
0001
0000
,
0100
0100
0100
0000
,
0001
0010
0100
1000
,
0001
0001
0001
0000
,
0100
0100
0100
0000
,
0010
1000
0001
0100
,
0001
0000
0000
0001
0000
0000
0001
0000
,
0000
0000
0000
0000
,
0000
1001
1001
1001
,
0010
1000
0010
0100
,
0001
0010
1000
0000
,
0100
0010
0100
1000
,
0100
0001
1000
0000
,
0001
0010
0100
1000
,
0100
0010
0001
0000
,
1000
1100
0000
0001
,
0101
0000
0000
0000
,
0010
0001
0100
0010
,
1000
0100
0001
0000
,
0100
0001
0010
1000
,
0100
0010
1000
0000
,
1000
0100
0010
0001
,
0010
0100
1000
0000
,
0001
0101
0000
1000
,
1100
1000
0001
0100
,
2002
0000
0000
3003
;

//---------------dance-single - old scale 2----------------
#NOTEDATA:;
#CHARTNAME:;
#STEPSTYPE:dance-single;
#DESCRIPTION:old scale 2;
#CHARTSTYLE:;
#DIFFICULTY:Beginner;
#METER:3;
#RADARVALUES:0.149231,0.230338,0.025071,0.016714,0.000000,125.000000,122.000000,3.000000,2.000000,0.000000,0.000000,0.000000,0.000000,0.000000,0.149231,0.230338,0.025071,0.016714,0.000000,125.000000,122.000000,3.000000,2.000000,0.000000,0.000000,0.000000,0.000000,0.000000;
#CREDIT:;
#DISPLAYBPM:160.000000;
#NOTES:
0000
0000
0000
0000
,
0000
0000
0000
0000
,
0000
0000
0000
0000
,
0000
0000
0100
0000
,
0100
0000
0000
0000
,
0000
0000
0010
0000
,
0010
0000
0000
0000
,
0000
0000
1000
0000
,
1000
0000
0000
0000
,
0000
0000
0001
0000
,
0001
0000
0000
0000
,
0000
0000
1000
0000
,
1000
0000
0000
0000
,
0000
0000
0100
0000
,
0100
0000
0000
0000
,
0000
0000
0010
0000
,
0010
0000
0000
0000
,
0000
0000
0001
0000
,
0001
0000
0000
0000
,
0000
0000
0000
0000
,
1000
0000
0001
0000
,
0000
0000
0000
0000
,
0100
0000
0010
0000
,
0000
0000
0000
0000
,
1000
0000
0010
0000
,
1000
1000
1000
0000
,
0001
0000
1000
0000
,
0001
0000
0000
0000
,
0010
0000
0010
0000
,
0010
0010
0010
0000
,
0100
0000
0100
0000
,
0100
0100
0100
0000
,
0001
0000
0001
0000
,
1000
1000
1000
0000
,
0001
0001
0000
0000
,
1000
0000
0000
0000
,
0001
0000
0001
0000
,
0001
0001
0001
0000
,
1000
0000
1000
0000
,
1000
1000
1000
0000
,
0010
0000
0010
0000
,
0100
0100
0100
0000
,
0010
0010
0000
0000
,
0001
0000
0000
0000
,
1001
0000
0000
0000
,
0000
0000
0000
0000
,
0000
0000
0000
0000
,
0000
0000
0000
0000
,
0000
0000
0000
0000
,
0000
0000
0000
0000
,
1000
0000
1000
0000
,
1000
0000
0000
0000
,
0001
0000
0001
0000
,
1000
0000
1000
0000
,
0100
0100
0100
0000
,
0000
0000
0000
0000
,
1000
1000
1000
0000
,
0001
0001
0001
0000
,
0010
0000
0010
0000
,
1001
0000
0000
0000
,
0000
0000
0000
0000
,
0000
0000
0000
0000
,
0001
0000
1000
0000
,
0001
0001
0001
0000
,
0100
0000
0010
0000
,
0100
0100
0100
0000
,
0010
0000
1000
0000
,
0010
0010
0010
0000
,
1000
1000
0000
0000
,
0001
0000
0000
0000
,
0010
0000
0001
0000
,
0010
0010
0010
0000
,
0100
0000
1000
0000
,
0100
0100
0100
0000
,
1000
0000
0001
0000
,
1000
1000
1000
0000
,
0001
0001
0000
0000
,
0100
0000
0010
0000
,
2002
0000
0000
3003
;
