#TITLE:Shades of Grey;
#SUBTITLE:;
#ARTIST:Fracus;
#TITLETRANSLIT:;
#SUBTITLETRANSLIT:;
#ARTISTTRANSLIT:;
#GENRE:;
#CREDIT:;
#BANNER:Shades of Grey-bn.png;
#BACKGROUND:Shades of Grey-bg.png;
#LYRICSPATH:;
#CDTITLE:;
#MUSIC:Shades of Grey.ogg;
#OFFSET:0.000000;
#SAMPLESTART:12.710000;
#SAMPLELENGTH:20.000000;
#SELECTABLE:YES;
#DISPLAYBPM:170.000000;
#BPMS:0.000000=170.615997
,4.000000=169.994003
;
#STOPS:
;
#BGCHANGES:;
#KEYSOUNDS:;
#ATTACKS:;

//---------------dance-single - ----------------
#NOTES:
     dance-single:
     :
     Beginner:
     3:
     0.107225,0.274859,0.126858,0.000000,0.000000,71.000000,59.000000,12.000000,0.000000,0.000000,0.000000,0.107225,0.274859,0.126858,0.000000,0.000000,71.000000,59.000000,12.000000,0.000000,0.000000,0.000000:
0000
0000
0000
0000
,
0000
0000
0000
0000
,
0000
0000
0000
0000
,
0000
0000
0000
0000
,
0000
0000
0000
0000
,
0010
0000
0000
0000
,
0010
0000
0000
0000
,
0010
0000
0000
0000
,
0110
0000
0110
0000
,
0000
0000
0000
0000
,
0000
0000
0000
0000
,
0001
0000
0000
0000
,
0001
0000
0000
0000
,
0010
0000
0000
0000
,
0010
0000
0000
0000
,
0100
0000
0000
0000
,
0100
0000
0000
0000
,
1000
0000
0000
0000
,
1000
0000
0000
0000
,
0100
0000
0000
0000
,
0100
0000
0000
0000
,
0010
0000
0000
0000
,
0010
0000
0000
0000
,
0001
0000
0000
0000
,
0001
0000
0000
0000
,
0010
0000
0000
0000
,
0010
0000
0000
0000
,
0100
0000
0000
0000
,
0100
0000
0000
0000
,
1000
0000
0000
0000
,
1000
0000
0000
0000
,
0001
0000
0000
0000
,
1000
0000
0000
0000
,
1001
0000
0000
0000
,
0100
0000
0000
0000
,
0100
0000
0000
0000
,
0000
0000
0000
0000
,
0000
0000
0000
0000
,
0010
0000
0000
0000
,
0010
0000
0000
0000
,
0001
0000
0000
0000
,
0100
0000
0000
0000
,
0100
0000
0000
0000
,
0010
0000
0000
0000
,
0010
0000
0000
0000
,
0110
0000
0000
0000
,
0110
0000
0000
0000
,
0110
0000
0110
0000
,
0110
0000
1000
1000
,
0000
0000
0000
0000
,
0000
0000
0000
0000
,
0001
0000
0000
0000
,
0010
0000
0000
0000
,
0100
0000
0000
0000
,
1000
0000
0000
0000
,
0100
0000
0000
0000
,
0010
0000
0000
0000
,
0001
0000
0000
0000
,
0000
0000
0000
0000
,
1000
0000
0000
0000
,
0010
0000
0000
0000
,
0010
0000
0000
0000
,
0001
0000
0000
0000
,
1001
0000
0000
0000
,
0110
0000
0110
0000
,
1001
0000
0000
0000
,
0000
0000
0000
0000
;

//---------------dance-single - ----------------
#NOTES:
     dance-single:
     :
     Easy:
     5:
     0.225022,0.343574,0.179715,0.052857,0.000000,149.000000,132.000000,17.000000,5.000000,0.000000,0.000000,0.225022,0.343574,0.179715,0.052857,0.000000,149.000000,132.000000,17.000000,5.000000,0.000000,0.000000:
0000
0000
0000
0000
,
0000
0000
0000
0000
,
0000
0000
0000
0000
,
0000
0000
0000
0000
,
0000
0000
0000
0000
,
0001
0000
0010
0000
,
0100
0000
1000
0000
,
1000
0000
0100
0000
,
1100
0000
1100
0000
,
1000
1000
1000
1000
,
1000
1000
1000
1000
,
0001
0001
0001
0001
,
0001
0001
0001
0001
,
0010
0000
0010
0100
,
0010
0000
0010
0100
,
0010
0000
0100
0100
,
1100
0000
0000
0000
,
0010
0000
1000
0000
,
0010
0000
0001
0000
,
0010
0000
1000
0000
,
0010
0000
0001
0000
,
0001
0000
0010
0000
,
0010
0000
1000
1000
,
0001
0000
1000
0000
,
1000
0000
0001
0001
,
0011
0000
0000
0000
,
1000
0001
0000
0000
,
0100
0010
0000
0000
,
1000
0001
0000
0000
,
0010
0000
0100
0100
,
0010
0000
1000
1000
,
0001
0001
0001
0001
,
1000
1000
1000
1000
,
1001
0000
0001
0000
,
0200
0300
0200
0300
,
0020
0000
0030
0000
,
0000
0000
0000
0000
,
0001
0000
0000
0000
,
0010
0000
0000
0000
,
0010
0000
0000
0000
,
0010
0000
0000
0000
,
0100
0000
0001
0001
,
0100
0000
1000
1000
,
0010
0000
0001
0001
,
0010
0000
1000
1000
,
1100
0000
0000
0000
,
1100
0000
0000
0000
,
1100
0000
1100
0000
,
1001
0000
0011
0011
,
0000
0000
0000
0000
,
0000
0000
0000
0000
,
0001
0000
0010
0000
,
0100
0000
1000
0000
,
1000
0000
1000
0001
,
1000
0000
1000
0001
,
1000
0000
0001
0001
,
1000
0000
0001
0001
,
0020
0000
0000
0000
,
0000
0000
0030
0000
,
0200
0000
0000
0300
,
1000
0000
0001
0001
,
1001
0000
1000
0100
,
1000
0000
1000
0100
,
1001
0000
0000
0000
,
0110
0000
0110
0000
,
1010
0000
0000
0000
,
0000
0000
0000
0000
;

//---------------dance-single - ----------------
#NOTES:
     dance-single:
     :
     Medium:
     8:
     0.383594,0.618432,0.327716,0.063429,0.000000,254.000000,223.000000,31.000000,6.000000,0.000000,0.000000,0.383594,0.618432,0.327716,0.063429,0.000000,254.000000,223.000000,31.000000,6.000000,0.000000,0.000000:
0000
0000
0000
0000
,
0000
0000
0000
0000
,
0000
0000
0000
0000
,
0000
0000
0000
0000
,
0000
0000
0000
0000
,
0001
0010
0100
1000
,
0001
0010
0100
1000
,
0001
0010
0100
1000
,
1100
0001
0010
0001
,
0011
0011
0011
0011
,
0011
0011
0011
0011
,
0001
0001
0001
0001
,
0001
0001
0001
0001
,
0010
0010
0010
0100
,
0010
0010
0010
0100
,
1000
0010
0100
0001
,
1010
0000
0000
0000
,
0001
1000
0100
0001
,
0010
0010
0100
0100
,
0001
1000
0100
0001
,
0010
0010
0100
0100
,
1000
1000
0001
0001
,
0010
0010
0001
0100
,
0010
0010
1000
0100
,
1000
1000
1000
0100
,
0011
0000
0000
0000
,
1000
0001
0000
0000
,
0100
0010
0000
0000
,
1000
0001
0000
0000
,
0010
0010
0100
0100
,
1000
1000
0100
0010
,
0001
0100
0001
0100
0001
0100
0001
0100
,
0010
1000
0010
1000
0010
1000
0010
1000
,
0101
0000
1000
0000
,
0201
0300
0201
0300
,
0021
0000
0030
0000
,
0001
0000
0000
0000
1000
0000
1000
0200
,
0000
0000
0000
0300
0000
0000
0000
0000
,
0010
0000
0000
0001
1000
0000
0000
0000
,
0010
0000
0000
0010
1000
0000
0000
0000
,
0001
0000
0000
0001
1000
0000
0001
0000
,
1100
0001
0001
0001
,
0001
0001
0001
0001
,
1000
1000
1000
1000
,
0001
0010
0100
1000
,
1100
0000
0010
0001
0010
0000
0000
0000
,
1100
0000
0010
0001
0010
0000
0000
0000
,
1100
0100
1100
0100
,
0011
0000
0011
0011
,
0001
0010
0100
1000
,
0001
0010
0100
1000
,
0010
0010
1001
0100
,
0010
0010
1001
0100
,
1000
0010
0100
0001
,
1000
0010
0100
0001
,
1000
0000
1000
0001
1000
0000
1000
0000
,
1000
0010
1000
0010
1000
0100
1000
0000
,
0021
0001
0001
0001
,
0001
0001
0031
0000
,
1020
1000
1000
1030
,
0100
0100
1000
1000
,
0001
0000
0001
0000
0100
0010
0100
0000
,
0001
0000
0001
0000
0100
0010
0100
0000
,
1001
0000
0000
0000
,
0110
0000
0101
0000
,
1010
0000
0000
0000
,
0000
0000
0000
0000
;

//---------------dance-single - ----------------
#NOTES:
     dance-single:
     :
     Hard:
     10:
     0.437962,0.584075,0.370002,0.063429,0.000000,290.000000,255.000000,35.000000,6.000000,0.000000,0.000000,0.437962,0.584075,0.370002,0.063429,0.000000,290.000000,255.000000,35.000000,6.000000,0.000000,0.000000:
0000
0000
0000
0000
,
0000
0000
0000
0000
,
0000
0000
0000
0000
,
0000
0000
0000
0000
,
0000
0000
0000
0000
,
0001
0010
0100
1000
,
0001
0010
0100
1000
,
0001
0010
0100
1000
,
1100
0001
0010
0001
,
0011
0011
0011
0011
,
0011
0011
0011
0011
,
0001
0001
0001
0001
,
0001
0001
0001
0001
,
0010
0100
0010
0100
0010
0000
0100
0000
,
0010
0100
0010
0100
0010
0000
0100
0000
,
1000
0010
0100
0001
,
1010
0000
0000
0000
,
0001
1000
0100
0001
,
0010
0010
0100
0100
,
0001
1000
0100
0001
,
0010
0100
0010
0000
0100
0000
0100
0000
,
1000
1000
0001
0001
,
0010
0010
0001
0100
,
0001
0100
0001
0000
0010
0000
0010
0000
,
0100
1000
0100
0000
1000
0000
1000
0000
,
0011
0000
0000
0000
,
1000
0001
0000
0000
,
0100
0010
0000
0000
,
1000
0001
0000
0000
,
0010
0010
0100
0100
,
1000
1000
0100
0010
,
0001
0100
0001
0100
0010
0100
0010
0100
,
0010
1000
0010
1000
0100
1000
0100
1000
,
0001
0001
1001
0001
,
0201
0301
0201
0301
,
0021
0000
0001
0000
0031
0000
0001
0010
,
0001
0010
0001
0010
0001
0000
1000
0002
,
1000
0000
1000
0003
1000
0000
1000
0000
,
1010
0000
1000
0001
1000
0000
1000
0000
,
1010
0000
1000
0010
1000
0000
1000
0000
,
1001
0000
1000
0001
1000
0000
1001
0000
,
1100
0001
0001
0001
,
1000
0010
0100
0001
,
1000
1000
1000
1000
,
0010
0100
0010
0000
1000
0000
1000
0000
,
1100
0000
0010
0001
0010
0000
0100
0000
,
1100
0000
0010
0001
0010
0000
0100
0000
,
1100
0100
1100
0100
,
0011
0000
0011
0011
,
0001
0010
0100
1000
,
0001
0010
0100
1000
,
0010
0010
1001
0100
,
0010
0010
1001
0100
,
1000
0010
0100
0001
,
1000
0010
0100
0001
,
1000
0000
1000
0001
1000
0000
1000
0000
,
0010
0100
0010
1000
0100
1000
0001
0100
,
0021
0100
1000
0100
,
1000
0100
0031
0100
,
1020
0100
0001
0130
,
1000
0100
0010
0001
,
1000
0000
1000
0000
0100
0010
0100
0000
,
1000
0000
1000
0000
0100
0010
0100
0000
,
1001
0000
0000
0000
,
0110
0000
0101
0000
,
1010
0000
0000
0000
,
0000
0000
0000
0000
;

//---------------dance-double - ----------------
#NOTES:
     dance-double:
     :
     Easy:
     5:
     0.217471,0.343574,0.179715,0.052857,0.000000,144.000000,127.000000,17.000000,5.000000,0.000000,0.000000,0.217471,0.343574,0.179715,0.052857,0.000000,144.000000,127.000000,17.000000,5.000000,0.000000,0.000000:
00000000
00000000
00000000
00000000
,
00000000
00000000
00000000
00000000
,
00000000
00000000
00000000
00000000
,
00000000
00000000
00000000
00000000
,
00000000
00000000
00000000
00000000
,
00000001
00000000
00000010
00000000
,
00000100
00000000
00001000
00000000
,
00010000
00000000
00100000
00000000
,
01100000
00000000
01100000
00000000
,
10000000
10000000
10000000
10000000
,
00010000
00010000
00010000
00010000
,
00001000
00001000
00001000
00001000
,
00000001
00000001
00000001
00000001
,
00001000
00000000
00010000
00001000
,
00010000
00000000
00001000
00010000
,
00100000
00000000
01000000
01000000
,
01010000
00000000
00000000
00000000
,
00100000
00000000
00010000
00000000
,
00100000
00000000
00001000
00000000
,
00010000
00000000
00000100
00000000
,
00001000
00000000
00000100
00000000
,
00000001
00000000
00001000
00000000
,
00010000
00000000
10000000
00000000
,
01000000
00000000
00001000
00000000
,
00010000
00000000
00000100
00010000
,
00011000
00000000
00000000
00000000
,
00000100
00000000
00000000
00000000
,
00010000
00000000
00000000
00000000
,
01000000
00000000
00000000
00000000
,
00010000
00000000
00001000
00000100
,
00000010
00000000
00000001
00000001
,
00001000
00001000
00001000
00001000
,
00000010
00000000
00001000
00010000
,
01000000
00000000
00010000
00000000
,
00020000
00030000
00002000
00003000
,
00020000
00000000
00030000
00000000
,
00010000
00000000
00001000
00000000
,
00000100
00000000
00000000
00000000
,
00001001
00000000
00001000
00000000
,
00011000
00000000
00010000
00000000
,
10010000
00000000
00010000
00000000
,
00001000
00000000
00010000
00010000
,
00100000
00000000
00001000
00001000
,
00000100
00000000
00010000
00010000
,
01000000
00000000
00001000
00010000
,
00011000
00000000
00000100
00000000
,
00000101
00000000
00000100
00000000
,
00011000
00000000
00011000
00000000
,
00011000
00000000
01010000
01010000
,
00000000
00000000
00000000
00000000
,
00000000
00000000
00000000
00000000
,
10000000
00000000
00100000
00000000
,
00001000
00000000
00000010
00000000
,
00000001
00000000
00000100
00000000
,
00010000
00000000
01000000
00000000
,
00100000
00000000
00001000
00010000
,
00001000
00000000
00000000
00000000
,
00000200
00000000
00000000
00000000
,
00000000
00000000
00000300
00000000
,
02000000
00000000
00000000
03000000
,
00000000
00000000
00000000
00000000
,
00100000
00000000
00010000
00001000
,
00000100
00000000
00001000
00010000
,
01000000
00000000
00000000
00000000
,
00011000
00000000
00011000
00000000
,
00011000
00000000
00000000
00000000
,
00000000
00000000
00000000
00000000
;

//---------------dance-double - ----------------
#NOTES:
     dance-double:
     :
     Medium:
     7:
     0.354900,0.584075,0.327716,0.063429,0.000000,235.000000,204.000000,31.000000,6.000000,0.000000,0.000000,0.354900,0.584075,0.327716,0.063429,0.000000,235.000000,204.000000,31.000000,6.000000,0.000000,0.000000:
00000000
00000000
00000000
00000000
,
00000000
00000000
00000000
00000000
,
00000000
00000000
00000000
00000000
,
00000000
00000000
00000000
00000000
,
00000000
00000000
00000000
00000000
,
10000000
01000000
00100000
00010000
,
00001000
00000100
00000010
00000001
,
00000001
00000010
00000100
00001000
,
00011000
00000000
00011000
00000000
,
10010000
10010000
10010000
10010000
,
00011000
00011000
00011000
00011000
,
00001000
00001000
00001000
00001000
,
00010000
00010000
00010000
00010000
,
00000010
00000000
00010000
01000000
,
10000000
00000000
00010000
00001000
,
00000001
00000000
00000100
00000100
,
00011000
00000000
00000000
00000000
,
10000000
10000000
01000000
01000000
,
00100000
00100000
00001000
00001000
,
00010000
00010000
00000100
00000100
,
00001000
00001000
00000001
00000001
,
00000010
00000010
00010000
00010000
,
00100000
00100000
10000000
10000000
,
00010000
00010000
10000000
01000000
,
00010000
00010000
00000100
00001000
,
00000011
00000000
00000000
00000000
,
00000100
00001000
00000000
00000000
,
00010000
00100000
00000000
00000000
,
01000000
10000000
00000000
00000000
,
10000000
00010000
00001000
00000100
,
00000010
00000100
00001000
00000100
,
00010000
00000100
00010000
00000100
,
00010000
00001000
00100000
00010000
,
10000000
00000000
01000000
00000000
,
00012000
00003000
00012000
00003000
,
00001200
00000000
00000300
00000000
,
00001000
00000000
00000000
00000000
00010000
00000000
00000000
02000000
,
00000000
00000000
00000000
03000000
00000000
00000000
00000000
00000000
,
00100000
00000000
00000000
00001000
00010000
00000000
00000000
00000000
,
00000001
00000000
00000000
00001000
00000100
00000000
00000000
00000000
,
00001000
00000000
00000000
00010000
00001000
00000000
00001000
00000000
,
01000000
01000000
01000000
01000000
,
00100000
00010000
00001000
00000100
,
00000010
00000010
00000010
00000010
,
00000100
00000100
00001000
00010000
,
01010000
01000000
00001000
00000000
,
00000101
00000010
00010000
00000000
,
01010000
00000000
01010000
00000000
,
00011000
00000000
00001100
00001100
,
00000001
00000010
00000100
00001000
,
00010000
00100000
01000000
10000000
,
10000000
01000000
00100000
00010000
,
00001000
00000100
00000010
00000001
,
00001000
00000010
00001001
00000100
,
00010000
00100000
10010000
01000000
,
00001000
00000010
00001001
00000100
,
00010000
00000010
00010000
00000010
00010000
00000100
00010000
00000000
,
00021000
00001000
00001000
00001000
,
00001000
00001000
00031000
00000000
,
20010000
00010000
00010000
30010000
,
01000000
00001000
00010000
00000100
,
00000010
00000000
00000010
00000000
00001000
00010000
00001000
00000000
,
00100000
00000000
00100000
00000000
00001000
00010000
00001000
00000000
,
01010000
00000000
00000000
00000000
,
00011000
00000000
00001001
00000000
,
00011000
00000000
00000000
00000000
,
00000000
00000000
00000000
00000000
;

//---------------dance-double - ----------------
#NOTES:
     dance-double:
     :
     Hard:
     10:
     0.433431,0.584075,0.380574,0.063429,0.000000,287.000000,251.000000,36.000000,6.000000,0.000000,0.000000,0.433431,0.584075,0.380574,0.063429,0.000000,287.000000,251.000000,36.000000,6.000000,0.000000,0.000000:
00000000
00000000
00000000
00000000
,
00000000
00000000
00000000
00000000
,
00000000
00000000
00000000
00000000
,
00000000
00000000
00000000
00000000
,
00000000
00000000
00000000
00000000
,
10000000
01000000
00100000
00010000
,
00001000
00000100
00000010
00000001
,
00000001
00000010
00000100
00001000
,
00011000
00100000
01100000
10000000
,
10010000
10010000
10010000
10010000
,
00011000
00011000
00011000
00011000
,
00000100
00000010
00000100
00001000
,
00010000
00100000
01000000
00010000
,
00000010
00001000
00000010
00001000
00000010
00000000
00010000
00000000
,
01000000
10000000
01000000
10000000
01000000
00000000
10000000
00000000
,
00100000
00010000
00001000
00000010
,
00000011
00000000
00000000
00000000
,
00010000
10000000
01000000
00010000
,
00001000
00000010
00000001
00000100
,
00000001
00001000
00000100
00000001
,
00000100
00001000
00010000
00000000
,
10000000
10000000
00010000
00010000
,
01000000
01000000
00001000
00010000
,
00000010
00001000
00000010
00000000
00000100
00000000
00000100
00000000
,
00001000
00010000
00001000
00000000
01000000
00000000
01000000
00000000
,
00110000
00000000
00000000
00000000
,
00010000
10000000
00000000
00000000
,
00001000
00010000
00000000
00000000
,
00000001
00001000
00000000
00000000
,
00000100
00000100
00001000
00001000
,
00010000
00010000
00100000
00100000
,
01000000
10000000
01000000
10000000
00010000
00100000
00010000
00100000
,
00001000
00010000
00001000
00010000
00000010
00001000
00000010
00001000
,
00000001
00000001
00001001
00001000
,
00012000
00013000
00001002
00001003
,
00010200
00000000
00010000
00000000
00010300
00000000
00001000
01000000
,
00010000
01000000
00001000
00000000
00010000
00000100
00001000
00000200
,
00001000
00000000
00001000
00000300
00001000
00000000
00010000
00000000
,
10100000
00000000
00100000
10000000
00100000
00000000
00010000
00000000
,
00001010
00000000
00001000
00000010
00001000
00000000
00001000
00000000
,
00001001
00000000
00000010
00010000
00001000
00000000
00011000
00000000
,
00001100
00000001
00000001
00000001
,
00000010
00001000
00010000
01000000
,
10000000
10000000
10000000
10000000
,
00100000
01000000
00100000
00000000
00010000
00000000
00010000
00000000
,
00001100
00000000
00000010
00000001
00000010
00000000
00000100
00000000
,
00001100
00000000
00010000
00001000
00010000
00000000
01000000
00000000
,
11000000
01000000
11000000
01000000
,
00110000
00000000
00001100
00001100
,
00000001
00000010
00000100
00001000
,
00010000
00100000
01000000
10000000
,
00100000
00100000
10010000
01000000
,
00001000
00001000
00000110
00000001
,
00000010
00000100
00010000
00001000
,
00100000
01000000
10000000
00010000
,
01000000
00000000
01000000
00010000
01000000
00000000
01000000
00000000
,
00001000
00010000
00001000
00010000
00001000
00000000
00001000
00000000
,
00012000
00000100
00000001
00000010
,
00010000
00000100
00003001
00000010
,
00021000
00100000
10000000
01030000
,
00001000
00000100
00000001
00001000
,
00000100
00000000
00000100
00000000
00010000
00001000
00010000
00000000
,
01000000
00000000
01000000
00000000
00010000
00001000
00010000
00000000
,
00001100
00000000
00000000
00000000
,
01001000
00000000
00010010
00000000
,
00101000
00000000
00000000
00000000
,
00000000
00000000
00000000
00000000
;

//---------------dance-single - ----------------
#NOTES:
     dance-single:
     :
     Challenge:
     13:
     0.652412,0.618432,0.433431,0.243144,0.000000,432.000000,391.000000,41.000000,23.000000,0.000000,0.000000,0.652412,0.618432,0.433431,0.243144,0.000000,432.000000,391.000000,41.000000,23.000000,0.000000,0.000000:
// measure 0
0000
0000
0000
0000
,  // measure 1
0000
0000
0000
0000
,  // measure 2
0000
0000
0000
0000
,  // measure 3
0000
0000
0000
0000
,  // measure 4
0000
0000
0000
0000
,  // measure 5
0010
0001
1000
0200
0000
2300
0000
3001
,  // measure 6
0100
0010
0100
0002
0000
0023
0000
0130
,  // measure 7
1000
0010
0100
0002
0000
0203
0000
0310
,  // measure 8
1000
1100
0101
1100
,  // measure 9
1001
0100
0010
0100
1000
0100
0001
0100
,  // measure 10
0001
0100
0010
0100
0001
0100
1000
0100
,  // measure 11
0010
0100
1000
0100
0001
0100
0010
0100
,  // measure 12
0001
0100
1000
0100
0010
0100
1000
0100
,  // measure 13
0001
0100
0010
1000
0000
1010
0000
0101
,  // measure 14
0000
1000
0001
0010
0000
0011
0000
1010
,  // measure 15
0000
0010
1000
0100
0000
0110
0000
1001
,  // measure 16
0001
1000
0010
1000
0100
0010
0001
0000
,  // measure 17
1001
0000
0100
0020
0000
0000
1030
0002
,  // measure 18
0000
0000
0013
0002
0000
2003
0000
0000
,  // measure 19
3010
0000
1000
1100
0000
0001
0101
0000
,  // measure 20
0001
0010
0100
1000
0000
0010
0100
0001
,  // measure 21
1000
0000
0001
0200
0000
0000
0310
2000
,  // measure 22
0000
0000
3100
0020
0000
0032
0000
0000
,  // measure 23
0103
0000
0001
0011
0000
1000
1010
0000
,  // measure 24
0100
1000
0010
0100
0000
0001
1000
0010
,  // measure 25
0110
0000
0010
2000
3100
0000
0010
0002
,  // measure 26
0103
0000
0001
1000
0100
0010
0001
0000
,  // measure 27
1001
0000
1000
1100
0000
0001
0011
0000
,  // measure 28
0001
1000
0001
0010
0000
0100
1000
0010
,  // measure 29
0110
0000
0010
0100
0010
1000
0010
0100
,  // measure 30
0010
0001
0010
0100
0010
0001
0010
1000
,  // measure 31
0100
0001
0100
0010
0100
1000
0100
0001
,  // measure 32
0100
0001
0100
1000
0100
0010
0100
1000
,  // measure 33
2010
0100
0100
3100
,  // measure 34
2001
0000
3010
0000
1002
0000
0013
0100
,  // measure 35
1000
0010
1000
0002
0000
0100
0000
0013
,  // measure 36
0001
1000
0010
0100
0001
0010
0100
1000
,  // measure 37
0010
0100
0010
2000
0000
3002
0000
0103
,  // measure 38
0001
1000
0001
0010
0100
1000
0010
0100
,  // measure 39
0001
1000
0010
1000
0100
0010
0001
0000
,  // measure 40
0010
0001
0100
0010
1000
0001
0100
0000
,  // measure 41
0102
0010
0010
0013
,  // measure 42
0001
1000
0001
1000
0010
0100
0010
0100
,  // measure 43
0001
0010
0001
0010
0100
1000
0100
1000
,  // measure 44
0010
0100
0001
1000
0100
0010
0001
1000
,  // measure 45
0010
0100
0010
0100
0010
0100
0010
0100
,  // measure 46
0001
1000
0001
1000
0001
1000
0001
1000
,  // measure 47
0010
0100
0010
0100
0001
1000
0001
1000
,  // measure 48
0010
1000
0100
0010
0001
1000
0100
0000
,  // measure 49
1001
0010
0001
0010
0100
0010
0001
0010
,  // measure 50
1000
0010
0001
0010
1000
0010
0100
0010
,  // measure 51
1000
0100
0001
0100
0010
0100
0001
0100
,  // measure 52
1000
0100
0001
0100
0010
1000
0010
0001
,  // measure 53
0100
0010
0100
0001
0100
1000
0100
0001
,  // measure 54
0010
0100
0010
0001
0100
1000
0100
0001
,  // measure 55
1000
0010
0001
0010
0100
0010
0001
0010
,  // measure 56
1000
0001
0010
0100
0010
0001
0100
0000
,  // measure 57
0110
0010
1000
0001
0000
0011
0000
1100
,  // measure 58
0000
0001
0100
1000
0000
1010
0000
0110
,  // measure 59
0000
0010
1000
0100
0000
0011
0000
1001
,  // measure 60
0000
0001
1000
0010
0000
1010
0000
1001
,  // measure 61
0001
0010
0100
1000
0000
1100
0000
0101
,  // measure 62
1000
0001
0100
0010
0000
0110
0000
0101
,  // measure 63
0001
0010
0100
1000
0001
0100
0010
1000
,  // measure 64
1001
0100
1001
0100
,  // measure 65
1001
0000
0000
0000
;
