#TITLE:Sesame's Treet;
#SUBTITLE:;
#ARTIST:Smart E's;
#TITLETRANSLIT:;
#SUBTITLETRANSLIT:;
#ARTISTTRANSLIT:;
#GENRE:;
#CREDIT:;
#BANNER:Sesame's Treet-bn.png;
#BACKGROUND:Sesame's Treet-bg.png;
#LYRICSPATH:;
#CDTITLE:;
#MUSIC:Sesame's Treet.ogg;
#OFFSET:0.050000;
#SAMPLESTART:97.682564;
#SAMPLELENGTH:20.000000;
#SELECTABLE:YES;
#DISPLAYBPM:145.000000;
#BPMS:0.000000=144.899994
;
#STOPS:171.750000=0.050000
;
#BGCHANGES:;
#KEYSOUNDS:;
#ATTACKS:;

//---------------dance-single - ----------------
#NOTES:
     dance-single:
     :
     Hard:
     11:
     0.483590,0.516717,0.417549,0.342987,0.216231,454.000000,398.000000,56.000000,46.000000,0.000000,0.000000,0.483590,0.516717,0.417549,0.342987,0.216231,454.000000,398.000000,56.000000,46.000000,0.000000,0.000000:
0000
0000
0000
0000
,
0000
0000
0000
0000
,
0000
0000
0000
0000
,
0000
0000
0000
0000
,
0000
0000
0000
0000
,
0000
0000
0000
0000
,
0000
0000
0000
0000
,
0000
0000
0000
0000
,
1001
0000
0000
0000
0010
0000
0000
0010
1000
0000
0001
0000
0100
0000
0000
0000
,
0101
0000
0000
0000
1100
0000
0000
0000
1000
0000
0000
0001
0100
0000
0000
0000
,
0110
0000
0000
0000
0001
0000
0000
0001
0010
0000
0100
0000
1000
0000
0000
0000
,
1010
0000
0000
0000
0011
0000
0000
0000
0001
0000
0000
1000
0010
0000
0000
0000
,
0110
0000
0000
0000
0100
0000
0000
0100
0010
0000
1000
0000
0001
0000
0000
0000
,
0011
0000
0000
0000
1100
0000
0000
0000
0010
0000
0000
1000
0100
0000
0000
0000
,
1001
0000
0000
0000
1000
0000
0000
1000
0010
0000
0100
0000
0001
0000
0000
0000
,
0101
0000
0000
0000
1010
0000
0000
0000
0001
0000
0000
0100
0010
0000
1000
0000
,
0002
0000
2003
0000
3020
0000
1030
0001
,
0200
0000
0000
0000
0301
0000
0000
1000
0002
0000
0000
0000
0023
0000
0000
0000
,
0031
0000
0000
1000
0001
0000
0100
0000
0010
0000
1000
0000
0001
0000
0000
0000
,
0010
0000
0000
0000
0011
0000
0000
0001
1000
0000
0010
0000
0100
0000
0000
0000
,
0110
0000
0000
0010
1000
0000
0001
0000
1000
0000
0100
0000
0010
0000
0000
0000
,
0001
0000
0000
0000
0101
0000
0000
0100
0010
0000
1000
0000
0001
0000
0000
0000
,
1010
0000
0000
1000
0100
0000
0010
0000
0001
0000
1000
0000
0010
0000
0000
0000
,
1000
0000
0000
0000
1100
0000
0000
1000
0001
0000
0100
0000
0010
0000
0000
0000
,
2002
0000
0000
0000
,
0000
0000
0000
0000
,
0000
3000
0200
0303
,
0001
0000
0010
0000
0100
0000
1000
0000
0020
0000
0000
0100
0000
0000
0130
0000
,
0001
0000
1000
0000
0010
0000
0100
0000
0002
0000
0000
1000
0000
0000
1003
0000
,
0100
0000
1000
0000
0010
0000
0100
0000
0002
0000
0000
0010
0000
0000
0013
0000
,
0001
0000
0100
0000
0010
0000
1000
0000
0020
0000
0000
0100
0000
0000
0130
0000
,
0001
0000
0010
0000
0001
0000
1000
0000
0200
0000
0000
0010
0000
0000
0310
0000
,
0100
0000
1000
0000
0010
0000
1000
0000
0002
0000
0000
0100
0000
0000
0103
0000
,
0001
0000
1000
0000
0010
0000
0100
0000
0002
0000
0000
0010
0000
0000
0013
0000
,
0001
0000
1000
0000
0010
0000
0100
0000
0020
0000
0000
1000
0000
0000
1030
0000
,
0010
0000
0100
0000
0010
0000
1000
0000
0002
0000
0000
1000
0000
0000
1003
0000
,
0001
0000
0010
0000
0100
0000
1000
0000
0200
0000
0000
0010
0000
0000
0310
0000
,
1000
0001
1000
0001
0200
0010
0320
0000
,
1030
0001
1000
0001
0200
0010
0310
0000
,
0110
0000
0000
0000
1000
0000
0000
0001
0010
0000
0100
0000
1000
0000
0000
0000
,
1010
0000
0000
0000
0101
0000
0000
0000
0001
0000
0000
1000
0010
0000
0000
0000
,
1001
0000
0000
0000
0010
0000
0000
1000
0001
0000
0010
0000
0100
0000
0000
0000
,
1100
0000
0000
0000
0011
0000
0000
0000
0100
0000
0000
0010
1000
0000
0000
0000
,
2001
0000
0000
0000
3001
0000
0000
1000
0100
0000
0010
0000
0001
0000
0000
0000
,
0012
0000
0000
0000
1003
0000
0000
0001
0010
0000
0001
0000
0100
0000
0000
0000
,
1020
0000
0000
0000
0130
0000
0000
0010
1000
0000
0001
0000
1000
0000
0000
0000
,
0201
0000
0000
0000
0310
0000
0000
0100
0001
0000
1000
0000
0100
0000
0000
0000
,
2100
0000
0000
0000
3010
0000
0000
1000
0001
0000
0010
0000
0100
0000
0000
0000
,
0210
0000
0000
0000
0310
0000
0000
0100
1000
0000
0001
0000
0100
0000
0000
0000
,
1002
0000
0000
0000
0103
0000
0000
0001
0010
0000
0100
0000
1000
0000
0000
0000
,
0120
0000
0000
0000
1030
0000
0000
0001
1000
0000
0100
0000
0010
0000
0001
0000
,
0100
0100
0010
0010
,
1000
0000
0000
0001
0000
0000
1000
0000
0010
0100
0000
0000
,
0001
0001
1000
1000
,
0010
0000
0000
0100
0000
0000
0010
0000
1000
0001
0000
0000
,
0011
0000
0000
0000
0100
0000
0000
1000
0010
0000
0100
0000
0001
0000
0000
0000
,
1100
0000
0000
0000
0101
0000
0000
0000
0001
0000
0000
1000
0100
0000
0000
0000
,
1010
0000
0000
0000
0001
0000
0000
1000
0010
0000
0100
0000
0001
0000
0000
0000
,
1001
0000
0000
0000
0110
0000
0000
0000
0010
0000
0000
1000
0001
0000
0000
0000
,
0010
0000
0000
0000
1001
0000
0000
0001
1000
0000
0010
0000
0100
0000
0000
0000
,
0110
0000
0000
0000
0001
0000
0000
1000
0100
0000
0010
0000
0001
0000
0000
0000
,
0100
0000
0000
0000
1010
0000
0000
0010
1000
0000
0001
0000
0100
0000
0000
0000
,
0101
0000
0000
0000
0001
0000
0000
1000
0010
0000
1000
0000
0100
0000
0000
0000
,
1000
0000
0000
0000
0011
0000
0000
0010
0001
0000
1000
0000
0100
0000
0000
0000
,
1100
0000
0000
0000
0001
0000
0000
1000
0010
0000
0100
0000
0001
0000
0000
0000
,
2020
0000
3030
0202
0000
0303
2001
0000
,
3100
0000
0000
0000
1100
0000
0000
1000
0001
0000
1000
0000
0010
0000
0100
0000
,
0002
0000
0023
0000
0230
0000
0310
0001
,
2000
0000
0000
0000
3010
0000
0000
1000
0002
0000
0000
0000
0103
0000
0000
0000
,
1001
0000
0000
0010
0001
0000
1000
0000
0010
0000
0100
0000
0001
0000
0000
0000
,
0010
0000
0000
0000
0011
0000
0000
0001
1000
0000
0010
0000
0100
0000
0001
0000
,
2000
0000
3002
0000
0203
0000
0301
1000
,
0020
0000
0000
0000
0130
0000
0000
0001
2000
0000
0000
0000
3002
0000
0000
0000
,
0013
0000
0000
0001
0100
0000
0010
0000
1000
0000
0001
0000
0100
0000
0000
0000
,
0101
0000
0000
0000
1100
0000
0000
1000
0010
0000
0100
0000
0001
0000
0000
0000
,
0110
0000
0000
0010
1000
0000
0001
0000
0010
0000
0100
0000
1000
0000
0000
0000
,
1010
0000
0000
0000
0011
0000
0000
0001
0100
0000
0010
0000
1000
0000
0000
0000
,
1001
0000
0000
0000
;

//---------------dance-single - ----------------
#NOTES:
     dance-single:
     :
     Medium:
     9:
     0.376007,0.430597,0.268424,0.342987,0.130484,353.000000,317.000000,36.000000,46.000000,0.000000,0.000000,0.376007,0.430597,0.268424,0.342987,0.130484,353.000000,317.000000,36.000000,46.000000,0.000000,0.000000:
0000
0000
0000
0000
,
0000
0000
0000
0000
,
0000
0000
0000
0000
,
0000
0000
0000
0000
,
0000
0000
0000
0000
,
0000
0000
0000
0000
,
0000
0000
0000
0000
,
0000
0000
0000
0000
,
1001
1000
0100
0010
,
0001
0000
0000
0000
0001
0000
0000
0000
1000
0000
0000
0001
0100
0000
0000
0000
,
0010
1000
0001
1000
,
0010
0000
0000
0000
0010
0000
0000
0000
0100
0000
0000
0010
1000
0000
0000
0000
,
0110
0001
1000
0100
,
1000
0000
0000
0000
1000
0000
0000
0000
0010
0000
0000
1000
0001
0000
0000
0000
,
0100
0010
1000
0001
,
0100
0000
0000
0000
0100
0000
0000
0000
0001
0000
0000
0100
0001
0000
0000
0000
,
2000
0000
3020
0000
0230
0000
0301
1000
,
0000
0000
0000
0000
0010
0000
0000
1000
0002
0000
0000
0000
0103
0000
0000
0000
,
0001
0000
0000
1000
0100
0000
2000
0000
0000
0000
0000
0000
0000
0000
0000
0000
,
3001
0000
0000
0000
1000
0000
0000
0010
0200
0000
0000
0000
0301
0000
0000
0000
,
0010
0000
0000
0001
1000
0000
0002
0000
0000
0000
0000
0000
0000
0000
0000
0000
,
0103
0000
0000
0000
0001
0000
0000
1000
0020
0000
0000
0000
0130
0000
0000
0000
,
0010
0000
0000
0100
0001
0000
0200
0000
0000
0000
0000
0000
0000
0000
0000
0000
,
0310
0000
0000
0000
0100
0000
0000
0000
0001
0000
0000
1000
0100
0000
0000
0000
,
2002
0000
0000
0000
,
0000
0000
0000
0000
,
0000
3000
0200
0303
,
0010
0000
1000
0000
0010
0000
1000
0000
0100
0000
0000
0100
0000
0000
0000
0000
,
0001
0000
1000
0000
0001
0000
1000
0000
0010
0000
0000
0010
0000
0000
0000
0000
,
0001
0000
0100
0000
0001
0000
0100
0000
1000
0000
0000
1000
0000
0000
0000
0000
,
0010
0000
0100
0000
0010
0000
0100
0000
0001
0000
0000
0001
0000
0000
0000
0000
,
0010
0000
0001
0000
1000
0000
0001
0000
0100
0000
0000
0100
0000
0000
0000
0000
,
0001
0000
1000
0000
0001
0000
0100
0000
0010
0000
0000
0010
0000
0000
0000
0000
,
1000
0000
0010
0000
0100
0000
0001
0000
1000
0000
0000
1000
0000
0000
0000
0000
,
1000
0000
0010
0000
1000
0000
0100
0000
0001
0000
0000
0001
0000
0000
0000
0000
,
0010
0000
0001
0000
1000
0000
0001
0000
0010
0000
0000
0011
0000
0000
0000
0000
,
1000
0000
0001
0000
0100
0000
0001
0000
1000
0000
0000
1100
0000
0000
0000
0000
,
1000
0001
1000
0001
2000
0000
3000
0000
,
0010
0100
0010
0100
0020
0000
0030
0000
,
0110
0010
1000
0001
,
1100
0000
0000
0000
0101
0000
0000
0000
1000
0000
0000
0001
0100
0000
0000
0000
,
0001
0010
0100
1000
,
1010
0000
0000
0000
0011
0000
0000
0000
1000
0000
0000
0001
0010
0000
0000
0000
,
2001
0000
0100
0000
3010
1000
0001
0000
,
0102
0000
0010
0000
1003
0001
0100
0000
,
0210
0000
1000
0000
0301
0100
0010
0000
,
1020
0000
0100
0000
1030
0001
0010
0000
,
1002
0000
1000
0000
0013
0001
0100
0000
,
0120
0000
0001
0000
0130
0010
1000
0000
,
1200
0000
0010
0000
1300
0001
0100
0000
,
2010
0000
0001
0000
3100
1000
0010
0000
,
1000
1000
0001
0001
,
0100
0100
0010
0010
,
1000
1000
0001
0001
,
0100
0100
0010
0010
,
1001
1000
0001
0100
,
0101
0000
0000
0000
1010
0000
0000
0000
1000
0000
0000
0100
0010
0000
0000
0000
,
0110
0001
1000
0100
,
1100
0000
0000
0000
0011
0000
0000
0000
0100
0000
0000
0001
0010
0000
0000
0000
,
0001
0000
1002
0000
1003
0100
1000
0000
,
0012
0000
0000
0000
0103
0000
0000
0000
0001
0000
0000
1000
0010
0000
0000
0000
,
0100
0000
0120
0000
1030
0001
1000
0000
,
2100
0000
0000
0000
3001
0000
0000
0000
1000
0000
0000
0010
0100
0000
0000
0000
,
0010
0000
0201
0000
0301
0010
0001
0000
,
2001
0000
0000
0000
3001
0000
0000
1000
0010
0000
0000
0000
0100
0000
0000
0000
,
2020
0000
3030
0202
0000
0303
2002
0000
,
0000
0000
0000
0000
0003
0000
3010
0100
,
0002
0000
2003
0000
3002
0000
0103
0010
,
0000
0000
0000
0000
1000
0000
0000
0001
2000
0000
0000
0000
3010
0000
0000
0000
,
1001
0000
0000
1000
0010
0000
0200
0000
0000
0000
0000
0000
0000
0000
0000
0000
,
0301
0000
1000
0000
0010
0000
1000
0100
,
0020
0000
0032
0000
2003
0000
3010
0100
,
0000
0000
0000
0000
0001
0000
0000
0001
2000
0000
0000
0000
3100
0000
0000
0000
,
1000
0000
0000
0010
0100
0000
0002
0000
0000
0000
0000
0000
0000
0000
0000
0000
,
0013
0000
0000
0000
0001
0000
0000
1000
0020
0000
0000
0000
0130
0000
0000
0000
,
0010
0000
0000
0100
0001
0000
2000
0000
0000
0000
0000
0000
0000
0000
0000
0000
,
3100
0000
0000
0000
1000
0000
0000
0001
0010
0000
0000
0000
0110
0000
0000
0000
,
1001
0000
0000
0000
;

//---------------dance-single - ----------------
#NOTES:
     dance-single:
     :
     Easy:
     7:
     0.270555,0.315771,0.067106,0.208774,0.000000,254.000000,245.000000,9.000000,28.000000,0.000000,0.000000,0.270555,0.315771,0.067106,0.208774,0.000000,254.000000,245.000000,9.000000,28.000000,0.000000,0.000000:
0000
0000
0000
0000
,
0000
0000
0000
0000
,
0000
0000
0000
0000
,
0000
0000
0000
0000
,
0000
0000
0000
0000
,
0000
0000
0000
0000
,
0000
0000
0000
0000
,
0000
0000
0000
0000
,
1001
0010
1000
0001
,
0010
0010
0001
1000
,
0110
0010
1000
0100
,
0010
0001
1000
1000
,
1001
0001
1000
0010
,
0100
0100
0010
1000
,
0110
1000
0001
0010
,
0001
1000
0100
0100
,
1000
0001
1000
0001
,
0200
0000
0010
0310
,
1000
1000
0001
0001
,
0010
0001
0100
0100
,
0001
1000
0010
1000
,
0100
0010
0100
1000
,
0010
1000
0001
0010
,
0001
1000
0010
0100
,
2002
0000
0000
0000
,
0000
0000
0000
0000
,
0000
3000
0200
0303
,
0001
0001
1000
1000
,
0001
0001
1000
1000
,
0010
0010
0100
0100
,
0010
0010
0100
0100
,
0001
0010
0001
1000
,
0010
1000
0100
0010
,
0100
1000
0010
0100
,
0001
1000
0010
1000
,
0100
0010
0001
0100
,
0001
1000
0010
0100
,
0001
0001
0002
0003
,
1000
1000
2000
3000
,
1001
0010
1000
0001
,
0010
0010
0100
1000
,
0010
1000
0100
0010
,
0001
0001
1000
1000
,
0002
0010
1000
0103
,
2000
0010
0100
3001
,
0200
1000
0010
0301
,
0020
0100
0001
1030
,
0002
1000
0010
0103
,
2000
0100
0001
3010
,
0200
0001
0010
1300
,
0020
0001
1000
0130
,
0001
0000
1000
0000
,
0010
1000
0100
0000
,
1000
0000
0001
0000
,
0010
0001
0100
0000
,
1001
0100
0001
0010
,
0100
0100
0010
0100
,
0110
0001
0100
0010
,
1000
0001
0010
0010
,
0000
0000
0002
0000
0000
2003
0000
0000
,
3020
0000
1000
0130
,
0000
0000
0020
0000
0000
0230
0000
0000
,
0302
1000
0100
1003
,
0000
0000
2000
0000
0000
3020
0000
0000
,
0230
0000
0001
0310
,
0002
0000
0000
2003
0000
0000
3200
0000
,
0000
0000
0000
0000
0000
0000
0310
0100
,
1000
0001
1000
0001
,
0200
0000
0010
0310
,
1000
0001
0010
0100
,
1000
0010
0001
0100
,
1000
0001
1000
0001
,
0200
0000
0010
0310
,
0100
0001
0010
0100
,
1000
0010
1000
0001
,
0010
0100
0010
0001
,
0100
0010
1000
0001
,
1001
0000
0000
0000
;

//---------------dance-single - ----------------
#NOTES:
     dance-single:
     :
     Beginner:
     3:
     0.127821,0.200945,0.067106,0.074562,0.000000,120.000000,111.000000,9.000000,10.000000,0.000000,0.000000,0.127821,0.200945,0.067106,0.074562,0.000000,120.000000,111.000000,9.000000,10.000000,0.000000,0.000000:
0000
0000
0000
0000
,
0000
0000
0000
0000
,
0000
0000
0000
0000
,
0000
0000
0000
0000
,
0000
0000
0000
0000
,
0000
0000
0000
0000
,
0000
0000
0000
0000
,
0000
0000
0000
0000
,
1001
0000
1000
0000
,
0010
0000
0010
0000
,
0100
0000
0100
0000
,
0001
0000
0001
0000
,
0110
0000
0001
0000
,
1000
0000
0010
0000
,
1000
0000
0100
0000
,
1000
0000
0001
0000
,
0100
0000
0100
0000
,
0100
0000
0000
0000
,
0001
0001
0000
0000
,
0000
1000
1000
0000
,
0010
0010
0000
0000
,
0000
0100
0100
0000
,
0001
0001
0000
0000
,
0000
0000
0000
0000
,
1001
0000
0000
0000
,
0000
0000
0000
0000
,
0000
0000
0100
0000
,
0110
0000
0010
0000
,
0010
0000
0010
0000
,
0100
0000
0100
0000
,
0100
0000
0100
0000
,
0001
0000
0001
0000
,
0001
0000
0001
0000
,
1000
0000
1000
0000
,
1000
0000
1000
0000
,
0001
0000
1000
0000
,
0010
0000
0100
0000
,
0002
0000
0003
0000
,
2000
0000
3000
0000
,
0001
0000
1000
0000
,
0010
0000
0100
0000
,
0001
0000
0010
0000
,
0100
0000
1000
0000
,
0020
0000
0030
0000
,
2000
0000
3000
0000
,
0002
0000
0003
0000
,
0200
0000
0300
0000
,
0002
0000
0003
0000
,
0020
0000
0030
0000
,
0200
0000
0300
0000
,
2000
0000
3000
0000
,
1001
0000
0000
0000
,
0010
0000
0100
0000
,
0110
0000
0000
0000
,
0001
0000
1000
0000
,
1001
0000
1000
0000
,
0100
0000
0010
0000
,
0110
0000
0100
0000
,
1000
0000
0001
0000
,
0000
1000
0000
0000
,
0001
0000
0001
0000
,
0000
0100
0000
0000
,
0010
0000
0000
0000
,
0000
0100
0000
0000
,
0001
0000
1000
0000
,
0010
0000
0010
0000
,
0010
0000
0000
0000
,
1000
0000
1000
0000
,
1000
0000
0000
0000
,
0001
0001
0000
0000
,
0000
0000
0000
0000
,
0010
0000
0010
0000
,
0010
0000
0000
0000
,
0001
0001
0000
0000
,
0000
0010
0010
0000
,
0100
0100
0000
0000
,
0000
1000
1000
0000
,
1001
0000
0000
0000
;

//---------------dance-single - ----------------
#NOTES:
     dance-single:
     :
     Challenge:
     14:
     0.666800,0.688956,0.462286,0.074562,0.753079,626.000000,564.000000,62.000000,10.000000,0.000000,0.000000,0.666800,0.688956,0.462286,0.074562,0.753079,626.000000,564.000000,62.000000,10.000000,0.000000,0.000000:
// measure 0
0000
0000
0000
0000
,  // measure 1
0000
0000
0000
0000
,  // measure 2
0000
0000
0000
0000
,  // measure 3
0000
0000
0000
0000
,  // measure 4
0000
0000
0000
0000
,  // measure 5
0000
0000
0000
0000
,  // measure 6
0000
0000
0000
0000
,  // measure 7
0000
0000
0000
0000
,  // measure 8
1001
0000
0000
0000
1100
0000
0000
0010
0031
0010
0000
0010
0100
0000
0000
0000
,  // measure 9
0110
0000
0000
0000
0011
0000
0000
0001
1000
0001
0000
0001
0103
0000
0000
0010
,  // measure 10
1000
0000
0000
0000
0101
0000
0000
0001
0010
0001
0000
0001
0100
0000
0000
0010
,  // measure 11
0100
0000
0000
0000
1010
0000
0000
1000
0100
1000
0000
1000
0001
0000
0000
0100
,  // measure 12
0010
0000
0000
0000
1001
0000
1000
0001
1000
0001
0000
0001
0100
0000
0000
0010
,  // measure 13
0100
0000
0000
0000
0110
0000
0001
0010
0001
0010
0000
0010
0100
0000
0000
1000
,  // measure 14
0100
0000
0000
0000
1100
0000
0010
0100
0010
0100
0000
0100
0001
0000
0000
1000
,  // measure 15
0100
0000
0000
0000
0011
0000
1000
0010
1000
0010
0000
0010
0100
0000
0001
0000
,  // measure 16
0010
0000
0000
0010
0001
0000
0000
0001
1000
0000
0000
1000
0010
0000
0100
0000
,  // measure 17
0101
0000
0000
0000
1100
0000
0000
1000
0001
1000
0000
0010
0100
0000
0000
0000
,  // measure 18
1000
0000
0000
0001
0100
0000
0010
1000
0010
1000
0010
0000
0100
0000
0000
0001
,  // measure 19
0010
0000
0000
0000
0110
0000
1000
0001
1000
0001
1000
0000
0010
0000
0000
0100
,  // measure 20
0001
0000
0000
0010
0100
0000
1000
0010
1000
3010
1000
0000
0001
0000
0000
0100
,  // measure 21
0010
0000
0000
0000
1001
0000
1000
3100
1000
0100
1000
0000
0001
0000
0000
0010
,  // measure 22
0100
0000
0000
0010
0001
0000
1000
0100
1000
0100
1000
0000
0001
0000
0000
0010
,  // measure 23
0100
1000
0000
1000
0001
0000
0100
0010
0100
0010
0100
0000
0001
0000
0000
0010
,  // measure 24
0200
0000
0000
0000
,  // measure 25
0000
0000
0000
0000
,  // measure 26
0000
0000
0020
0330
,  // measure 27
0001
0000
0001
0000
1000
0000
1000
0000
0010
1000
0000
0100
0000
0000
0010
0001
,  // measure 28
1000
0000
1000
0000
0010
0000
0010
0000
0100
0001
0000
0010
0000
0000
0100
1000
,  // measure 29
0010
0000
0010
0000
0100
0000
0100
0000
0001
1000
0000
0100
0000
0000
1000
0001
,  // measure 30
0100
0000
0100
0000
0001
0003
0001
0000
0010
0100
0000
1000
0000
0000
0010
1000
,  // measure 31
0100
0000
0100
0000
1000
0000
1000
0000
0010
1000
0000
0001
0000
0000
0010
0001
,  // measure 32
1000
0000
1000
0000
0001
0000
0001
0000
1000
0100
0000
0010
0000
0000
0010
0100
,  // measure 33
1000
0000
1000
0000
0010
0000
0010
0000
0100
0001
0000
1000
0000
0000
0001
0100
,  // measure 34
0001
0000
0001
0000
0010
0000
0010
0000
0100
1000
0000
0001
0000
0000
1000
0100
,  // measure 35
0010
0000
0010
0000
0100
0000
0100
0000
0010
0001
0000
1000
0000
0000
0001
1000
,  // measure 36
0100
0000
0100
0000
1000
0000
1000
0000
0010
0100
0000
0001
0000
0000
0010
0031
,  // measure 37
1000
1000
0001
0001
2000
3020
0230
0302
,  // measure 38
0013
0010
0100
0100
2000
3020
0230
0302
,  // measure 39
1003
0000
0000
0000
1100
0000
0010
0100
0010
0100
0000
0001
1000
0000
0000
0100
,  // measure 40
0010
0000
0000
0000
0101
0000
0001
1000
0010
1000
0100
0000
0010
0000
0001
1000
,  // measure 41
0001
0000
0000
0000
0011
0000
0100
0010
1000
0010
0000
0100
0001
0000
0000
1000
,  // measure 42
0010
0000
0000
0000
1010
0000
0100
0001
0010
0001
0100
0000
1000
0000
0100
0000
,  // measure 43
1001
0000
0000
0000
0101
0000
0000
1000
0100
1000
0000
0001
0100
0000
0000
0000
,  // measure 44
0110
0000
0000
0000
1010
0000
0000
0001
1000
0001
0000
0010
0100
0000
0000
0000
,  // measure 45
1100
0000
0000
0000
0011
0000
0000
0100
0001
0100
0000
0010
1000
0000
0000
0000
,  // measure 46
1001
0000
0000
0000
0110
0000
0000
1000
0001
1000
0000
0010
0100
0000
0000
0000
,  // measure 47
0101
0000
0000
0000
1100
0000
0000
0010
0100
0010
0000
0001
1000
0000
0000
0000
,  // measure 48
1010
0000
0000
0000
0011
0000
0000
0100
0001
0100
0000
0010
1000
0000
0000
0000
,  // measure 49
0101
0000
0000
0000
1010
0000
0000
0001
0010
0001
0000
1000
0100
0000
0000
0000
,  // measure 50
0110
0000
0000
0000
1100
0000
0000
0001
1000
0001
0000
0010
0100
0000
1000
0001
,  // measure 51
1000
1100
0011
0011
,  // measure 52
1010
0000
0000
1010
0000
0000
0101
0000
1000
0100
0000
0000
,  // measure 53
0001
0110
1100
1100
,  // measure 54
0101
0000
0000
0101
0000
0000
1001
0000
0001
0010
0000
0000
,  // measure 55
1001
0000
0000
0000
0011
0000
1000
0001
1000
0010
0000
0010
0100
0000
0001
0000
,  // measure 56
0101
0000
0000
0000
1010
0000
1000
0100
0010
0100
1000
0000
0001
0000
0010
0001
,  // measure 57
0100
0000
0000
0000
0110
0000
0001
0010
0001
1000
0000
1000
0100
0000
0010
0001
,  // measure 58
1000
0000
0000
0000
0101
0000
0010
0100
0001
0100
0010
0000
1000
0000
0001
0010
,  // measure 59
0100
0000
0010
0000
0001
0000
0000
1000
0100
1000
0000
0001
0100
0000
0010
0000
,  // measure 60
1000
0000
0001
0000
0010
0000
0000
0001
0100
0010
0100
0000
0001
0000
1000
0100
,  // measure 61
1000
0000
0001
0000
0100
0000
0000
0001
0010
0001
0000
1000
0001
0000
0100
0000
,  // measure 62
0010
0000
1000
0000
0001
0000
0010
0100
1000
0001
1000
0000
0010
0000
0000
0100
,  // measure 63
0001
0000
1000
0000
0010
0000
0000
1000
0100
1000
0000
0001
0010
0000
0100
0000
,  // measure 64
0010
0000
0001
0000
1000
0000
0001
0100
0001
0010
0000
0100
1000
0000
0010
0130
,  // measure 65
0001
0000
0010
0000
0100
0000
1000
0000
0010
0000
0100
0000
1001
0000
0000
0001
,  // measure 66
1000
0000
0100
0000
1100
0000
0000
0001
1000
0001
0000
0010
0130
0000
1000
0000
,  // measure 67
0010
0000
0000
0010
0100
0000
0000
0100
0001
0003
0000
0001
1000
0000
0010
0100
,  // measure 68
0001
0000
0000
0000
1010
0000
0000
0001
0100
0000
0000
0010
1000
0000
0000
0000
,  // measure 69
0110
0000
0000
0001
0010
0000
0100
0000
1000
0001
1000
0000
0010
0000
0100
0001
,  // measure 70
0010
0000
0000
0000
0100
0000
1000
0001
1000
0001
0100
0000
0010
0000
1000
0100
,  // measure 71
0010
0000
0000
0010
0001
0000
0000
0001
0100
0000
0000
0100
0010
0000
1000
0001
,  // measure 72
0010
0000
0000
0000
0011
0000
0000
0001
1000
0000
0000
0010
0100
0000
0000
0000
,  // measure 73
1010
0000
0000
0010
1000
3000
0100
0010
0001
1000
0000
1000
0001
0000
0000
0100
,  // measure 74
0010
0000
0000
0000
0110
0000
0001
1000
0100
1000
0000
0001
0100
0000
0010
0000
,  // measure 75
0101
0000
0000
1000
0100
0000
0010
0001
1000
0001
0000
0001
0100
0000
0000
0010
,  // measure 76
0100
0000
0000
0000
0110
0000
0010
1000
0100
1000
0000
0001
0100
0000
0000
0000
,  // measure 77
1001
0000
0000
0000
;
