#TITLE:SWEET ANGEL;
#SUBTITLE:;
#ARTIST:Motoaki Furukawa;
#TITLETRANSLIT:;
#SUBTITLETRANSLIT:;
#ARTISTTRANSLIT:;
#GENRE:;
#CREDIT:;
#BANNER:SWEET ANGEL-bn.png;
#BACKGROUND:SWEET ANGEL-bg.png;
#LYRICSPATH:;
#CDTITLE:;
#MUSIC:SWEET ANGEL.ogg;
#OFFSET:0.000000;
#SAMPLESTART:64.000000;
#SAMPLELENGTH:20.000000;
#SELECTABLE:YES;
#DISPLAYBPM:150.000000;
#BPMS:0.000000=150.000000
;
#STOPS:
;
#BGCHANGES:;
#KEYSOUNDS:;
#ATTACKS:;

//---------------dance-single - ----------------
#NOTES:
     dance-single:
     :
     Hard:
     12:
     0.556738,0.554749,0.278369,0.377786,0.059650,392.000000,364.000000,28.000000,38.000000,0.000000,0.000000,0.556738,0.554749,0.278369,0.377786,0.059650,392.000000,364.000000,28.000000,38.000000,0.000000,0.000000:
0000
0000
0000
0000
,
0000
0000
0000
0000
,
0000
0000
0000
0000
,
0000
0000
0000
0000
,
0100
0001
0010
0100
1000
0010
1000
0000
,
0001
0010
0100
0010
0001
1000
0100
0000
,
1000
0010
1000
0100
0010
0001
0100
0000
,
0001
1000
0010
0100
0000
0000
0000
0000
,
2010
0000
0001
0000
3010
1000
1000
0100
,
0020
0000
0031
1000
0010
1000
0001
0000
,
0010
0001
1000
0010
0100
1000
0100
0000
,
0010
1000
0100
0001
0100
0010
0001
0000
,
0100
0001
0010
0001
1000
0010
0100
0000
,
0010
0100
0010
1000
0100
0001
1000
0000
,
0001
1000
0010
1000
0100
0010
0001
0000
,
2000
0100
3100
0000
0002
0100
0103
0000
,
0000
0010
0010
1000
0001
0100
0100
0010
,
0000
1000
1000
0001
0010
0001
0001
0100
,
0001
0100
0010
1000
0001
0100
0010
1000
,
0100
0010
0001
1000
0001
0100
0010
1000
,
0100
0010
1000
0001
0100
0010
0001
1000
,
0100
0001
0010
0001
1000
0100
0010
1000
,
0010
1000
0001
1000
0100
0010
0100
0001
,
0200
0000
0000
0301
0000
1000
0100
0000
0020
0000
0000
0031
0000
1000
0010
0000
,
1000
0100
0010
0100
0001
0100
0010
0001
,
0200
0000
0301
2000
0000
0010
3010
0000
,
0100
1000
0100
0010
1000
0001
0010
0100
,
1100
0101
0011
0110
,
1000
0010
0100
1000
0100
0010
0001
0010
,
2000
0000
3010
0100
0000
2001
3001
0000
,
0011
1100
0101
1010
,
0002
0010
0013
0100
2000
0001
3001
0000
,
0010
0001
1000
0002
0000
0100
0103
0000
,
0001
0100
1000
0200
0000
0010
0310
0000
,
0100
0001
0010
1000
0010
0100
0001
0100
,
1000
0000
0000
0000
0011
0000
0000
0000
0001
0100
0000
0000
1010
0000
0000
0000
,
0001
0010
0100
1000
0010
0001
0010
0100
,
0020
1000
1030
0001
0000
0120
0130
0000
,
1100
0101
1001
0110
,
2000
0100
3100
0010
0002
1000
1003
0000
,
1020
0230
0000
0301
1000
1000
0010
0100
,
0001
1000
0100
0010
1000
0100
0010
0001
,
0100
0010
1000
0000
1100
0000
0011
0000
,
0001
0100
0010
0000
1001
2200
0300
0000
,
3001
0100
0101
0220
0030
0310
1000
0001
,
1000
0010
0100
0002
0000
0010
0000
1003
,
0001
0000
0100
0000
0001
0000
0010
0000
0100
0000
1000
0000
0010
0000
0000
0100
0000
0000
0001
0000
0000
1000
0000
0000
,
0000
0000
0000
0000
0000
0000
0010
0000
0000
0100
0000
0000
0010
0000
0000
0000
1000
0000
0000
0000
0002
0000
0000
0000
0000
0000
0000
0000
0000
0000
0100
0000
0000
0000
0000
0000
0103
0000
0000
0000
0000
0000
0000
0000
0000
0000
0000
0000
,
0010
1000
0100
0001
0100
1000
0010
0000
,
1000
0001
0100
1000
0100
0010
0100
0000
,
0010
1000
0001
0010
1000
0010
0100
0000
,
1000
0001
0010
0100
1000
0010
0100
0000
,
0001
1000
0100
0001
0100
0010
0001
0000
,
0100
1000
0100
0010
1000
0001
0100
0000
,
0001
0010
0001
2000
0000
3100
0010
0000
,
0001
1000
0010
0200
0000
0001
0301
0000
,
0010
0001
1000
0002
0000
1003
0100
0000
,
1000
0001
0010
0200
0000
1000
1300
0000
,
2200
0000
3300
0220
0000
0330
0022
0033
,
2020
0000
0000
0000
,
0000
0000
0000
0000
,
0000
0000
0000
0000
,
3030
0000
0000
0000
;

//---------------dance-single - ----------------
#NOTES:
     dance-single:
     :
     Medium:
     9:
     0.407611,0.493110,0.159068,0.477204,0.009942,287.000000,271.000000,16.000000,48.000000,0.000000,0.000000,0.407611,0.493110,0.159068,0.477204,0.009942,287.000000,271.000000,16.000000,48.000000,0.000000,0.000000:
0000
0000
0000
0000
,
0000
0000
0000
0000
,
0000
0000
0000
0000
,
0000
0000
0000
0000
,
0100
0001
0000
1000
0000
0001
0100
0000
,
0010
0100
0000
0001
0000
0100
0010
0000
,
1000
0100
0000
0010
0000
0100
1000
0000
,
1001
0000
0000
0110
0000
0000
0000
0000
,
2020
0000
0000
0030
0000
0001
3001
1000
,
0020
0000
0000
0230
0000
0302
0000
0000
,
1003
0001
0000
0010
0000
0100
1000
0000
,
0010
0100
0000
0001
0000
1000
0001
0000
,
0010
0100
0000
0010
0000
0001
1000
0000
,
0100
1000
0000
0001
0000
0010
0001
0000
,
1000
0001
0000
0010
0000
0001
1000
0000
,
0020
0130
0002
1003
,
0000
0001
1000
0001
1000
0100
0010
0001
,
0000
1000
0001
1000
0001
0010
0100
1000
,
0010
0100
0001
0000
0010
0100
1000
0000
,
0001
0010
1000
0000
0100
1000
0001
0000
,
0010
0001
1000
0000
0010
0100
0001
0000
,
1000
0100
0001
0000
0100
0010
1000
0000
,
0001
0010
0001
0000
1000
0100
1000
0000
,
0010
0000
0000
0010
0000
0000
0010
0000
0100
0000
0000
0100
0000
0000
0100
0000
,
0001
0010
0100
1000
0000
1000
0001
0100
,
0010
0000
0000
0102
0000
1000
1003
0000
,
0001
0100
0010
1000
0000
0001
0010
0100
,
2000
3002
0023
0230
,
0310
0001
0100
0001
0000
1000
0010
0100
,
0010
0000
0000
1100
0000
0022
0030
0000
,
2003
3002
0203
0320
,
2030
3100
0020
0031
,
1010
0000
0000
0011
0000
1000
0001
0000
,
0100
0010
0000
1000
0000
0010
0100
0000
,
0001
1000
0001
0010
0000
0010
0100
1000
,
0020
0230
0302
2003
,
3010
1000
0100
0010
0000
0001
0100
0001
,
0100
0000
0000
0101
0000
2200
0300
0000
,
3020
2030
3002
0203
,
0302
1000
1003
0000
0200
0010
0310
0000
,
2002
0000
3000
0100
0103
0001
1000
0000
,
0010
1000
0001
0000
0010
0100
1000
0000
,
2000
3002
0023
0230
,
2300
0000
3002
0000
0103
0110
0000
0000
,
0000
0000
0002
2000
0003
0000
3010
0100
,
0010
1000
0010
0200
0000
0000
0000
0001
,
0301
0100
0010
1000
0100
0010
0001
1000
,
0001
0100
0010
2000
0000
0000
3000
0000
,
1000
0001
0000
0010
0000
0001
0100
0000
,
0010
0100
0000
0001
0000
0010
0100
0000
,
1000
0001
0000
1000
0000
0010
0100
0000
,
0010
0100
0000
0001
0000
1000
0010
0000
,
0100
0001
0000
1000
0000
0001
0100
0000
,
0001
0010
0000
1000
0000
0100
0010
0000
,
0100
1000
0000
0010
0000
1000
0001
0000
,
1001
0000
0000
0011
0000
0000
0000
0000
,
0010
0100
0000
0010
0000
0100
1000
0000
,
1100
0000
0000
0110
0000
0000
0000
0000
,
0002
0000
0000
2003
0000
0000
3020
0000
,
0200
0000
0000
0000
,
0000
0000
0000
0000
,
0000
0000
0000
0000
,
0330
0000
0000
0000
;

//---------------dance-single - ----------------
#NOTES:
     dance-single:
     :
     Easy:
     6:
     0.254225,0.277375,0.039767,0.089476,0.000000,179.000000,175.000000,4.000000,9.000000,0.000000,0.000000,0.254225,0.277375,0.039767,0.089476,0.000000,179.000000,175.000000,4.000000,9.000000,0.000000,0.000000:
0000
0000
0000
0000
,
0000
0000
0000
0000
,
0000
0000
0000
0000
,
0000
0000
0000
0000
,
0100
0000
0000
0100
0000
0000
0100
0000
,
0010
0000
0000
0010
0000
0000
0010
0000
,
1000
0000
0000
0001
0000
0000
0100
0000
,
0001
0000
0000
1000
0000
0000
0000
0000
,
1002
0100
0000
0103
,
0001
0000
0000
1000
0000
0001
0000
0000
,
0010
0000
0000
0001
0000
0000
0100
0000
,
0010
0000
0000
1000
0000
0000
0000
0000
,
0001
0000
0000
0001
0000
0000
0001
0000
,
1000
0000
0000
1000
0000
0000
1000
0000
,
0010
0000
0000
1000
0000
0000
0001
0000
,
0020
0000
0130
0000
,
0000
1000
0010
0001
,
0000
0100
0010
1000
,
0001
0001
0010
0010
,
0100
0100
1000
1000
,
0001
1000
0010
0100
,
0001
0010
1000
0100
,
1000
0010
0100
0001
,
0100
0010
1000
0001
,
0010
0001
0100
1000
,
0010
0000
0000
0100
0000
0000
0001
0000
,
0010
0100
1000
0001
,
0100
0100
0010
1000
,
0001
0010
0100
1000
,
0010
0000
0000
1000
0000
0100
0000
0000
,
0001
0001
1000
1000
,
0020
0000
0130
0000
,
0002
0000
0000
1000
0000
0000
1003
0000
,
0010
0000
0000
0100
0000
0000
0001
0000
,
0010
0001
1000
0100
,
1000
1000
0001
0100
,
0010
1000
0100
0001
,
1000
0000
0000
0001
0000
0010
0000
0000
,
0100
0010
0001
1000
,
0020
0000
0130
0000
,
0110
0000
0001
0100
,
0010
1000
0100
0001
,
1000
1000
0001
0001
,
0010
0100
1000
0000
,
0000
1001
0000
0000
,
0010
1000
0200
0300
,
1000
0001
0010
0001
,
1000
0100
0010
0000
,
0001
0000
0000
0100
0000
0000
0010
0000
,
1000
0000
0000
0001
0000
0000
0010
0000
,
0100
0000
0000
1000
0000
0000
0001
0000
,
0010
0000
0000
0100
0000
0000
1000
0000
,
0010
0000
0000
0100
0000
0000
0010
0000
,
1000
0000
0000
0001
0000
0000
1000
0000
,
0001
0000
0000
1000
0000
0000
0100
0000
,
1000
0000
0000
0001
0000
0000
0000
0000
,
0010
0000
0000
0001
0000
0000
1000
0000
,
0001
0000
0000
0010
0000
0000
0000
0000
,
0200
0000
0000
0001
0000
0000
1300
0000
,
0220
0000
0000
0000
,
0000
0000
0000
0000
,
0000
0000
0000
0000
,
0330
0000
0000
0000
;

//---------------dance-single - ----------------
#NOTES:
     dance-single:
     :
     Beginner:
     3:
     0.134924,0.146641,0.019883,0.000000,0.000000,95.000000,93.000000,2.000000,0.000000,0.000000,0.000000,0.134924,0.146641,0.019883,0.000000,0.000000,95.000000,93.000000,2.000000,0.000000,0.000000,0.000000:
// measure 0
0000
0000
0000
0000
,  // measure 1
0000
0000
0000
0000
,  // measure 2
0000
0000
0000
0000
,  // measure 3
0000
0000
0000
0000
,  // measure 4
0100
0000
0000
0000
,  // measure 5
0010
0000
0000
0000
,  // measure 6
1000
0000
0000
0000
,  // measure 7
0001
0000
0000
0000
,  // measure 8
1001
0000
0000
0000
,  // measure 9
0010
0000
0000
0000
,  // measure 10
1000
0000
1000
0000
,  // measure 11
0001
0000
0001
0000
,  // measure 12
0010
0000
0010
0000
,  // measure 13
0100
0000
0100
0000
,  // measure 14
1000
0000
0001
0000
,  // measure 15
1000
0000
0010
0000
,  // measure 16
0000
0000
0100
0100
,  // measure 17
0000
0000
0010
0010
,  // measure 18
0000
1000
0000
1000
,  // measure 19
0000
0001
0000
0001
,  // measure 20
0000
0010
0000
0001
,  // measure 21
0000
1000
0000
0100
,  // measure 22
0000
1000
0000
0001
,  // measure 23
0000
0010
0010
0000
,  // measure 24
0001
0000
0100
0000
,  // measure 25
1000
0000
1000
0000
,  // measure 26
0010
0000
0100
0000
,  // measure 27
0010
0000
1000
0000
,  // measure 28
0100
0000
0010
0000
,  // measure 29
0001
0000
0001
0000
,  // measure 30
1000
0000
1000
0000
,  // measure 31
0010
0000
0100
0000
,  // measure 32
0010
0000
0001
0000
,  // measure 33
0100
0000
0100
0000
,  // measure 34
0001
0000
0010
0000
,  // measure 35
1000
0000
0001
0000
,  // measure 36
0100
0000
0010
0000
,  // measure 37
0100
0000
0010
0000
,  // measure 38
1000
0000
0100
0000
,  // measure 39
0001
0000
0001
0000
,  // measure 40
0010
0000
0001
0000
,  // measure 41
0100
0000
1000
0000
,  // measure 42
0001
0000
0001
0000
,  // measure 43
1000
0000
1000
0000
,  // measure 44
0000
1001
0000
0000
,  // measure 45
1000
1000
0000
0000
,  // measure 46
0100
0000
0010
0000
,  // measure 47
0001
0000
1000
0000
,  // measure 48
0010
0000
0000
0000
,  // measure 49
0010
0000
0000
0000
,  // measure 50
0100
0000
0000
0000
,  // measure 51
0100
0000
0000
0000
,  // measure 52
0001
0000
0000
0000
,  // measure 53
0001
0000
0000
0000
,  // measure 54
1000
0000
0000
0000
,  // measure 55
1000
0000
0000
0000
,  // measure 56
0001
0000
0000
0000
,  // measure 57
0100
0000
0000
0000
,  // measure 58
0010
0000
0000
0000
,  // measure 59
1000
0000
0000
0000
;
