#TITLE:SUPER HERO;
#SUBTITLE:;
#ARTIST:DJ YOSHITAKA feat.Michaela Thurlow;
#TITLETRANSLIT:;
#SUBTITLETRANSLIT:;
#ARTISTTRANSLIT:;
#GENRE:;
#CREDIT:;
#BANNER:SUPER HERO.png;
#BACKGROUND:SUPER HERO-bg.png;
#LYRICSPATH:;
#CDTITLE:;
#MUSIC:SUPER HERO.ogg;
#OFFSET:0.000000;
#SAMPLESTART:48.333000;
#SAMPLELENGTH:20.000000;
#SELECTABLE:YES;
#DISPLAYBPM:180.000000;
#BPMS:0.000000=180.000000
;
#STOPS:
;
#BGCHANGES:;
#KEYSOUNDS:;
#ATTACKS:;

//---------------dance-single - ----------------
#NOTES:
     dance-single:
     :
     Beginner:
     4:
     0.188613,0.247554,0.153248,0.023577,0.000000,112.000000,99.000000,13.000000,2.000000,0.000000,0.000000,0.188613,0.247554,0.153248,0.023577,0.000000,112.000000,99.000000,13.000000,2.000000,0.000000,0.000000:
0000
0000
0000
0000
,
0000
0000
0000
0000
,
0000
0000
0000
0000
,
0000
0000
0000
0000
,
0000
0000
0000
0000
,
0010
0000
0000
0000
,
0100
0000
0000
0000
,
0110
0000
1001
0000
,
0000
0000
0000
0000
,
0000
1000
1000
0000
,
0000
0000
0100
0100
,
0000
1000
0000
0001
,
0000
0000
0010
0010
,
0000
0001
0001
0000
,
0000
0000
0010
0010
,
0000
0001
0000
1000
,
0000
0000
0100
0100
,
0000
0000
1001
0000
,
0000
0000
1001
0000
,
0000
0100
0100
0000
,
0000
0010
0010
0010
,
0000
1000
0000
0100
,
0000
0000
0000
0100
,
0000
0001
0000
0010
,
0000
0000
0000
0010
,
0000
0001
0000
0010
,
0000
1000
0000
0100
,
0000
0000
0000
0000
,
1001
0000
1001
0000
,
0000
0000
2000
0000
,
3000
0000
0010
0010
,
0000
0000
0002
0000
,
0003
0000
0100
0100
,
0000
0001
0001
1000
,
0000
1000
1000
0001
,
1000
0000
0001
0000
,
1001
0000
0000
0000
,
1000
0000
0100
0000
,
0000
0001
0001
1000
,
1000
0000
0001
0000
,
0000
0100
0100
0100
,
0000
0001
0001
0001
,
0000
1000
1000
1000
,
0000
0000
0000
0000
,
0000
0000
0000
0000
,
1000
0000
0010
0000
,
0000
0001
0001
1000
,
1000
0000
0001
0000
,
0000
0010
0010
0010
,
0000
0001
0001
0001
,
0000
1000
1000
1000
,
0000
0000
0000
0000
,
0000
0001
1000
0001
,
0000
0000
0110
0000
,
0000
0000
0110
0000
,
0000
0100
0100
0000
,
0000
0010
0010
0000
,
0110
0000
0000
0000
,
0000
1001
0000
0000
0000
0000
0000
1001
,
0000
0000
0000
0000
,
1001
0000
0000
0000
,
0000
0000
0000
0000
;

//---------------dance-single - ----------------
#NOTES:
     dance-single:
     :
     Easy:
     6:
     0.244186,0.424378,0.188613,0.047153,0.000000,145.000000,129.000000,16.000000,4.000000,0.000000,0.000000,0.244186,0.424378,0.188613,0.047153,0.000000,145.000000,129.000000,16.000000,4.000000,0.000000,0.000000:
0000
0000
0000
0000
,
0000
0000
0000
0000
,
0000
0000
0000
0000
,
0000
0000
0000
0000
,
0000
0000
0000
0000
,
0010
0000
0000
0000
,
0100
0000
0000
0000
,
0110
0000
1001
0000
,
0100
0100
0100
0000
,
0000
1000
1000
0000
,
0000
0000
1000
0001
,
1000
1000
0001
0001
,
0000
0000
0100
1000
,
0000
0001
0001
0000
,
0000
0000
0001
1000
,
0001
0001
1000
1000
,
0000
0000
0100
0001
,
0000
1000
1001
0000
,
0000
0001
1001
0000
,
0000
0100
0010
0000
,
0000
0010
0010
0010
,
0000
1000
0100
0100
,
1000
0000
0010
0000
,
0000
0001
0010
0010
,
0001
0000
0100
0000
,
0000
0001
0010
0001
,
0000
1000
0100
1000
,
0000
0000
0000
0000
,
1001
0110
1001
0000
,
0000
0000
2000
0000
,
3000
0000
0010
0010
,
0100
0000
0002
0000
,
0003
0000
0100
0100
,
0000
0001
0100
1000
,
0000
1000
0010
0001
,
2000
0000
3002
0000
,
1003
0000
0000
0000
,
1000
0100
0000
0100
,
0000
0001
0001
1000
,
1000
0001
0000
1000
,
0000
0100
0100
0100
,
0000
0001
0010
0001
,
0010
0100
1000
0100
,
0000
0000
0000
0000
,
0000
0000
0000
0000
,
0001
0100
0000
0100
,
0000
1000
1000
0001
,
0001
1000
0000
0001
,
0000
0010
0010
0010
,
0000
1000
0100
1000
,
0100
0010
0001
0010
,
0000
0000
0000
0000
,
0000
0001
1000
0001
,
0000
0100
0110
0000
,
0000
0010
0110
0000
,
1000
0100
0100
0000
,
0001
0010
0010
0000
,
1001
0000
0000
1001
0000
0000
1001
0000
,
0000
0110
0000
0000
0110
0000
0000
1001
,
0000
0000
0000
0000
,
1001
0000
0000
0000
,
0000
0000
0000
0000
;

//---------------dance-single - ----------------
#NOTES:
     dance-single:
     :
     Medium:
     9:
     0.426062,0.459743,0.412590,0.047153,0.000000,253.000000,218.000000,35.000000,4.000000,0.000000,0.000000,0.426062,0.459743,0.412590,0.047153,0.000000,253.000000,218.000000,35.000000,4.000000,0.000000,0.000000:
0000
0000
0000
0000
,
0000
0000
0000
0000
,
0000
0000
0000
0000
,
0000
0000
0000
0000
,
0000
0000
0000
0000
,
0110
0000
0000
0000
,
1001
0000
0000
0000
,
1100
0000
0011
0000
,
0001
0010
0100
1001
,
0000
0000
1000
0000
1000
0001
0100
0000
,
0001
0010
0000
0100
1000
0000
0001
0000
,
1000
0100
1000
0000
0001
0010
0001
0000
,
0000
0110
1000
0001
,
1001
0000
0001
0000
0001
1000
0100
0000
,
1000
0010
0000
0100
0001
0000
1000
0000
,
0001
0100
0001
0000
1000
0010
1000
0100
,
0000
0000
0110
0000
0001
0000
1000
0100
,
0000
0100
1000
0000
0001
0000
0000
0100
,
0000
0100
0001
0000
1000
0000
0000
0000
,
0000
0001
0010
0100
,
1000
0001
0010
0110
,
0000
0000
1000
0000
0001
0010
0100
0000
,
1000
0010
0000
0010
1000
0000
0001
0000
,
0101
0000
0001
0000
1000
0100
0010
0000
,
0001
0100
0000
0100
0001
0000
1000
0000
,
1010
0000
0100
0000
1000
0001
0000
0001
,
1000
0100
0001
1000
,
0110
0000
0110
0000
,
1100
0110
0011
0000
,
1000
0000
0010
0000
0200
0000
0300
1000
,
0000
1000
0000
1000
0000
0100
0010
0000
,
0001
0000
0100
0000
0200
0000
0300
0001
,
0000
0001
0000
0001
0000
0100
0010
0000
,
0000
0001
0100
1100
,
0010
1000
0010
0011
,
0200
0000
0320
0000
,
0130
0000
0000
1001
,
1000
0000
0100
0000
0010
0001
0010
0000
,
0001
0100
0100
1100
,
1000
0000
0010
0000
0100
1000
0100
0010
,
0000
0100
0011
0100
,
1000
0001
0100
0001
,
0010
0000
1000
0000
0001
0100
1000
0000
,
1000
0000
0100
0000
0010
0001
1000
0100
,
0000
1001
1001
0110
,
0001
0000
0100
0000
0010
1000
0010
0000
,
1000
0100
0100
0101
,
0001
0000
0010
0000
0100
0001
0100
0010
,
0000
0001
1010
0100
,
0001
1000
0100
1000
,
0010
0000
0001
0000
1000
0100
0001
0000
,
0001
0000
0100
0000
0010
1000
0001
0100
,
0000
0000
0100
0000
0100
0000
0001
0001
,
0000
0100
0100
0000
0110
0000
0000
1000
,
0000
0010
0010
0000
0110
0000
0000
0010
,
0000
0000
0010
0000
0010
0000
0001
0010
,
0100
0000
0100
0000
1000
0100
0010
0000
,
0110
0000
0000
1001
0000
0000
1100
0000
,
0000
0011
0000
0000
1010
0000
0000
0101
,
0000
0000
0000
0000
,
1001
0000
0000
0000
,
0000
0000
0000
0000
;

//---------------dance-single - ----------------
#NOTES:
     dance-single:
     :
     Hard:
     12:
     0.548997,0.601202,0.506896,0.023577,0.000000,326.000000,283.000000,43.000000,2.000000,0.000000,0.000000,0.548997,0.601202,0.506896,0.023577,0.000000,326.000000,283.000000,43.000000,2.000000,0.000000,0.000000:
0000
0000
0000
0000
,
0000
0000
0000
0000
,
0000
0000
0000
0000
,
0000
0000
0000
0000
,
0000
0000
0000
0000
,
0110
0000
0000
0000
,
1001
0000
0000
0000
,
1010
0000
0101
0000
,
0100
0100
0100
0000
,
0010
0100
1000
0000
1000
0100
0001
0000
,
0001
0100
1000
0100
0010
0000
0011
0000
,
1000
0100
1000
0000
1000
0010
1000
0100
,
0010
0001
0010
0001
0010
0100
1000
0000
,
0010
0100
0001
0000
0001
0100
1000
0000
,
1000
0100
0001
0100
0010
0000
1010
0000
,
0001
0100
0001
0000
0001
0010
0001
0100
,
0010
1000
0010
1000
0010
0100
0001
0010
,
0000
0100
1100
0000
0101
0000
0000
0100
,
0000
0010
1010
0000
0011
0000
0000
1001
,
0000
0000
0010
0000
1000
0100
0010
0001
,
0000
0001
0010
0010
0100
0100
1000
1100
,
0000
0000
1000
0000
0001
0010
0100
1000
,
0001
0010
0000
0010
0100
0000
1100
0000
,
0101
0000
0001
0000
1000
0100
0010
0001
,
1000
0100
0000
0100
0010
0000
0011
0000
,
1010
0000
0100
0000
0001
0100
1000
0000
,
1000
0100
0001
0000
0001
0100
1000
0000
,
0110
1000
0110
0001
,
1010
0000
0101
0000
0001
1000
0100
0000
,
0010
0000
1100
0000
1000
0010
0000
0100
,
0000
0100
0000
0100
0000
1000
0100
0000
,
0100
0000
0011
0000
0001
0100
0000
0010
,
0000
0010
0000
0010
0000
0001
0100
0010
,
0000
0010
1000
0100
1000
0010
1000
0100
,
0010
0001
0010
0100
0010
0001
0010
0100
,
1000
0010
1000
0000
0001
0100
0001
0100
,
0010
0000
0000
0000
,
1000
0001
0100
0000
0100
0010
0001
0010
,
0100
0000
0110
0000
0011
0000
1000
0100
,
1000
0000
0010
0000
0010
0100
1000
0100
,
0000
0100
0010
0000
0001
0010
0100
0000
,
1010
0000
0001
0000
0110
0000
0001
0100
,
1000
0100
1000
0010
0100
0000
0001
0100
,
0010
0000
1100
0000
0010
0100
0010
0011
,
0000
0010
0100
1001
,
0001
1000
0100
0000
0100
0010
0001
0010
,
0100
0000
0110
0000
1100
0000
0001
0100
,
0001
0000
0010
0000
0010
0100
0001
0100
,
0000
0100
0010
0000
1000
0001
0100
0000
,
0011
0000
1000
0000
0110
0000
1000
0100
,
0001
0100
0000
0010
0100
0000
1000
0100
,
0010
0000
0101
0000
0010
0100
0010
1010
,
0000
0000
1000
0000
0110
0000
0001
1000
,
0000
0010
0110
0000
0001
0010
0001
1000
,
0000
0100
0110
0000
1000
0100
1000
0100
,
0000
0000
0100
0000
0100
0000
0001
1000
,
0010
0100
0010
1000
0001
0100
0010
0000
,
0011
0000
0000
0110
0000
0000
0101
0000
,
0000
1010
0000
0000
0100
0010
0200
0020
,
0000
0000
0000
0330
,
1001
0000
0000
0000
,
0000
0000
0000
0000
;

//---------------dance-double - ----------------
#NOTES:
     dance-double:
     :
     Easy:
     7:
     0.286287,0.353648,0.153248,0.141459,0.000000,170.000000,157.000000,13.000000,12.000000,0.000000,0.000000,0.286287,0.353648,0.153248,0.141459,0.000000,170.000000,157.000000,13.000000,12.000000,0.000000,0.000000:
00000000
00000000
00000000
00000000
,
00000000
00000000
00000000
00000000
,
00000000
00000000
00000000
00000000
,
00000000
00000000
00000000
00000000
,
00000000
00000000
00000000
00000000
,
10000000
00000000
00000000
00000000
,
00010000
00000000
00000000
00000000
,
00100000
00000000
00000000
00000000
,
01000000
01000000
01000000
01000000
,
00000000
10000000
00010000
10000000
,
01000000
01000000
00010000
00000000
,
00000000
00001000
00010000
00001000
,
00000010
00000001
00000010
00000100
,
00000000
00001000
00000001
00001000
,
00000010
00000010
00000100
00000000
,
00001000
00000000
00010000
00000000
,
00100000
10000000
00100000
00000000
,
20010000
00010000
30010000
00000000
,
01200000
01000000
01300000
00000000
,
00000000
10000000
01000000
10000000
,
01000000
00010000
00001000
00000000
,
00000010
00000001
00000010
00000001
,
00002000
00000010
00003010
00000000
,
00000010
00010000
00000010
00010000
,
00002000
00100000
00103000
00000000
,
01000000
10000000
01000000
00000000
,
00100000
00010000
00100000
00000000
,
10000000
00000000
00010000
00000000
,
00001000
00000000
00000001
00000000
,
00000100
00000010
00000100
00000010
,
00000000
00001000
00000001
00001000
,
00000010
00010000
00000010
00010000
,
00000000
00100000
01000000
00100000
,
10000000
10000000
01000000
01000000
,
00010000
00010000
00001000
00001000
,
00000010
00000010
00000001
00000001
,
00001001
00000000
00000000
00000000
,
00000001
00001000
00000001
00000100
,
00001000
00010000
00001000
00000000
,
00010000
00100000
10000000
00010000
,
10000000
01000000
00010000
00000000
,
00011000
00000000
01010000
00000000
,
00011000
00000000
00001100
00000000
,
00000001
00001000
00000010
00000100
,
00000002
00000100
00000100
00000103
,
00000000
00000010
00001000
00000010
,
00000100
00001000
00010000
00010000
,
00000000
00100000
10000000
01000000
,
00010000
01000000
10000000
10000000
,
01100000
00000000
00110000
00000000
,
00011000
00000000
00001010
00000000
,
00000001
00000100
00000001
00000010
,
00000000
00000100
00000100
00000100
,
00002000
00000001
00003001
00000000
,
00000020
00000100
00000130
00000000
,
00002000
00000000
00023000
00000000
,
00032000
00000000
00013000
00000000
,
00022000
00000000
00000000
00000000
,
00000000
00000000
00000000
00000000
00000000
00000000
00000000
00033000
,
00000000
00000000
00000000
00000000
,
00011000
00000000
00000000
00000000
,
00000000
00000000
00000000
00000000
;

//---------------dance-double - ----------------
#NOTES:
     dance-double:
     :
     Medium:
     10:
     0.397434,0.424378,0.082518,0.129671,0.000000,236.000000,229.000000,7.000000,11.000000,0.000000,0.000000,0.397434,0.424378,0.082518,0.129671,0.000000,236.000000,229.000000,7.000000,11.000000,0.000000,0.000000:
00000000
00000000
00000000
00000000
,
00000000
00000000
00000000
00000000
,
00000000
00000000
00000000
00000000
,
00000000
00000000
00000000
00000000
,
00000000
00000000
00000000
00000000
,
00011000
00000000
00000000
00000000
,
00110000
00000000
00000000
00000000
,
01100000
00000000
10010000
00000000
,
10000000
01000000
00010000
00001000
,
00000010
00000001
00001000
00000000
00000100
00000000
00000100
00000000
,
00000010
00000100
00001000
00000000
00000001
00000100
00001000
00000000
,
00010000
00000000
00100000
00000000
10000000
00010000
10000000
00000000
,
01000000
00100000
00010000
00000000
10000000
00000000
01000000
00000000
,
00010000
00000000
00001000
00000000
00000010
00000000
00000100
00000010
,
00000001
00000000
00001000
00000000
00000001
00000100
00001000
00000000
,
00000100
00000000
00000100
00000000
00000001
00001000
00000001
00001000
,
00000000
00000000
00000010
00000000
00001000
00000000
00010000
01000000
,
00000000
01000000
00100000
00000000
10000000
00000000
00000000
01000000
,
00000000
01000000
00010000
00000000
00001000
00000000
00000000
00000000
,
00000000
00000000
00000010
00000000
00000001
00001000
00000100
00000000
,
00000010
00001000
00010000
00000000
,
00100000
00000000
00100000
00000000
10000000
01000000
00010000
00000000
,
01000000
10000000
01000000
00000000
00100000
00000000
00000000
00000000
,
00001000
00000000
00001000
00000000
00010000
00001000
00010000
00000000
,
00001000
00000010
00000001
00000000
00000010
00000000
00000000
00000000
,
00000001
00000000
00000100
00000000
00001000
00010000
00001000
00000000
,
00010000
00000000
00100000
00000000
10000000
00100000
10000000
00000000
,
01000000
00000000
00010000
00000000
,
00001000
00000000
00010000
00000000
00001000
00010000
00000000
00000000
,
00000000
00000000
00001000
00000000
00000010
00000001
00000000
00000200
,
00000000
00000001
00000010
00001300
,
00010000
00000000
00100000
00000000
10000000
00010000
00000000
02000000
,
00000000
10000000
00100000
03010000
,
00200000
00301000
00002000
00013000
,
00020000
00030010
00000020
00001030
,
00000200
00000001
00001000
00000301
,
00000110
00000000
00000000
00000000
,
00000001
00000000
00001000
00000000
00000010
00001000
00000010
00000000
,
00001000
00010000
00001000
00000000
00010000
00000000
01000000
00000000
,
00100000
00000000
10000000
00000000
01000000
00100000
00010000
00000000
,
10000000
00010000
01000000
00000000
00001000
00000000
00010000
00000000
,
00000010
00000000
00001000
00000000
00000001
00000100
00000001
00000000
,
00001000
00000010
00001000
00000000
00000100
00000010
00000100
00000000
,
00000001
00000000
00000100
00000000
00001000
00000001
00001000
00000020
,
00000000
00000100
00000100
00000130
,
00000001
00000000
00000100
00000000
00000010
00001000
00000010
00000000
,
00010000
00001000
00010000
00000000
00100000
00000000
10000000
00000000
,
01000000
00000000
00100000
00000000
00010000
10000000
00010000
00000000
,
10000000
01000000
00010000
00000000
00001000
00000000
00000010
00000000
,
00000001
00000010
00000001
00000000
00000010
00000100
00000010
00000000
,
00000100
00001000
00000100
00000000
00010000
00000000
00010000
00000000
,
00001000
01000000
00001000
00000000
00010000
00100000
01000000
10000000
,
00000000
00000000
00000000
00000000
00000000
00000000
00000000
10000000
,
00000000
10000000
01000000
00000000
00010000
00000000
00000000
00001000
,
00000000
00001000
00000010
00000000
00000001
00000000
00000000
00000000
,
00000001
00000000
00000100
00000000
00001000
00010000
00001000
00010000
,
00000000
00100000
10000000
01000000
,
01020000
00000000
00000000
00001000
00000000
00000000
01000000
00000000
,
00000000
00001000
00000000
00030000
00000010
00001000
00000020
00000200
,
00000000
00000000
00000000
00000330
,
00000110
00000000
00000000
00000000
,
00000000
00000000
00000000
00000000
;

//---------------dance-double - ----------------
#NOTES:
     dance-double:
     :
     Hard:
     13:
     0.580994,0.601202,0.636567,0.306495,0.000000,345.000000,291.000000,54.000000,26.000000,0.000000,0.000000,0.580994,0.601202,0.636567,0.306495,0.000000,345.000000,291.000000,54.000000,26.000000,0.000000,0.000000:
00000000
00000000
00000000
00000000
,
00000000
00000000
00000000
00000000
,
00000000
00000000
00000000
00000000
,
00000000
00000000
00000000
00000000
,
00000000
00000000
00000000
00000000
,
00001001
00000000
00000100
00000100
00000001
00000100
00000000
00001100
,
00000000
00001000
00010000
00010000
00001000
00000000
00011000
00000000
,
00110000
00000000
10000000
10000000
00100000
10000000
00000000
10000000
,
01000000
00000000
00010000
00000000
00001000
00000000
00000010
00000220
,
00000000
00000330
00000010
00000000
00000001
00001000
00000100
00000010
,
00000001
00001000
00000100
00000001
00001000
00000010
00000001
00000000
,
00000100
00000000
00001000
00000000
00010000
00001000
00010000
00200000
,
00000000
10300000
01010000
11000000
,
00010000
00000000
10000000
00000000
02000000
00000000
03010000
10000000
,
00000000
00100000
00000000
00010000
00001000
00000000
00000100
00000000
,
00000101
00000000
00001100
00000000
00010000
00001000
00000010
00000022
,
00000000
00000033
00000001
00000000
00000100
00000000
00001000
00022000
,
00033000
00100000
10000000
00000000
01010000
00000000
00000000
00022000
,
00033000
00000010
00000001
00000000
00000101
00000000
00000000
00000000
,
00000000
00000000
00001010
00000000
00000010
00010000
00000000
00100000
,
00000000
00100000
10000000
10000000
01000000
00100000
01000000
00020000
,
00000000
00000000
00000010
00000000
00031000
00000010
00000001
00000100
,
00000010
00000001
00000010
00001000
00010000
00000000
00000000
00000000
,
00020000
00000000
01000000
00000000
00031000
00100000
01000000
00100000
,
10000000
01000000
00100000
00010000
00001000
00000000
00012000
00000000
,
00000100
00000000
00003001
00000000
00000000
00000000
00000010
00001000
,
00000001
00000100
00001000
00010000
00000000
00000000
00100000
00000000
,
10100000
00000000
01010000
00000000
,
10010000
00000000
10010000
00000000
01100000
02200000
00000000
03300000
,
10000000
00000000
01000000
00000000
00100000
00010000
00000000
11000000
,
00000000
01010000
00000000
00010000
00001000
00000000
00001010
00000000
,
00000001
00000000
00000100
00000000
00010000
00000100
00000000
00000101
,
00000000
00000110
00000000
00001000
00010000
00100000
00000000
20000000
,
00000000
31000000
00100000
00010000
10000000
01000000
00010000
10000000
,
00100000
00010000
10000000
01000000
00010000
10000000
00100000
00010000
,
00001000
00000100
00000001
00001000
00000010
00000001
00001000
00000100
,
00000001
00000000
00000000
00000000
,
00001001
00000000
00000010
00000100
00000001
00000100
00001000
00010000
,
00100000
10000000
01000000
00010000
00001000
01000000
00010000
00000000
,
01100000
00000000
10000000
01000000
00010000
00001000
00000010
00000220
,
00000330
00000011
00000101
00001100
,
00011000
00000000
00100000
10000000
00010000
01000000
00001000
00100000
,
00010000
00100000
01000000
10000000
01000000
00010000
00001000
00000000
,
00000010
00000001
00000010
00000100
00010000
00001000
00000010
00000022
,
00000000
00000033
00000101
00000000
00001100
00000000
00011000
00000000
,
00110000
00000000
10000000
00100000
00010000
00001000
01000000
00010000
,
10000000
01000000
00010000
00001000
00000010
00000001
00000100
00000000
,
00001001
00000000
00000001
00000100
00000010
00010000
00001000
00000100
,
00000001
00001000
00000001
00000100
00001000
00010000
00100000
00000000
,
10000000
01000000
00100000
00010000
10000000
01000000
00010000
00001000
,
00000010
00000001
00001000
00000100
00000001
00001000
00000010
00000000
,
00001001
00000000
00000110
00000000
00000001
00000100
00000001
00000100
,
00000000
00000000
00000001
00000010
00000001
00000100
00001000
00022000
,
00033000
00010000
00100000
00000000
10100000
00000000
00000000
22000000
,
33000000
01000000
00010000
00000000
00011000
00000000
00000000
00001001
,
00000000
00000000
00000110
00000000
00000001
00001000
00000001
00000100
,
00000000
00000000
00001000
00000000
00010000
00100000
00010000
00100000
,
10100000
00000000
00000000
11000000
00000000
00000000
01010000
00000000
,
00000000
00011000
00000000
00000000
00000010
00000001
00000100
00000220
,
00000000
00000000
00000000
00000330
,
00001001
00000000
00000000
00000000
,
00000000
00000000
00000000
00000000
;

//---------------dance-single - ----------------
#NOTES:
     dance-single:
     :
     Challenge:
     14:
     0.766238,0.742662,0.860545,0.141459,0.159142,455.000000,382.000000,73.000000,12.000000,0.000000,0.000000,0.766238,0.742662,0.860545,0.141459,0.159142,455.000000,382.000000,73.000000,12.000000,0.000000,0.000000:
// measure 0
0000
0000
0000
0000
,  // measure 1
0000
0000
0000
0000
,  // measure 2
0000
0000
0000
0000
,  // measure 3
0000
0000
0000
0000
,  // measure 4
0000
0000
0000
0000
,  // measure 5
1001
0000
0100
0010
1001
0100
0010
2000
,  // measure 6
0000
3002
0000
1003
0100
0010
0001
0000
,  // measure 7
0110
0000
1000
0001
0110
1000
0001
0100
,  // measure 8
0101
0000
0000
0000
1001
0000
0000
0000
1000
0100
1000
0100
1000
0000
2010
0000
,  // measure 9
0000
3010
1010
0000
0101
0000
0001
0010
,  // measure 10
0100
1000
0010
0100
0001
1000
0001
0000
,  // measure 11
0011
0000
1001
0000
1100
1000
0001
0100
,  // measure 12
0001
0010
0100
1000
0010
0100
0001
0000
,  // measure 13
0101
0000
0110
0000
1000
0001
0100
0010
,  // measure 14
1000
0100
0010
0001
0010
0100
1000
0000
,  // measure 15
0101
0000
1100
0000
0100
0001
1000
1002
,  // measure 16
0000
0013
0001
0100
0010
1000
0100
1100
,  // measure 17
0000
1100
1001
0000
0102
0103
0000
0011
,  // measure 18
0000
0011
0110
0000
1100
0010
0100
0000
,  // measure 19
1001
0000
1000
0100
0010
0100
0010
0001
,  // measure 20
1000
0010
0100
0010
1000
0100
0010
0001
,  // measure 21
1001
0000
0110
0000
1000
0100
0010
0001
,  // measure 22
0100
0010
0100
0000
0001
0000
1000
0100
1000
0000
0001
0000
0010
0000
0000
0000
,  // measure 23
0101
0000
1010
0000
0001
0010
0100
1000
,  // measure 24
0010
1000
0010
0000
0100
0000
0001
0010
0001
0000
1000
0000
0100
0000
0000
0000
,  // measure 25
0011
0000
1100
0000
0010
0100
0001
1000
,  // measure 26
0100
1000
0100
0000
0010
0000
0001
0100
0001
0000
1000
0000
0010
0000
0000
0000
,  // measure 27
1001
0100
0010
0000
1001
0100
0010
0000
,  // measure 28
1100
0000
0000
0000
0101
0000
0000
0000
1100
0000
0000
0000
0010
0100
0010
0100
,  // measure 29
0010
0000
1010
0000
0101
0101
0100
2001
,  // measure 30
0000
3100
1100
1000
0010
0100
0001
0000
,  // measure 31
0010
0000
0101
0000
1010
1010
1000
0210
,  // measure 32
0000
0310
0011
0001
0100
0010
1000
0000
,  // measure 33
0001
0000
0100
0000
0010
0000
0001
0000
1000
0100
1000
0000
0010
0000
0000
0000
,  // measure 34
0100
0000
0001
0000
0010
0000
0100
0000
1000
0001
1000
0000
0010
0000
0000
0000
,  // measure 35
1000
0000
0001
0000
0010
0000
0001
0000
0100
1000
0100
0000
0010
0000
0000
0000
,  // measure 36
1001
0000
0000
0000
1000
0100
1000
0100
0010
0000
0001
0000
0100
0000
0000
0000
,  // measure 37
0010
0000
0100
0001
0100
0000
0010
0000
1000
0000
0100
0000
0010
0000
0001
0000
,  // measure 38
0100
0000
0000
0000
0001
1000
0001
1000
0100
0000
0010
0000
0001
0000
0000
0000
,  // measure 39
1000
0000
0010
0100
0010
0000
1000
0000
0100
0000
0010
0000
0001
0000
0200
0000
,  // measure 40
0010
0000
0000
0000
0301
0000
0100
0010
0100
0000
0001
0000
1000
0000
0000
0000
,  // measure 41
1000
0100
0010
0001
0100
0010
1000
0001
,  // measure 42
0010
0100
1000
0010
0100
0001
1000
0001
,  // measure 43
0101
0100
1100
0000
1001
0001
1000
0010
,  // measure 44
0110
0000
0000
0000
0100
0001
0100
0001
1000
0000
0010
0000
0100
0000
0000
0000
,  // measure 45
0001
0000
1000
0100
0010
0000
0100
0000
1000
0000
0010
0000
0100
0000
0001
0000
,  // measure 46
0010
0000
0000
0000
1000
0010
1000
0010
0100
0000
0001
0000
0010
0000
0000
0000
,  // measure 47
0001
0000
0100
0010
1000
0000
0100
0000
0010
0000
0001
0000
1000
0000
0200
0000
,  // measure 48
1000
0000
0000
0000
0310
0000
0100
1000
0010
0000
0100
0000
0001
0000
0000
0000
,  // measure 49
0010
0001
0100
0010
1000
0100
1000
0001
,  // measure 50
0010
0100
1000
0001
1000
0100
0010
0001
,  // measure 51
0011
0010
1010
0000
1001
0100
0001
1000
,  // measure 52
1100
0000
0100
1000
0010
1000
0100
1001
,  // measure 53
0000
1001
0101
0000
0120
1030
0000
1010
,  // measure 54
0000
1010
0110
0000
1010
1000
0100
0000
,  // measure 55
1000
0010
0100
0001
0010
0100
0001
1000
,  // measure 56
0100
1000
0010
0100
0001
1000
0001
0010
,  // measure 57
0011
0000
0000
1010
0000
0000
1100
0000
,  // measure 58
0000
0101
0000
0000
1001
1001
0110
0220
,  // measure 59
0300
0100
0100
0130
,  // measure 60
1001
0000
0000
0000
;
