#VERSION:0.83;
#TITLE:SUNKiSS?DROP;
#SUBTITLE:;
#ARTIST:jun with Alison;
#TITLETRANSLIT:SUNKiSS DROP;
#SUBTITLETRANSLIT:;
#ARTISTTRANSLIT:;
#GENRE:;
#ORIGIN:;
#CREDIT:;
#BANNER:SUNKiSS DROP-bn.png;
#BACKGROUND:SUNKiSS DROP-bg.png;
#PREVIEWVID:;
#JACKET:SUNKiSS DROP-jacket.png;
#CDIMAGE:;
#DISCIMAGE:;
#LYRICSPATH:;
#CDTITLE:;
#MUSIC:SUNKiSS DROP.ogg;
#OFFSET:0.000000;
#SAMPLESTART:38.590000;
#SAMPLELENGTH:20.000000;
#SELECTABLE:YES;
#DISPLAYBPM:185.000000;
#BPMS:0.000=185.567,
4.000=185.007;
#STOPS:;
#DELAYS:;
#WARPS:;
#TIMESIGNATURES:0.000=4=4;
#TICKCOUNTS:0.000=4;
#COMBOS:0.000=1;
#SPEEDS:0.000=1.000=0.000=0;
#SCROLLS:0.000=1.000;
#FAKES:;
#LABELS:0.000=Song Start;
#BGCHANGES:;
#KEYSOUNDS:;
#ATTACKS:
;

//---------------dance-single - ----------------
#NOTEDATA:;
#CHARTNAME:;
#STEPSTYPE:dance-single;
#DESCRIPTION:;
#CHARTSTYLE:;
#DIFFICULTY:Hard;
#METER:13;
#RADARVALUES:0.653868,0.630894,0.361598,0.190315,0.000000,481.000000,443.000000,38.000000,20.000000,0.000000,0.000000,0.000000,0.000000,0.000000,0.653868,0.630894,0.361598,0.190315,0.000000,481.000000,443.000000,38.000000,20.000000,0.000000,0.000000,0.000000,0.000000,0.000000;
#CREDIT:;
#DISPLAYBPM:185.000000;
#NOTES:
0000
0000
0000
0000
,
0000
0000
0000
0000
,
0000
0000
0000
0000
,
0000
0000
0000
0000
,
0000
0000
0000
0000
,
0000
0000
0000
0000
,
1000
0100
0001
1000
0010
0000
0100
0001
,
0010
1000
0001
0000
1000
0001
0010
1000
,
0100
0010
0001
0100
0000
0001
0010
1000
,
0100
0010
0001
2000
0000
3010
1000
0100
,
0001
0000
0010
0000
0001
0000
0100
0010
,
1000
0100
0001
0000
0010
0000
0100
0000
,
1000
0000
0010
0000
1000
0100
0010
0001
,
0100
0010
1000
0000
0001
0000
1100
0000
,
0101
0000
0010
0000
1000
0100
0010
0001
,
0100
0001
0010
0000
1000
0100
0001
0000
,
1020
0000
0031
0010
2000
0000
3100
0000
,
0021
0000
0130
0010
0001
0000
1000
0000
,
1001
0000
0100
0010
1000
0100
0001
0000
,
0010
0001
0010
0100
1000
0001
0000
0100
,
0010
0101
0010
1100
,
0011
1000
0002
0000
0100
0000
0013
0100
,
1000
0010
1000
0001
0000
0100
0010
1000
,
0100
0110
0000
1001
0000
0010
1000
0100
,
0001
0010
0001
1000
0000
0010
1000
0100
,
0010
0001
0100
0000
1010
0000
0101
0000
,
1100
0000
0001
0010
1000
0100
0001
0000
,
0110
0001
0100
0000
0020
0000
2030
0000
,
3002
0100
0000
1000
0000
0010
0000
2003
,
0020
3030
1001
0110
,
1000
0010
0100
0010
1000
0100
0010
0001
,
0100
0010
1000
0000
0001
0010
1000
0000
,
0100
0010
0001
0100
0001
0010
0100
1000
,
0010
1000
0001
0000
0011
0000
0101
0000
,
1000
0010
0100
0010
1000
0001
0010
0100
,
0000
1000
0001
0000
0100
0010
1000
0000
,
0010
1000
0100
0001
0010
0100
0010
0001
,
0100
0010
2000
0000
3002
0000
0013
0100
,
1000
0001
0010
0001
0100
0010
1000
0100
,
0001
1000
0001
0000
0010
0100
1000
0000
,
0010
1000
0100
0010
0001
0100
0001
0010
,
1000
0100
0001
0000
0010
0000
0101
0000
,
1010
0000
0001
0000
1000
0100
0010
0001
,
0100
0010
1000
0001
0010
0100
1000
0000
,
0002
0000
1003
0010
2000
0000
3100
0010
,
0001
0100
1000
0100
0001
0000
0001
0000
,
0011
0100
1010
0101
,
1000
1001
0110
0000
,
0101
0010
1100
0011
,
0100
1001
0110
0000
,
1010
0001
0011
0101
,
0010
0110
1001
0000
,
1000
0100
0010
0001
0000
0100
0010
0100
,
0001
0010
0100
2000
0001
0000
0001
0000
,
3100
0010
1000
0100
0001
0000
0010
0001
,
0100
0001
0010
0000
1000
0001
1000
0010
,
0100
1000
0100
0001
0010
0000
0001
1000
,
0010
1000
0100
0000
0010
0001
0100
1000
,
0001
0010
0001
0100
1000
0000
0001
0010
,
0100
0010
0001
0000
1000
0001
0010
0100
,
1000
0010
1000
0001
0000
0010
0100
0010
,
0001
0100
0010
2000
0100
0000
0001
0000
,
3100
1000
0010
1000
0100
0010
0001
0100
,
0001
0010
1000
0000
0001
0100
1000
0000
,
0010
1000
0001
0010
0001
0100
0010
1000
,
0100
0010
0001
0000
1000
0100
0001
0000
,
0010
0001
1000
0100
0001
0100
1000
0010
,
0100
1000
0001
0000
0010
0001
0100
0000
,
0010
1000
0100
0001
0010
0100
0010
0001
,
0100
0010
2000
0000
3002
0000
0103
0010
,
0100
0001
0010
0100
1000
0001
1000
0010
,
1000
0100
0001
0000
0010
0001
0100
0000
,
0001
0010
0100
0010
0001
0100
0010
1000
,
0100
0010
0001
0000
0100
0000
1010
0000
,
0011
1000
0001
0010
0100
1000
0010
1000
,
0100
0010
0001
0000
1000
0001
0100
0000
,
0002
0000
0013
0100
2000
0000
3010
0100
,
0001
0010
1000
0010
0001
0000
0001
0000
,
1001
0000
0000
0000
;

//---------------dance-single - ----------------
#NOTEDATA:;
#CHARTNAME:;
#STEPSTYPE:dance-single;
#DESCRIPTION:;
#CHARTSTYLE:;
#DIFFICULTY:Medium;
#METER:10;
#RADARVALUES:0.508413,0.593782,0.494819,0.532882,0.000000,374.000000,322.000000,52.000000,56.000000,0.000000,0.000000,0.000000,0.000000,0.000000,0.508413,0.593782,0.494819,0.532882,0.000000,374.000000,322.000000,52.000000,56.000000,0.000000,0.000000,0.000000,0.000000,0.000000;
#CREDIT:;
#DISPLAYBPM:185.000000;
#NOTES:
0000
0000
0000
0000
,
0000
0000
0000
0000
,
0000
0000
0000
0000
,
0000
0000
0000
0000
,
0000
0000
0000
0000
,
0000
0000
0000
0000
,
1000
0100
0010
0100
1000
0000
0001
0010
,
0100
0010
0001
0000
1000
0001
0100
0010
,
1000
0100
0010
0001
0000
1000
0010
1000
,
0100
0010
0002
2000
0000
0000
0003
0000
,
3010
0000
0010
0000
0010
0000
0000
1000
,
0000
0100
1000
0000
0001
0000
0100
0000
,
0010
0000
0100
0000
0010
0000
1000
0100
,
0000
0010
0001
0000
0100
0000
0101
0000
,
1100
0000
0010
0000
0001
0000
1000
0001
,
0000
1000
0100
0000
0010
0000
0001
0000
,
0200
0000
0300
0001
2000
0000
3000
0000
,
0200
0000
0300
0010
0002
0000
1003
0000
,
2002
3000
0010
1000
,
0200
0000
0303
1000
0002
0000
0003
0010
,
0001
0100
1010
0101
,
1100
0000
0020
0000
0030
0000
0001
1000
,
0001
0000
0010
0100
0000
1000
0010
1000
,
0002
0100
0000
0200
0000
0303
0010
1000
,
0100
0000
0010
0001
0000
1000
0010
0100
,
0002
0003
0011
0110
,
2100
0000
0000
0002
3000
0000
2003
0000
,
3020
0000
0100
0130
,
0002
0010
0000
1000
0000
0013
0000
1000
,
0200
0300
0110
1001
,
0110
0000
1000
0001
0000
0010
0000
0001
,
0000
0100
0010
0000
1000
0000
0001
0000
,
0010
0000
0001
0100
0000
0010
0000
2000
,
0000
3000
1100
0101
,
0011
0000
0000
1000
0001
1000
0000
0010
,
0000
0200
0302
2003
,
3010
0000
0000
1000
0100
0010
0001
1000
,
0000
0001
2000
0000
3020
0000
0130
0001
,
0100
0000
0001
0010
0000
1000
0000
0100
,
0000
0010
0001
0000
1001
0000
1010
0000
,
1100
0000
0010
1000
0000
0100
0000
1000
,
0000
0001
0100
0000
0000
0000
0110
0000
,
0101
0000
0000
0000
0001
0010
1000
0100
,
0000
1000
0001
1000
,
0020
0000
0030
1000
0002
0000
0000
0000
,
0003
0001
0010
0001
0100
0000
1000
0000
,
2002
3003
1010
0202
,
0303
0011
2200
3300
,
2002
3003
0011
2020
,
3030
0101
2200
3300
,
2002
3003
0101
0022
,
0033
1100
2020
3030
,
1001
0100
1001
0100
,
0101
1100
0101
1100
,
0001
0010
0100
0010
0001
0000
1000
0100
,
0010
0100
1000
0000
0010
1000
0010
1000
,
0010
0100
0001
0100
0010
0000
1000
0001
,
0010
0001
1000
0000
0100
0010
0100
0010
,
0001
1000
0100
1000
0001
0000
0100
0010
,
1000
0010
0100
0000
0010
1000
0001
0100
,
0001
0010
0100
1000
0000
0010
1000
0100
,
1000
0010
0100
0002
0000
0000
0013
0000
,
0110
0000
1000
0001
0000
1000
0000
0010
,
0000
1000
0100
0000
0001
0000
0010
0000
,
0001
0000
1000
0010
0000
1000
0000
0200
,
0000
0300
1100
0011
,
1010
0000
0000
0001
0010
1000
0000
0100
,
0000
1000
0002
0000
0023
0000
0230
0000
,
1300
0000
0000
0010
1000
0001
1000
0100
,
0000
0010
0002
0000
2003
0000
3001
0100
,
0001
0000
0010
1000
0000
0100
0000
1000
,
0000
0001
0100
0000
0110
0000
1010
0000
,
0101
0000
1000
0001
0000
0010
0000
0001
,
0000
1000
0200
0000
0300
0000
1001
0000
,
0011
0000
0000
0000
0100
0010
0001
1000
,
0000
0010
0100
0001
,
2000
0000
3000
0100
0020
0000
0000
0000
,
0030
0010
0001
1000
0001
0000
0110
0000
,
1001
0000
0000
0000
;

//---------------dance-single - ----------------
#NOTEDATA:;
#CHARTNAME:;
#STEPSTYPE:dance-single;
#DESCRIPTION:;
#CHARTSTYLE:;
#DIFFICULTY:Easy;
#METER:7;
#RADARVALUES:0.343926,0.408225,0.171283,0.114189,0.000000,253.000000,235.000000,18.000000,12.000000,0.000000,0.000000,0.000000,0.000000,0.000000,0.343926,0.408225,0.171283,0.114189,0.000000,253.000000,235.000000,18.000000,12.000000,0.000000,0.000000,0.000000,0.000000,0.000000;
#CREDIT:;
#DISPLAYBPM:185.000000;
#NOTES:
0000
0000
0000
0000
,
0000
0000
0000
0000
,
0000
0000
0000
0000
,
0000
0000
0000
0000
,
0000
0000
0000
0000
,
0000
0000
0000
0000
,
1000
0010
0001
1000
,
0100
0010
0001
0100
,
0001
0010
1000
0100
,
0010
0100
2000
0000
,
3010
0010
0010
0000
,
1000
1000
1000
0000
,
0001
0010
0001
0100
,
1000
0010
0010
0000
,
0100
0001
0100
0010
,
1000
0100
1000
0001
,
0020
0030
0200
0300
,
0000
0000
0000
1100
,
0101
0000
0010
1000
,
0100
0000
0001
0000
,
0010
0010
0001
0100
,
1000
0000
0000
1010
,
0011
0000
0100
0010
,
2000
0000
0000
3001
,
1000
0000
0010
1000
,
0100
0000
1000
0001
,
0010
0000
0001
0000
,
0100
0000
1000
0001
,
0200
0000
0000
0000
,
0020
0030
0010
0310
,
1000
0010
1000
0100
,
0010
0001
0100
0001
,
0010
0001
0100
1000
,
0001
0000
0100
0100
,
0100
0000
0010
1000
,
0100
1000
0010
0001
,
0010
0000
0001
0100
,
1000
0010
1000
1001
,
0110
1000
0100
1000
,
0010
0100
0001
0001
,
0001
0010
0001
0100
,
1000
0001
0000
1000
,
0100
0000
1000
0010
,
1000
0100
0001
0001
,
2000
3000
0002
0003
,
0000
0001
0100
1000
,
1001
0000
0010
0100
,
0000
0001
1000
0000
,
0110
0000
1000
0100
,
0000
0010
0001
0000
,
1001
0000
0010
1000
,
0000
0100
0001
0000
,
0011
0000
1100
0000
,
0001
0100
2000
0000
,
3001
0010
0001
0100
,
1000
0010
1000
0100
,
0010
0100
0010
0001
,
1000
0100
0001
1000
,
0010
1000
0100
0010
,
0001
0100
1000
0001
,
1000
0010
1000
0100
,
0010
0001
0200
0010
,
0310
1000
0010
1000
,
0100
0010
0001
0001
,
0001
0100
0001
0010
,
1000
0000
1010
0101
,
1010
0000
0100
0010
,
0001
0100
0001
1000
,
0010
0000
1000
0100
,
1000
0010
0001
0101
,
1100
0010
1000
0100
,
1000
0010
0001
0001
,
0001
1000
0001
0010
,
0100
0100
0000
1000
,
0001
0000
0010
0001
,
0100
0010
1000
0100
,
2000
3000
0002
0003
,
0000
1000
0010
0110
,
1001
0000
0000
0000
;

//---------------dance-single - ----------------
#NOTEDATA:;
#CHARTNAME:;
#STEPSTYPE:dance-single;
#DESCRIPTION:;
#CHARTSTYLE:;
#DIFFICULTY:Beginner;
#METER:3;
#RADARVALUES:0.188956,0.296891,0.133220,0.019031,0.000000,139.000000,125.000000,14.000000,2.000000,0.000000,0.000000,0.000000,0.000000,0.000000,0.188956,0.296891,0.133220,0.019031,0.000000,139.000000,125.000000,14.000000,2.000000,0.000000,0.000000,0.000000,0.000000,0.000000;
#CREDIT:;
#DISPLAYBPM:185.000000;
#NOTES:
0000
0000
0000
0000
,
0000
0000
0000
0000
,
0000
0000
0000
0000
,
0000
0000
0000
0000
,
0000
0000
0000
0000
,
0000
0000
0000
0000
,
1000
0000
0000
0001
,
0000
0000
0010
0000
,
0001
0000
0100
0000
,
2000
0000
3000
0000
,
0100
0000
0000
0000
,
0010
0000
0000
0000
,
0100
0000
0000
0000
,
0001
0000
0000
1000
,
1000
0000
0010
0000
,
1000
0000
0100
0000
,
0001
0000
0001
0000
,
0000
0000
0000
0010
,
0010
0000
0001
0000
,
0100
0000
0100
0000
,
0010
0000
1000
0000
,
0100
0000
0000
0000
,
1000
0000
0010
0000
,
1000
0000
0000
0000
,
0100
0000
0010
0000
,
0001
0000
1000
0000
,
0001
0000
0001
0000
,
1000
0000
0010
0000
,
0200
0000
0000
0000
,
0300
0000
0000
0001
,
0001
0000
0010
0000
,
0001
0000
0100
0000
,
1000
0000
0010
0000
,
1000
0000
0100
0000
,
0010
0000
0001
0000
,
1000
0000
0001
0000
,
0010
0000
0100
0000
,
1000
0000
0010
0000
,
1000
0000
0100
0000
,
1000
0000
0010
0000
,
0100
0000
0001
0000
,
0010
0000
0000
0100
,
0100
0000
0010
0000
,
0001
0000
0100
0000
,
1000
0000
1000
0000
,
0000
0000
0000
0000
,
1001
0000
0000
1001
,
0000
0000
1001
0000
,
0110
0000
0000
0110
,
0000
0000
0110
0000
,
1001
0000
0000
1001
,
0000
0000
1001
0000
,
0110
0000
0110
0000
,
0110
0000
0000
0000
,
1000
0000
0000
0010
,
0000
0000
0100
0000
,
0001
0000
0000
0010
,
0000
0000
0001
0000
,
0100
0000
0000
0010
,
0000
0000
1000
0000
,
0100
0000
1000
0000
,
0010
0000
0000
0001
,
0001
0000
1000
0000
,
0010
0000
1000
0000
,
0100
0000
0010
0000
,
0001
0000
0100
0000
,
0010
0000
1000
0000
,
0010
0000
1000
0000
,
0100
0000
0010
0000
,
0001
0000
0100
0000
,
0001
0000
0010
0000
,
1000
0000
0001
0000
,
1000
0000
0010
0000
,
1000
0000
0000
0100
,
0100
0000
0010
0000
,
0001
0000
0100
0000
,
1000
0000
1000
0000
,
0000
0000
0110
0000
,
1001
0000
0000
0000
;

//---------------dance-single - ----------------
#NOTEDATA:;
#CHARTNAME:;
#STEPSTYPE:dance-single;
#DESCRIPTION:;
#CHARTSTYLE:;
#DIFFICULTY:Challenge;
#METER:16;
#RADARVALUES:0.962450,1.002008,0.304504,0.038063,0.566187,708.000000,676.000000,32.000000,4.000000,0.000000,0.000000,0.000000,0.000000,0.000000,0.962450,1.002008,0.304504,0.038063,0.566187,708.000000,676.000000,32.000000,4.000000,0.000000,0.000000,0.000000,0.000000,0.000000;
#CREDIT:;
#DISPLAYBPM:185.000000;
#NOTES:
// measure 0
0000
0000
0000
0000
,  // measure 1
0000
0000
0000
0000
,  // measure 2
0000
0000
0000
0000
,  // measure 3
0000
0000
0000
0000
,  // measure 4
0000
0000
0000
0000
,  // measure 5
0000
0000
0000
0000
,  // measure 6
1000
0100
0001
0010
1000
0001
0010
1000
,  // measure 7
0100
0010
0100
1000
0010
0001
1000
0100
,  // measure 8
0001
0000
0010
0000
1000
0001
0100
0000
0000
0000
0010
0000
1000
0000
0100
0000
,  // measure 9
0001
0010
0100
0000
1000
0000
0001
0000
0100
0010
0100
0010
0100
0010
0100
0000
,  // measure 10
0001
0000
1000
0000
0001
0010
0001
0100
,  // measure 11
1000
0010
0001
0100
0010
1000
0001
0000
,  // measure 12
0010
0000
0100
0000
1000
0010
1000
0001
,  // measure 13
1000
0100
1000
0100
0010
0100
0010
0100
1000
0100
0010
0100
1000
0000
0000
0000
,  // measure 14
0101
0010
1000
0001
1000
0100
0010
0001
,  // measure 15
0100
0010
0100
0001
0010
1000
0100
0010
,  // measure 16
0001
0000
0100
0000
0010
1000
0001
0000
1000
0000
0100
0000
0001
0000
0010
0000
,  // measure 17
0100
0000
0010
0000
0001
1000
0010
0000
0100
0000
0001
0000
0010
0000
1000
0000
,  // measure 18
1100
0000
0010
0000
0001
0000
0100
0010
0100
0000
0001
0000
1000
0000
0100
0000
,  // measure 19
0010
0001
0100
0000
0001
0000
0010
0000
1000
0100
0010
0000
0001
0000
1000
0000
,  // measure 20
0001
0010
0100
0000
1000
0000
0001
0000
0100
0010
1000
0000
0100
0000
0001
0000
,  // measure 21
0010
0000
1000
0000
0110
0000
0001
1000
0001
0000
0100
0000
0010
0000
1000
0000
,  // measure 22
0100
0010
0001
0100
0001
1000
0010
1000
,  // measure 23
0100
1000
0001
0000
0100
0010
1000
0000
0001
0000
0010
0000
1000
0000
0001
0000
,  // measure 24
1000
0000
0100
0000
0010
0000
0001
0000
0100
0000
0010
0000
1000
0001
1000
0000
,  // measure 25
0010
0000
0100
0000
0001
0010
0001
0000
0100
0000
1000
0000
0010
1000
0010
0000
,  // measure 26
1001
0000
0100
0000
0001
0000
0010
0000
1000
0100
0010
0001
0200
0000
0000
0000
,  // measure 27
0310
0000
1000
0000
0001
0000
0010
0000
0001
0000
0100
0000
1000
0010
0100
0000
,  // measure 28
0001
0011
1000
1010
0100
0101
0010
1100
,  // measure 29
0202
0000
0000
0000
0300
0000
0000
0000
1003
0001
0010
0001
0010
0100
1000
0001
,  // measure 30
0100
0010
1000
0100
0001
0010
0001
1000
,  // measure 31
0010
0000
1000
0000
0100
0010
0001
0000
0100
0000
1000
0000
0010
0000
0001
1000
,  // measure 32
0010
0000
0100
0000
0001
0000
0010
0000
1000
0000
0100
0000
0010
0001
0100
0000
,  // measure 33
0001
0000
0010
0000
1000
0000
0100
0000
1000
0010
0100
0000
0001
1000
0010
0100
,  // measure 34
0001
0000
0010
0000
1000
0000
0001
0000
1000
0000
0010
0000
0100
0001
0010
0000
,  // measure 35
1000
0000
0100
0000
0010
0001
0100
0000
1000
0100
0010
0000
0001
1000
0001
0000
,  // measure 36
0010
0000
0100
1000
0001
0000
0100
0000
0010
0000
1000
0000
0001
0000
0010
0100
,  // measure 37
1000
0000
0001
0000
0010
0001
1000
0000
0010
0000
0200
0000
0301
0010
1000
0000
,  // measure 38
0100
0000
1000
0000
0010
0000
1000
0001
0100
0000
0010
0000
1000
0100
0010
0000
,  // measure 39
0001
0000
1000
0001
0100
0000
0010
1000
0100
0000
0010
0000
0001
0000
1000
0000
,  // measure 40
0001
0000
0010
0000
1000
0000
0100
0000
0010
0000
0100
0000
1000
0000
0010
0001
,  // measure 41
0100
0000
0001
0000
1000
0000
0010
1000
0100
0000
0010
0001
0100
0000
1000
0000
,  // measure 42
0001
0000
1000
0000
0100
0000
0001
0010
0100
0000
1000
0010
1000
0000
0100
0000
,  // measure 43
0010
0001
0100
0000
1000
0000
0010
0100
0010
0000
1000
0100
1000
0000
0001
0000
,  // measure 44
0010
0001
0010
0000
0100
1000
0001
0000
1000
0010
0100
0000
0010
1000
0010
0000
,  // measure 45
1000
0100
0010
0100
1000
0010
0100
0010
1000
0100
0010
0001
0100
0000
0000
0000
,  // measure 46
1001
0010
1000
0100
0011
0000
1100
0010
,  // measure 47
1000
0001
0101
0000
1010
0001
1000
0100
,  // measure 48
0110
0001
0100
0010
1010
0000
1001
0010
,  // measure 49
0001
0100
0101
0000
1100
0001
0010
1000
,  // measure 50
0101
0010
0100
0001
0011
0000
0110
1000
,  // measure 51
0010
0100
1001
0000
0011
0100
1000
0010
,  // measure 52
1001
0100
0010
1000
1001
0010
0100
0001
,  // measure 53
0011
0000
0010
0000
0110
0000
0100
0000
1100
0000
0010
0000
1001
0000
0100
0001
,  // measure 54
1000
0000
0010
0000
0100
0000
0001
0010
1000
0000
0100
0000
0010
0000
0001
0100
,  // measure 55
0001
0000
0010
0000
1000
0000
0100
0000
0010
0001
1000
0000
0001
0100
0010
0000
,  // measure 56
1000
0000
0100
0010
0001
0000
0100
0010
1000
0000
0001
0000
0010
0000
1000
0001
,  // measure 57
1000
0000
0010
0100
0001
0000
0010
0000
1000
0000
0100
0000
1000
0000
0001
0000
,  // measure 58
0010
0000
0100
0000
1000
0000
0010
0000
1000
0000
0001
0000
0010
0001
0100
0000
,  // measure 59
0001
0010
0100
0000
1000
0000
0010
0100
0010
0000
1000
0001
1000
0000
0100
0000
,  // measure 60
0010
0000
0001
0000
1000
0000
0010
0100
0001
0000
0010
0000
0100
0000
1000
0001
,  // measure 61
1000
0000
0010
0100
0001
0000
0010
0100
1000
0010
1000
0001
0100
0000
0000
0000
,  // measure 62
0110
0000
1000
0000
0010
0000
0001
0000
0100
0000
0001
0000
0010
0100
1000
0000
,  // measure 63
0001
0000
1000
0001
0100
0000
0010
0000
1000
0000
0100
0010
0001
0000
1000
0000
,  // measure 64
0010
0000
0100
0001
0010
0000
0100
0000
1000
0000
0001
0000
1000
0000
0010
1000
,  // measure 65
0100
0000
0010
0000
0001
0000
0100
0000
1000
0001
0010
0000
0100
1000
0010
0000
,  // measure 66
0100
0000
0001
0000
0010
0000
1000
0000
0001
0000
1000
0100
1000
0000
0010
0100
,  // measure 67
0001
0000
0010
0100
1000
0000
0001
0000
1000
0010
1000
0000
0001
0010
0100
1000
,  // measure 68
0001
0000
0100
0010
1000
0000
0001
0000
0010
0001
0100
0000
1000
0000
0001
0100
,  // measure 69
0001
0000
0010
0000
1000
0000
0100
0000
1000
0000
0001
0000
0100
0010
1000
0000
,  // measure 70
0001
0000
0010
0000
0001
0100
1000
0000
0010
0000
0100
0000
0001
1000
0100
0000
,  // measure 71
0010
0000
0001
0000
1000
0000
0010
0000
0100
0000
0010
0000
1000
0001
0100
0000
,  // measure 72
0001
0000
0010
0001
0100
0000
0001
1000
0010
0000
0100
0000
0001
0000
1000
0100
,  // measure 73
0010
0000
0001
0000
0100
0010
1000
0000
0001
0000
0010
0000
1000
0001
0100
0000
,  // measure 74
0010
0000
1000
0000
0001
0000
0010
0100
1000
0000
0001
1000
0001
0000
0100
0000
,  // measure 75
1000
0000
0010
0000
0100
0000
0001
0000
1000
0100
0010
0000
0001
0000
1000
0000
,  // measure 76
0001
0000
1000
0100
0010
0000
0001
0000
0100
0000
0001
1000
0100
0000
0010
0001
,  // measure 77
0100
0000
0001
0000
0010
0000
1000
0100
0010
0000
0001
1000
0010
0000
0000
0000
,  // measure 78
1001
0000
0000
0000
;
