#TITLE:STRAwBeRRY;
#SUBTITLE:-DDR NovaMAX EDIT-;
#ARTIST:spacelectro;
#TITLETRANSLIT:;
#SUBTITLETRANSLIT:;
#ARTISTTRANSLIT:;
#GENRE:;
#CREDIT:;
#BANNER:STRaWBeRRY -DDR NovaMAX EDIT--bn.png;
#BACKGROUND:STRaWBeRRY -DDR NovaMAX EDIT--bg.png;
#LYRICSPATH:;
#CDTITLE:;
#MUSIC:STRaWBeRRY -DDR NovaMAX EDIT-.ogg;
#OFFSET:0.075000;
#SAMPLESTART:54.542000;
#SAMPLELENGTH:20.000000;
#SELECTABLE:YES;
#DISPLAYBPM:145.000000;
#BPMS:0.000000=145.009995
;
#STOPS:
;
#BGCHANGES:;
#KEYSOUNDS:;
#ATTACKS:;

//---------------dance-single - ----------------
#NOTES:
     dance-single:
     :
     Hard:
     13:
     0.586364,0.654723,0.273068,0.375468,0.401068,481.000000,449.000000,32.000000,44.000000,0.000000,0.000000,0.586364,0.654723,0.273068,0.375468,0.401068,481.000000,449.000000,32.000000,44.000000,0.000000,0.000000:
0000
0000
0000
0000
,
0000
0000
0000
0000
,
0000
0000
0000
0000
,
0000
0000
0000
0000
,
0000
0000
0000
0000
,
0000
0000
0000
0000
,
0202
0000
0000
0303
,
0000
1000
0000
0001
0000
0010
0000
0100
,
0000
1000
0000
0010
0000
0100
0000
0001
,
0000
0000
1000
0000
0000
0000
0001
0010
0001
0000
0100
0000
0010
0000
1000
0000
,
2200
0000
0000
0000
3300
0000
0001
1000
0001
0000
0100
0000
0000
0000
0010
1000
,
0010
0000
0100
0001
0000
1000
0000
0200
0010
0000
0010
0000
0300
0000
0110
0000
,
0000
0001
0010
0100
2000
0001
3000
1010
,
0000
0000
0001
0000
0100
0010
0100
0010
0100
0000
0010
0000
1000
0000
0001
0000
,
0010
0000
0000
0000
0022
0000
0033
0001
1000
0000
0010
0000
0000
0000
1000
0100
,
1000
0000
0001
0010
0000
0001
0000
2000
0100
0000
0100
0000
3000
0000
1001
0000
,
0010
1000
1000
0100
0010
0001
0001
1000
,
0200
0000
0000
0001
0000
0000
1300
0010
1000
0000
0100
0000
0010
0000
0001
0000
,
0100
1000
0010
0001
0010
0100
1000
0001
,
0010
1000
0100
0001
0100
0001
1000
0010
,
1000
0001
0100
0001
0010
1000
0010
0100
,
1000
0100
0010
1000
0001
0100
0010
0001
,
1000
0100
0001
0010
1000
0001
0100
0010
,
0100
1000
0010
0001
1000
0001
0100
0010
,
0100
0001
0100
1000
0010
1000
0001
0010
,
0110
1001
1100
0011
,
0202
0000
0000
0000
0303
0000
1000
0001
1000
0000
0010
0100
0000
0002
2000
0000
,
0000
0000
0000
0000
3003
0000
0010
1000
0010
0000
1000
0001
0000
0200
0020
0000
,
0000
0000
0000
0000
0330
0000
0100
0001
0100
0000
0010
1000
0000
0002
0000
2000
,
0000
0000
0000
3003
0000
0000
0000
0000
0000
0000
0000
0000
1020
0000
0000
0000
0000
0000
0000
0000
0000
0000
0000
0000
2030
0000
0000
0000
0000
0000
0000
0000
0000
0000
0000
0000
3001
0000
0000
0000
0010
0000
0000
0000
0100
0000
0000
0000
,
2000
0000
0000
0000
3000
0000
0010
0100
0010
0000
1000
0001
0000
2000
0000
0200
,
0000
0000
0000
0000
3300
0000
1000
0001
1000
0000
0010
0100
0000
0002
0000
0200
,
0000
0000
0303
0022
0000
0033
1100
0000
,
1000
0000
0100
0000
1000
0000
0001
0000
0100
0000
0001
0000
0010
0000
0000
0100
0000
0000
1000
0000
0000
0010
0000
0000
,
0100
0000
0100
0000
0001
1000
0001
1000
0000
0001
0010
0000
0010
0000
0100
0000
,
1000
0000
1000
0000
0010
0100
0010
0100
0000
0001
1000
0000
0001
0000
0000
0000
,
0010
0000
0010
0000
0001
0100
0001
0100
0000
0000
1000
0010
1000
0000
0001
0000
,
0101
0000
0000
0000
1000
0000
0010
0000
2020
0000
3030
0000
0100
0001
0100
0000
,
0010
0000
0010
0000
1000
0100
1000
0100
0000
1000
0001
0000
0001
0000
0100
0000
,
0001
0000
0001
0000
1000
0010
1000
0010
0000
0100
0010
0000
0100
0000
0000
0000
,
0100
0000
0100
0000
0001
0010
0001
0010
0000
0100
1000
0000
1000
0000
0001
0000
,
1000
0000
0000
0000
0100
0000
0000
0000
1000
0000
0000
0000
0001
0000
0000
0000
0100
0000
0000
0000
0001
0000
0000
0000
0020
0000
0000
0000
0000
0000
0000
0000
0000
0000
0000
0000
0031
0000
0000
1000
0000
0000
0010
0000
0000
0000
0000
0000
,
0110
0100
0001
1000
,
0100
0010
0002
0000
2003
0000
3100
0000
,
1001
0010
1000
0001
,
0011
0000
0000
0000
0110
0000
0000
0000
1100
0000
0000
0101
0000
0000
1000
0000
,
1001
0000
0001
0100
1000
0000
0010
0000
,
0100
0000
0002
0000
2003
0010
3100
0000
,
1010
0000
0100
0001
0000
1000
0100
0000
0010
0001
0100
0010
,
1000
0000
1001
0000
0110
0100
0001
0010
,
0100
1000
0010
0100
0001
0010
0100
1000
,
0001
1000
0010
0100
0010
1000
0001
0000
,
1000
0001
0010
0100
1000
0010
0100
0001
,
0010
0000
0000
0000
0100
0000
1000
0000
0101
0000
0000
0000
0001
1000
0001
0000
,
0010
0100
1000
0001
0100
0010
1000
0001
,
1000
0100
0010
0001
0100
0010
1000
0000
,
0100
1000
0001
1000
0010
0100
0001
0010
,
0001
0000
0100
0000
0001
0000
1000
0000
0100
0000
1000
0000
0010
0000
0000
0100
0000
0000
0001
0000
0000
0010
0000
0000
,
2100
3002
0203
0320
,
1030
0000
1000
0000
0010
0100
0010
0100
0000
0100
0001
0000
0001
0000
0010
0000
,
0100
0000
0100
0000
0010
0001
0010
0001
0000
1000
0010
0000
1000
0000
0000
0000
,
0001
0000
0001
0000
1000
0010
1000
0010
0000
0000
0100
0010
0100
0000
0001
0000
,
0010
0000
0000
0000
0001
0000
0100
0000
2020
0000
3030
0000
1000
0001
1000
0000
,
0100
0000
0100
0000
0010
0001
0010
0001
0000
0100
1000
0000
1000
0000
0001
0000
,
1000
0000
1000
0000
0001
0100
0001
0100
0000
0010
0100
0000
0010
0000
0000
0000
,
0010
0000
0010
0000
1000
0100
1000
0100
0000
0000
0001
1000
0001
0000
0100
0000
,
0110
0000
0000
0000
1000
0000
0001
0000
0022
0000
0033
0000
0010
0100
0010
0000
,
2200
0000
0000
0000
,
0000
0000
0000
0000
,
0000
0000
0000
3300
;

//---------------dance-single - ----------------
#NOTES:
     dance-single:
     :
     Medium:
     10:
     0.470554,0.535682,0.563202,0.409602,0.025600,386.000000,320.000000,66.000000,48.000000,0.000000,0.000000,0.470554,0.535682,0.563202,0.409602,0.025600,386.000000,320.000000,66.000000,48.000000,0.000000,0.000000:
0000
0000
0000
0000
,
0000
0000
0000
0000
,
0000
0000
0000
0000
,
0000
0000
0000
0000
,
0000
0000
0000
0000
,
0000
0000
0000
0000
,
0202
0000
0000
0303
,
2200
0000
0000
3300
,
0022
0000
0000
0033
,
2020
0000
3030
1000
1000
0100
0010
0001
,
2002
0000
3003
0000
0100
0100
0000
0000
,
0010
1000
0100
0010
0001
0000
0000
0110
,
0000
0001
1000
0100
0010
0000
0000
0011
,
0000
1000
0001
1000
0010
0100
0001
1000
,
0000
0000
2200
0000
3300
0000
0000
0010
,
0100
0001
1000
0001
0100
0000
0000
0001
,
0000
1000
1000
0001
1000
0100
0010
0002
,
0200
0000
0303
0010
0010
0100
0001
1000
,
0000
0001
0010
0100
0000
1000
0010
0100
,
0000
0001
1000
0001
0000
1000
0100
0010
,
0000
0100
1000
0001
0000
1000
0010
0100
,
0000
0010
1000
0001
0000
0010
0100
1000
,
0000
0001
0010
0001
0000
0100
0010
1000
,
0000
0100
1000
0001
0000
0010
0001
1000
,
0000
0001
0100
1000
0000
0010
0100
0010
,
0110
0101
1001
1010
,
2200
0000
0000
0000
3300
0000
0000
0000
1001
0000
0000
0101
0000
0000
0022
0000
,
0000
0000
0000
0000
0033
0000
0000
0000
1010
0000
0000
0110
0000
0000
2002
0000
,
0000
0000
0000
0000
3003
0000
0000
0000
1100
0000
0000
0011
0000
0000
0202
0000
,
0000
0303
0000
0000
2000
0000
0000
0000
3002
0000
0000
0000
0103
0000
0000
0000
,
0220
0000
0000
0000
0330
0000
0000
0000
1010
0000
0000
0110
0000
0000
0202
0000
,
0000
0000
0000
0000
0303
0000
0000
0000
0011
0000
0000
1100
0000
0000
2020
0000
,
0000
0000
3030
0000
0000
0000
2002
0000
0000
3003
0000
0000
1010
0000
0000
0000
,
2100
0000
3002
0000
0013
0100
1000
0001
,
0010
1000
0001
0100
1000
0001
0010
0100
,
0010
0100
1000
0001
0010
1000
0100
0001
,
0010
1000
0001
0100
1000
0010
0001
0100
,
0110
0011
0101
1001
,
1000
0010
0001
0010
0100
0001
1000
0100
,
1000
0100
0001
0010
0001
1000
0010
0100
,
0001
1000
0100
0010
0001
0010
1000
0100
,
1100
0011
0101
1010
,
1001
0100
0010
1000
,
0100
0011
1010
0001
,
0110
1000
0010
0100
,
0002
0000
0000
0000
2003
0000
0000
0000
3010
0000
0000
0100
0000
0000
0010
0000
,
1010
0101
0010
0001
,
0100
0000
0110
0000
1002
2000
3003
0000
,
0011
0100
1100
0001
,
1001
0011
1100
0110
,
0001
0100
0010
0000
1000
0100
0001
0000
,
1000
0001
0010
0000
0100
1000
0001
0000
,
0010
0001
0100
0000
0010
1000
0100
0000
,
0011
0110
1100
0101
,
0010
0100
0001
0000
0010
0100
1000
0000
,
0001
1000
0010
0000
1000
0100
0010
0000
,
0001
0100
0010
0000
0100
0001
1000
0000
,
0002
0023
0230
2300
,
3020
0230
0302
2003
,
3001
0010
1000
0100
0010
0001
1000
0100
,
0001
0010
1000
0100
0001
0010
1000
0100
,
0001
1000
0010
0100
0010
0100
0001
1000
,
1001
1100
0011
0101
,
0100
1000
0010
0001
1000
0001
0100
0010
,
0100
1000
0010
0001
1000
0010
0001
0100
,
1000
0100
0001
0010
1000
0010
0100
0001
,
0110
0000
0101
0000
1010
0000
1000
0001
,
0220
0000
0000
0000
,
0000
0000
0000
0000
,
0000
0000
0000
0330
;

//---------------dance-single - ----------------
#NOTES:
     dance-single:
     :
     Easy:
     7:
     0.282820,0.386882,0.204801,0.281601,0.000000,232.000000,208.000000,24.000000,33.000000,0.000000,0.000000,0.282820,0.386882,0.204801,0.281601,0.000000,232.000000,208.000000,24.000000,33.000000,0.000000,0.000000:
0000
0000
0000
0000
,
0000
0000
0000
0000
,
0000
0000
0000
0000
,
0000
0000
0000
0000
,
0000
0000
0000
0000
,
0000
0000
0000
0000
,
0002
0000
0000
0003
,
0200
0000
0000
0300
,
0020
0000
0000
0030
,
2000
3000
1100
0101
,
0020
0030
1001
0000
,
1000
0100
0002
0003
,
0010
0001
0200
0300
,
0001
1000
0010
0100
,
0010
0120
2000
3030
,
0001
0100
0020
0030
,
1000
0100
0010
0001
,
0200
0300
0110
1001
,
0001
0100
1000
0010
,
0001
1000
0100
0010
,
1000
0001
0100
0010
,
1000
0001
0010
0100
,
0001
0100
1000
0010
,
1000
0100
0001
0010
,
0100
0001
1000
0010
,
1000
0001
0100
0010
,
2020
0030
0001
3100
,
0202
0300
0010
1003
,
2200
3000
0001
0010
,
1300
1001
0110
1001
,
0022
0003
0100
0031
,
0220
0300
1000
0031
,
1001
0000
0000
1010
0000
0000
0011
0000
,
2000
3200
0320
0032
,
0103
0010
1000
0100
,
0001
0010
1000
0010
,
0100
1000
0010
0100
,
0001
0010
0100
1000
,
0010
0100
0010
1000
,
0100
0001
0010
1000
,
0100
0010
0100
1000
,
0001
1000
0100
0010
,
0110
0000
1000
0000
,
0001
2000
0002
3003
,
1001
0000
0100
0000
,
1000
0010
0100
0001
,
0011
0000
0100
0000
,
1000
0001
1100
0000
,
0001
0010
1000
0001
,
1000
0010
0100
0001
,
0010
0010
0001
0001
,
0100
0100
1000
1000
,
0010
0010
1000
1000
,
0100
0100
0001
0001
,
1000
0001
1000
0001
,
0010
0100
0010
0100
,
1000
0010
0100
0001
,
0220
0000
0000
0330
,
2002
0000
0000
3003
,
0010
0001
1000
0010
,
0100
0010
1000
0100
,
0010
0001
0100
1000
,
0010
1000
0100
0010
,
0001
0100
0010
0100
,
0010
1000
0100
0001
,
1000
0001
0010
1000
,
0100
0010
0001
0100
,
2020
0000
0000
0000
,
0000
0000
0000
0000
,
0000
0000
0000
3030
;

//---------------dance-single - ----------------
#NOTES:
     dance-single:
     :
     Beginner:
     3:
     0.129220,0.171521,0.128001,0.000000,0.000000,106.000000,91.000000,15.000000,0.000000,0.000000,0.000000,0.129220,0.171521,0.128001,0.000000,0.000000,106.000000,91.000000,15.000000,0.000000,0.000000,0.000000:
// measure 0
0000
0000
0000
0000
,  // measure 1
0000
0000
0000
0000
,  // measure 2
0000
0000
0000
0000
,  // measure 3
0000
0000
0000
0000
,  // measure 4
0000
0000
0000
0000
,  // measure 5
0000
0000
0000
0000
,  // measure 6
0001
0000
0000
0000
,  // measure 7
0100
0000
0000
0000
,  // measure 8
0010
0000
0000
0000
,  // measure 9
1000
0000
0000
0000
,  // measure 10
1001
0000
0000
0000
,  // measure 11
0010
0000
0000
0000
,  // measure 12
0100
0000
0000
0000
,  // measure 13
0001
0000
0000
0000
,  // measure 14
0110
0000
0000
0000
,  // measure 15
1000
0000
0000
0000
,  // measure 16
0010
0000
0000
0000
,  // measure 17
0100
0000
0000
0000
,  // measure 18
0000
0001
0000
0001
,  // measure 19
0000
1000
0000
1000
,  // measure 20
0000
0010
0000
0010
,  // measure 21
0000
0100
0000
0100
,  // measure 22
0000
0001
0000
0010
,  // measure 23
0000
0100
0000
1000
,  // measure 24
0000
0010
0000
0100
,  // measure 25
0000
0000
0000
0000
,  // measure 26
1001
0000
0000
0000
,  // measure 27
0110
0000
0000
0000
,  // measure 28
1001
0000
0000
0000
,  // measure 29
0000
0010
0010
0000
,  // measure 30
0110
0000
0000
0000
,  // measure 31
1001
0000
0000
0000
,  // measure 32
0001
0000
1000
0000
,  // measure 33
0110
0000
0000
0000
,  // measure 34
0010
0000
0010
0000
,  // measure 35
0100
0000
0100
0000
,  // measure 36
0001
0000
0001
0000
,  // measure 37
1000
0000
1000
0000
,  // measure 38
0100
0000
0010
0000
,  // measure 39
0100
0000
0010
0000
,  // measure 40
0001
0000
1000
0000
,  // measure 41
0001
0000
1000
0000
,  // measure 42
1001
0000
0000
0000
,  // measure 43
0000
0010
0010
0000
,  // measure 44
0110
0000
0000
0000
,  // measure 45
0100
0000
0001
0000
,  // measure 46
1001
0000
0000
0000
,  // measure 47
0000
1000
1000
0000
,  // measure 48
0110
0000
0000
0000
,  // measure 49
0001
0000
1000
0000
,  // measure 50
0010
0000
0000
0000
,  // measure 51
1000
0000
0000
0000
,  // measure 52
0001
0000
0000
0000
,  // measure 53
0100
0000
0010
0000
,  // measure 54
0100
0000
0000
0000
,  // measure 55
0001
0000
0000
0000
,  // measure 56
1000
0000
0000
0000
,  // measure 57
1001
0000
0000
0000
,  // measure 58
0110
0000
0000
0000
,  // measure 59
0001
0000
0001
0000
,  // measure 60
0010
0000
0010
0000
,  // measure 61
0100
0000
0100
0000
,  // measure 62
1000
0000
1000
0000
,  // measure 63
0010
0000
0010
0000
,  // measure 64
0100
0000
0100
0000
,  // measure 65
0001
0000
0001
0000
,  // measure 66
1000
0000
1000
0000
,  // measure 67
1001
0000
0000
0000
;
