#TITLE:STEP MACHINE;
#SUBTITLE:;
#ARTIST:Paisley Parks;
#TITLETRANSLIT:;
#SUBTITLETRANSLIT:;
#ARTISTTRANSLIT:;
#GENRE:;
#CREDIT:;
#BANNER:STEP MACHINE-bn.png;
#BACKGROUND:STEP MACHINE-bg.png;
#LYRICSPATH:;
#CDTITLE:;
#MUSIC:STEP MACHINE.ogg;
#OFFSET:0.000000;
#SAMPLESTART:79.500000;
#SAMPLELENGTH:20.000000;
#SELECTABLE:YES;
#BPMS:0.000000=160.000000
;
#STOPS:
;
#BGCHANGES:;
#KEYSOUNDS:;
#ATTACKS:;

//---------------dance-single - ----------------
#NOTES:
     dance-single:
     :
     Beginner:
     3:
     0.174804,0.290506,0.109705,0.101266,0.000000,145.000000,132.000000,13.000000,12.000000,0.000000,0.000000,0.174804,0.290506,0.109705,0.101266,0.000000,145.000000,132.000000,13.000000,12.000000,0.000000,0.000000:
0000
0000
0000
0000
,
0000
0000
0000
0000
,
0000
0000
0000
0000
,
0000
0000
0000
0000
,
0000
0000
0000
0000
,
1000
0000
1000
0000
,
0001
0000
0001
0000
,
0010
0000
0010
0000
,
0100
0000
0100
0000
,
1000
1000
1000
0000
,
0001
0001
0001
0000
,
0100
0000
0100
0000
,
0010
0000
0010
0000
,
1000
1000
1000
0000
,
0001
0001
0001
0000
,
2000
0000
3000
0000
,
0002
0000
0003
0000
,
0001
0000
0010
0000
,
0100
0000
1000
0000
,
1000
0000
0010
0000
,
0100
0000
0001
0000
,
0010
0000
0100
0000
,
0010
0000
0100
0000
,
0010
0000
0100
0000
,
0200
0000
0300
0000
,
1001
0000
1001
0000
,
1001
0000
0000
0000
,
0001
0000
1000
0000
,
0001
0000
1000
0000
,
1001
0000
1001
0000
,
1001
0000
0000
0000
,
0010
0000
0100
0000
,
0010
0000
0100
0000
,
0002
0000
0000
0000
,
0000
0000
0003
0000
,
2000
0000
0000
0000
,
0000
0000
3000
0000
,
0100
0000
0100
0000
,
0010
0000
0010
0000
,
0001
0000
1000
0000
,
0001
0000
1000
0000
,
0010
0000
0010
0000
,
0100
0000
0100
0000
,
1000
0000
0001
0000
,
0020
0000
0030
0000
,
0200
0000
0000
0000
,
0000
0000
0300
0000
,
0020
0000
0000
0000
,
0000
0000
0030
0000
,
2000
0000
3000
0000
,
0002
0000
0003
0000
,
0002
0000
0003
0000
,
2000
0000
3000
0000
,
0010
0000
0010
0000
,
0100
0000
0100
0000
,
0001
0000
0001
0000
,
1000
0000
1000
0000
,
0010
0010
0010
0000
,
0100
0100
0100
0000
,
0001
0000
1000
0000
,
0001
0000
1001
0000
,
0010
0000
1001
0000
,
0010
0000
1001
0000
,
0100
0000
1001
0000
,
1001
0000
1001
0000
,
0001
0000
0010
0000
,
0100
0000
1000
0000
,
0010
0000
0100
0000
,
0001
0000
1000
0000
,
0010
0010
0010
0000
,
0100
0100
0100
0000
,
0001
0000
0010
0000
,
1000
0000
0010
0000
,
0100
0100
0100
0000
,
0010
0010
0010
0000
,
0001
0000
0100
0000
,
1000
0000
1001
0000
;

//---------------dance-single - ----------------
#NOTES:
     dance-single:
     :
     Easy:
     7:
     0.300181,0.451899,0.295359,0.253165,0.000000,249.000000,214.000000,35.000000,30.000000,0.000000,0.000000,0.300181,0.451899,0.295359,0.253165,0.000000,249.000000,214.000000,35.000000,30.000000,0.000000,0.000000:
0000
0000
0000
0000
,
0000
0000
0000
0000
,
0000
0000
0000
0000
,
0000
0000
0000
0000
,
0000
0000
0000
0000
,
0100
0100
0110
0000
,
0001
0001
1001
0000
,
0001
0010
0100
1000
,
0010
0010
1001
0000
,
0001
0100
0010
0000
,
1000
0100
0010
0000
,
0001
1000
1000
0001
,
0100
0100
1001
0000
,
0001
0100
0001
0000
1001
0000
0000
0000
,
1000
0100
1000
0000
1001
0000
0000
0000
,
0010
0100
0010
0100
,
0001
1000
1001
0000
,
1000
0100
1000
0100
,
0010
0001
0010
0001
,
0100
0001
0100
0001
,
0010
0100
0010
0010
,
0001
1000
0100
0100
,
1000
0001
0100
0100
,
0010
1000
0001
0001
,
0020
0000
0130
0000
,
0110
0000
1001
0000
,
0001
0010
0100
0110
,
1001
0000
0110
0000
,
1000
0010
0100
0110
,
0001
1001
1000
0110
,
0001
0110
1000
1001
,
0001
0001
1000
1000
,
0010
0100
0010
0000
0220
0000
0330
0000
,
0002
0000
0000
0000
,
0000
0000
0000
0003
,
2000
0000
0000
3000
,
0200
0000
0000
0000
0000
0000
0310
0010
,
0100
0010
1001
0000
,
1001
0000
0110
0000
,
1000
0100
1000
0100
,
0010
0001
0010
0001
,
1000
0001
1001
0000
,
0110
0000
1001
0000
,
0001
0010
0100
1000
,
0200
0000
0320
0000
,
0230
0000
0000
0000
,
0000
0000
0000
0000
,
0320
0000
0000
0000
,
0000
0000
0000
0000
0030
0000
0001
0001
,
0002
0000
2003
0000
,
3020
0000
0230
0000
,
0302
0000
2003
0000
,
3200
0000
0000
0000
0320
0000
0031
0001
,
0100
0100
1001
0000
,
0001
1000
1001
0000
,
0001
0100
0010
1000
,
0100
0010
0110
0000
,
0100
1000
1001
0000
,
0100
0001
1001
0000
,
1000
0010
0100
0001
,
0010
0100
0110
0000
,
2000
3000
1010
0000
,
0002
0003
0011
0000
,
0200
0300
0110
0000
,
1100
0000
0101
0000
,
0002
0003
2000
3000
,
0002
0003
2000
3000
,
0020
0030
0200
0300
,
0020
0030
0200
0300
,
0001
0010
0001
0010
,
0100
1000
0100
1000
,
0010
1000
0010
1000
,
0100
0010
0100
0100
,
1000
0001
0010
0010
,
0001
1000
0010
0010
,
0100
0001
1000
0001
,
0200
0000
0310
0000
;

//---------------dance-single - ----------------
#NOTES:
     dance-single:
     :
     Medium:
     11:
     0.490657,0.518565,0.236287,0.244726,0.303797,407.000000,379.000000,28.000000,29.000000,0.000000,0.000000,0.490657,0.518565,0.236287,0.244726,0.303797,407.000000,379.000000,28.000000,29.000000,0.000000,0.000000:
0000
0000
0000
0000
,
0000
0000
0000
0000
,
0000
0000
0000
0000
,
0000
0000
0000
0000
,
0000
0000
0000
0000
,
0001
0010
0001
0000
1100
0000
0000
0000
,
1000
0010
1000
0000
0101
0000
0000
0000
,
0010
0100
0001
0000
0010
0100
1000
0000
,
0011
0101
1001
0000
,
1000
0100
0001
0100
1000
0000
0000
0001
,
0010
1000
0010
0001
0100
0000
0010
0000
,
1000
0010
0100
0100
0001
0010
0100
0100
,
1000
0001
0110
0000
,
0010
1000
0001
0100
0010
0000
0000
0010
,
1000
0100
0010
0001
0100
0000
0000
0000
,
0001
0010
1000
0010
0001
1000
0010
0001
,
0010
0100
0010
0100
1001
0000
0000
0000
,
1000
0000
1000
0000
0000
0010
0000
0000
0100
0000
0100
0000
0000
0001
0000
0000
,
0010
0000
0010
0000
0000
0100
0000
0000
0010
0000
0001
0000
0100
0000
0010
0000
,
0100
0000
0100
0000
0000
0010
0000
0000
1000
0000
1000
0000
0000
0001
0000
0000
,
0010
0000
0010
0000
0000
0100
0000
0100
0020
0000
0000
0000
0230
0000
0000
0000
,
1300
0000
1000
0000
0000
0100
0000
0000
0010
0000
0010
0000
0000
0001
0000
0000
,
0100
0000
0100
0000
0000
0010
0000
0000
0100
0000
0001
0000
0010
0000
0100
0000
,
0010
0000
0010
0000
0000
0100
0000
0000
1000
0000
1000
0000
0000
0001
0000
0000
,
0200
0000
0000
0000
0000
0000
0000
0000
0000
0000
0000
0000
0000
0000
0000
0000
0000
0000
0000
0000
0000
0000
0000
0000
0310
0000
0000
0000
0000
0000
0000
0000
0100
0000
0000
0000
0000
0000
0000
0010
0000
0000
0000
0000
0000
0000
0000
0000
,
1000
0100
0010
0000
0001
0010
1000
0000
,
0010
0001
0100
0010
1000
0100
0100
0000
,
0010
0001
0100
0000
0001
0100
1000
0000
,
0100
0010
1000
0001
0100
0010
0010
0000
,
1000
0100
0001
0000
0010
0001
0100
0000
,
0001
0100
0010
0000
0100
0010
1000
0000
,
0010
1000
0001
0100
0001
0010
1000
0010
,
0100
0100
0010
0010
0200
0000
0300
0000
,
0002
0100
0000
0010
,
0000
0100
0000
0013
,
2000
0010
0000
3100
,
1000
0000
0000
0001
0000
0000
0100
0000
0000
0010
0000
0000
0110
0000
0110
0000
,
0001
0000
1001
0000
0100
0010
0000
0010
,
0100
0000
0000
0000
0100
0000
0000
0000
0100
0000
0000
0000
0010
0000
0000
0100
0000
0000
0000
0000
0000
0001
0000
0000
,
0010
0000
0001
0000
0000
0010
0000
0000
0100
0000
1000
0000
0000
0100
0000
0000
,
0010
0000
0000
0000
0010
0000
0000
0000
0010
0000
0000
0000
0100
0000
0000
0010
0000
0000
0100
0000
0000
0010
0000
0000
,
0001
0000
1001
0000
0100
0010
0000
0010
,
1000
0000
0000
0000
1000
0000
0000
0000
1000
0000
0000
0000
0001
0000
0000
0010
0000
0000
0000
0000
0000
0100
0000
0000
,
1000
0000
0001
0000
0000
0010
0000
0000
0100
0000
0010
0000
0000
0100
0000
0000
,
2002
0000
3003
0000
1000
1000
1000
1000
,
0002
0000
0000
0000
,
0000
0000
0000
0000
,
2003
0000
0000
0000
,
0000
0000
0000
0000
3000
0000
0010
0010
,
0220
0330
0202
0303
,
2200
3300
0022
0033
,
0220
0330
2200
3300
,
0022
0000
0033
0000
2001
0000
3001
0001
,
0100
0010
0100
0000
0110
0000
0000
1000
,
0100
0010
0100
0000
0110
0000
0000
0000
,
0010
0001
0100
1000
0010
0001
0100
1000
,
0001
0000
1000
0000
0110
0000
0010
0010
,
0100
0001
0010
0100
0010
0000
0000
0010
,
0001
0100
1000
0100
0001
0010
0010
0000
,
0001
0010
1000
0010
0001
0100
1000
0100
,
0001
1000
0110
0000
,
0001
0000
0010
0000
0001
0000
0100
0000
0100
0000
0100
0000
,
0010
0000
1000
0000
0010
0000
0100
0000
0100
0000
0100
0000
,
0001
0000
0100
0000
0010
0000
1000
0000
1000
0000
1000
0000
,
0001
0000
0001
0000
0001
0000
0010
0000
0010
0000
0010
0000
,
0100
0000
1000
0000
0001
0000
0100
0000
0100
0000
0100
0000
,
0010
0000
1000
0000
0001
0000
0100
0000
0100
0000
0100
0000
,
0001
0000
0010
0000
0100
0000
1000
0000
1000
0000
1000
0000
,
0001
0000
0001
0000
0001
0000
1001
0000
1001
0000
1001
0000
,
0001
0000
0001
0000
0000
0100
0000
0000
0010
0000
0010
0000
0000
1000
0000
0000
,
0100
0000
0100
0000
0000
0010
0000
0000
0100
0000
1000
0000
0010
0000
0100
0000
,
0010
0000
0010
0000
0000
0100
0000
0000
0001
0000
0001
0000
0000
1000
0000
0000
,
0100
0000
0100
0000
0000
0010
0000
0010
0200
0000
0000
0000
0320
0000
0000
0000
,
0031
0000
0001
0000
0000
0010
0000
0000
0100
0000
0100
0000
0000
1000
0000
0000
,
0010
0000
0010
0000
0000
0100
0000
0000
0010
0000
1000
0000
0100
0000
0010
0000
,
0100
0000
0100
0000
0000
0010
0000
0000
0001
0000
1000
0000
0000
0010
0000
0000
,
0220
0000
0000
0000
0000
0000
0000
0000
0000
0000
0000
0000
0330
0000
0000
0000
0000
0000
0000
0000
0000
0000
0000
0000
0100
0000
0000
0000
0000
0000
0000
0000
0100
0000
0000
0000
0000
0000
0000
0100
0000
0000
0000
0000
0000
0000
0000
0000
;

//---------------dance-single - ----------------
#NOTES:
     dance-single:
     :
     Hard:
     14:
     0.642556,0.810259,0.388186,0.126582,0.641350,533.000000,487.000000,46.000000,15.000000,0.000000,0.000000,0.642556,0.810259,0.388186,0.126582,0.641350,533.000000,487.000000,46.000000,15.000000,0.000000,0.000000:
0000
0000
0000
0000
,
0000
0000
0000
0000
,
0000
0000
0000
0000
,
0000
0000
0000
0000
,
0000
0000
0000
0000
,
1000
0010
0100
0001
0010
0000
0110
0000
,
0001
0100
0010
1000
0100
0000
0110
0000
,
0001
1000
0010
0100
0001
0010
1000
0010
,
0001
0001
1000
1000
0110
0000
0000
0000
,
1000
0000
0000
0000
2000
0000
0000
0000
3010
0000
0000
0100
0000
0100
0000
0000
,
0101
0000
0011
0000
0001
0010
1000
0010
,
0001
0000
0000
1000
0000
1000
0000
0000
0100
0000
0010
0001
0000
0000
0001
0000
,
2000
0000
0000
0000
3010
0000
0000
0000
0010
0000
0000
0100
0000
0100
0010
0000
,
1000
0000
0000
0000
0000
0000
0000
0000
0010
0000
0000
0000
0000
0000
0000
0000
0100
0000
0000
0000
0000
0000
0000
0000
0010
0000
0000
0000
0000
0000
0000
0000
0000
1000
0000
0000
0000
0000
0000
1000
0000
0000
0000
0000
0000
0000
0000
0000
,
0001
0010
0000
0011
0000
0000
0000
0000
0100
1000
0000
1100
0000
0000
0000
0000
,
2000
0000
3002
0000
,
0203
0000
0000
0300
0000
0000
1001
0000
1000
0100
0010
0001
,
1000
0000
0001
0000
0000
0110
0000
0000
1000
0000
0100
0000
0000
0011
0000
0000
,
0001
0000
0100
0000
0000
0110
0000
0000
1000
0000
0100
0000
0010
0001
0010
0000
,
0100
0000
1000
0000
0000
0011
0000
0000
1000
0000
0010
0100
0000
0001
0010
0000
,
0100
0000
1000
0000
0000
0011
0000
1000
0100
0010
0001
0000
0100
0010
1000
0000
,
0010
0000
0001
0000
0000
0110
0000
0000
0100
0000
0001
0000
0000
0001
0010
0000
,
1000
0000
0010
0000
0000
0110
0000
0000
0001
0000
0100
0000
0010
1000
0010
0000
,
0100
0000
0001
0000
0000
1001
0000
0000
1000
0000
0001
0000
0000
1000
0100
0000
,
0022
0000
0000
0000
0000
0000
0000
0000
0000
0000
0000
0000
0033
0000
0000
0000
0000
0000
0000
0000
0000
0000
0000
0000
1010
0000
0000
0000
0000
0000
0000
0000
0011
0000
0000
0000
0000
0000
0000
0101
0000
0000
0000
0000
0000
0000
0000
0000
,
1000
0000
0010
0000
0001
0000
0000
0000
0001
0000
0010
0000
1000
0000
0000
1000
,
0100
0001
1000
0010
0001
0100
0010
0000
,
1000
0000
0010
0000
0001
0000
0000
1000
0100
0000
0001
0000
0010
0000
0000
0000
,
0001
0100
0010
1000
0001
0001
0001
0000
,
0001
0000
0100
0000
0010
0000
0000
0100
0010
0000
1000
0000
0100
0000
0000
0000
,
1000
0000
0100
0000
0010
0000
0000
0010
0001
0000
0100
0000
0010
0000
0000
0000
,
1000
0000
0010
0100
0010
0000
0001
0000
1000
0000
0100
0000
0001
0000
0010
0000
,
1000
0010
0001
1000
0100
0000
0000
0000
,
2000
0100
0000
0100
,
0000
0100
0000
3100
,
0002
0100
0000
0103
,
0001
0100
0000
0010
1000
0000
0100
0010
0000
0001
1000
0000
0010
0000
1000
0000
,
0001
0000
0000
0000
1000
0000
0000
0000
0010
0000
1000
0100
0000
0000
0010
0000
,
0001
0000
0000
0000
0000
0000
0000
0000
0010
0000
0000
0000
0000
0000
0000
0000
1000
0000
0000
0000
0000
0000
0000
0000
0010
0000
0000
0000
0000
0000
0001
0000
0000
1000
0000
0000
0000
0000
0000
0000
0000
0000
0001
0000
0000
0100
0000
0000
,
0001
0000
1000
0010
0000
0101
0000
0000
0001
0000
0100
0000
0000
1010
0000
0000
,
0001
0000
0000
0000
0000
0000
0000
0000
0010
0000
0000
0000
0000
0000
0000
0000
1000
0000
0000
0000
0000
0000
0000
0000
0010
0000
0000
0000
0000
0000
0001
0000
0000
1000
0000
0000
0000
0000
0000
1000
0000
0000
0001
0000
0000
0000
0000
0000
,
0100
0000
0110
0000
0100
0010
0000
1000
,
0010
0000
0000
0000
0000
0000
0000
0000
0001
0000
0000
0000
0000
0000
0000
0000
0010
0000
0000
0000
0000
0000
0000
0000
1000
0000
0000
0000
0000
0000
0100
0000
0000
0010
0000
0000
0000
0000
0000
0000
0000
0000
0001
0000
0000
0100
0000
0000
,
0010
0000
1000
0000
0000
0110
0000
0000
1000
0000
0100
0000
0000
0011
0000
0000
,
2002
0000
0000
0000
3003
0000
0000
0000
0001
1000
0001
1000
0010
0100
0010
0100
,
0002
0000
0000
0000
,
0000
0000
0000
0000
,
0023
0000
0000
0100
0100
0000
0100
0000
,
0000
0000
1000
0000
0031
0000
1000
1000
,
0100
0000
0000
0001
0000
0000
1000
0000
0001
0000
0000
0100
0000
0000
1000
0000
,
0100
0000
0000
0010
0000
0000
1000
0000
0001
0000
0000
0010
0000
0000
0100
0000
,
0100
0000
0000
1000
0000
0000
0001
0000
0010
0000
0000
1000
0000
0000
0001
0000
,
0010
0000
0000
0100
0000
0000
0001
0000
1000
0000
0000
1000
0100
0000
0100
0000
,
0010
0001
0010
0000
1100
0000
0000
1000
,
0100
0010
0001
1000
1001
0000
0000
1000
,
0100
0001
0001
0010
1000
1000
0100
0001
,
0101
0000
1010
0000
0110
0000
0001
0001
,
0100
0010
1000
0001
1001
0000
0000
0001
,
0010
1000
0010
0001
1000
1000
1100
0000
,
0001
0001
0010
1000
0010
0010
0100
1000
,
0010
0010
0100
0001
1000
0000
0110
0000
,
0001
0010
0100
0010
0001
0010
0001
0000
0001
0000
0001
0000
,
1000
0010
0100
1000
0100
0010
1000
0000
1000
0000
1000
0000
,
0001
0010
0100
0000
1000
0100
0010
0001
0100
0010
1000
0001
,
0100
0001
1000
0100
1000
0100
0010
0001
0100
0010
1000
0100
,
0010
0001
0010
1000
0010
0000
0001
0100
0010
1000
0010
0001
,
0010
1000
0100
0001
0100
0000
1000
0100
0001
0100
1000
0100
,
0010
0001
0010
1000
0010
0000
0001
0100
0001
0100
0001
0100
,
0010
1000
0010
1000
0010
1000
0001
0100
1000
0001
0010
0100
,
0001
0000
1000
0000
0000
0110
0000
0000
0001
0000
0010
0000
0000
1100
0000
0000
,
1000
0000
0010
0000
0000
0110
0000
0000
0001
0000
0010
0000
0100
1000
0100
0000
,
0010
0000
0001
0000
0000
1100
0000
0000
0001
0000
0100
0010
0000
1000
0100
0000
,
0010
0000
0001
0000
0000
1100
0000
0001
0010
0100
1000
0000
0010
0100
0001
0000
,
0100
0000
1000
0000
0000
0110
0000
0000
0010
0000
1000
0000
0000
1000
0100
0000
,
0001
0000
0100
0000
0000
0110
0000
0000
1000
0000
0010
0000
0100
0001
0100
0000
,
0010
0000
1000
0000
0000
1001
0000
0000
0001
0000
1000
0000
0000
0001
0010
0000
,
2200
0000
0000
0000
0000
0000
0000
0000
0000
0000
0000
0000
3300
0000
0000
0000
0000
0000
0000
0000
0000
0000
0000
0000
0011
0000
0000
0000
0000
0000
0000
0000
1010
0000
0000
0000
0000
0000
0000
0011
0000
0000
0000
0000
0000
0000
0000
0000
;

//---------------dance-double - ----------------
#NOTES:
     dance-double:
     :
     Easy:
     7:
     0.302592,0.387342,0.312236,0.185654,0.000000,251.000000,214.000000,37.000000,22.000000,0.000000,0.000000,0.302592,0.387342,0.312236,0.185654,0.000000,251.000000,214.000000,37.000000,22.000000,0.000000,0.000000:
00000000
00000000
00000000
00000000
,
00000000
00000000
00000000
00000000
,
00000000
00000000
00000000
00000000
,
00000000
00000000
00000000
00000000
,
00000000
00000000
00000000
00000000
,
00001000
00010000
00011000
00000000
,
00000100
00000010
00000110
00000000
,
00000001
00000100
00000010
00001000
,
00000100
00010000
00011000
00000000
,
00001000
00010000
00100000
00000000
,
10000000
01000000
00100000
00000000
,
00001000
00001000
00010000
00010000
,
00001000
00000100
00000110
00000000
,
00000001
00000010
00000001
00000000
00001001
00000000
00000000
00000000
,
00010000
00001000
00010000
00000000
00011000
00000000
00000000
00000000
,
00001000
00010000
01000000
10000000
,
00100000
01000000
01100000
00000000
,
10000000
01000000
10000000
01000000
,
00100000
00010000
00100000
00000000
,
00001000
00010000
00001000
00010000
,
00000100
00000010
00000100
00000000
,
00001000
00000001
00001000
00000001
,
00000100
00000010
00000100
00000000
,
00001000
00010000
00001000
00010000
,
02000000
00000000
03100000
00000000
,
01100000
00000000
00110000
00000000
,
00001000
00010000
00001000
00011000
,
00001100
00000000
00000110
00000000
,
00000001
00000010
00000100
00000110
,
00000011
00000000
00001100
00000000
,
00011000
00000000
00110000
00000000
,
00010000
00010000
10000000
10000000
,
00100000
00010000
00022000
00033000
,
00020000
00000000
00000000
00000000
,
00000000
00000000
00000000
00030000
,
00002000
00000000
00000000
00003000
,
00200000
00000000
00000000
00000000
00000000
00000000
01300000
01000000
,
00100000
01000000
10010000
00000000
,
00110000
00000000
00011000
00000000
,
00001000
00000100
00000001
00000100
,
00000010
00001000
00000010
00000001
,
00000010
00000100
00000110
00000000
,
00001010
00000000
00011000
00000000
,
00010000
01000000
10000000
01000000
,
00200000
00000000
02300000
00000000
,
03200000
00000000
00000000
00000000
,
00000000
00000000
00000000
00000000
,
00302000
00000000
00000000
00000000
,
00000000
00000000
00000000
00000000
00000000
00000000
00013000
00010000
,
00020000
00000000
00032000
00000000
,
00003200
00000000
00000302
00000000
,
00000023
00000000
00000230
00000000
,
00020300
00000000
00000000
00000000
00032000
00000000
00013000
00010000
,
00001000
00010000
00011000
00000000
,
01000000
00100000
01100000
00000000
,
10000000
01000000
00100000
00010000
,
00100000
00001000
00011000
00000000
,
00001000
00010000
00011000
00000000
,
00000100
00000010
00000110
00000000
,
00000001
00000100
00001000
00010000
,
00001000
00010000
00011000
00000000
,
00200000
00300000
00110000
00000000
,
02000000
03000000
11000000
00000000
,
00200000
00300000
00101000
00000000
,
00011000
00000000
00001100
00000000
,
00010000
00010000
01000000
01000000
,
00010000
00010000
00001000
00001000
,
00000100
00000100
00000001
00000001
,
00000010
00000110
00001000
00001001
,
00000001
00000010
00000001
00000010
,
00000100
00001000
00000100
00000100
,
00010000
00001000
00010000
00001000
,
00100000
01000000
00100000
00100000
,
00010000
10000000
00010000
10000000
,
00100000
01000000
00100000
00100000
,
00010000
00001000
00010000
00001000
,
00000020
00000000
00000130
00000000
;

//---------------dance-double - ----------------
#NOTES:
     dance-double:
     :
     Medium:
     12:
     0.491863,0.518565,0.244726,0.236287,0.303797,408.000000,379.000000,29.000000,28.000000,0.000000,0.000000,0.491863,0.518565,0.244726,0.236287,0.303797,408.000000,379.000000,29.000000,28.000000,0.000000,0.000000:
00000000
00000000
00000000
00000000
,
00000000
00000000
00000000
00000000
,
00000000
00000000
00000000
00000000
,
00000000
00000000
00000000
00000000
,
00000000
00000000
00000000
00000000
,
10000000
00100000
01000000
00000000
01010000
00000000
00000000
00000000
,
00100000
00001000
00010000
00000000
00011000
00000000
00000000
00000000
,
00001000
00000100
00000001
00000000
00001000
00000010
00000001
00000000
,
00000110
00001100
00011000
00000000
,
00000001
00000010
00001000
00010000
00001000
00000000
00000000
00001000
,
00010000
00100000
10000000
01000000
10000000
00000000
00100000
00000000
,
01000000
00010000
00100000
00100000
00001000
00010000
00000100
00000100
,
00001000
00000010
00000110
00000000
,
00000001
00000100
00001000
00010000
00001000
00000000
00000000
00010000
,
00001000
00010000
00100000
10000000
01000000
00000000
00000000
00000000
,
10000000
00100000
00100000
01000000
00001000
00001000
00010000
00000100
,
00000010
00000010
00000001
00001000
00001001
00000000
00000000
00000000
,
00000001
00000000
00000100
00000000
00000000
00000010
00000000
00000000
00000100
00000000
00000010
00000000
00000000
00001000
00000000
00000000
,
00000100
00000000
00010000
00000000
00000000
00001000
00000000
00000000
01000000
00000000
00010000
00000000
00100000
00000000
10000000
00000000
,
00100000
00000000
00010000
00000000
00000000
01000000
00000000
00000000
00100000
00000000
10000000
00000000
00000000
01000000
00000000
00000000
,
00100000
00000000
00001000
00000000
00000000
00010000
00000000
00001000
00020000
00000000
00000000
00000000
00032000
00000000
00000000
00000000
,
00003100
00000000
00000010
00000000
00000000
00001000
00000000
00000000
00000100
00000000
00010000
00000000
00000000
00001000
00000000
00000000
,
00000010
00000000
00000001
00000000
00000000
00000100
00000000
00000000
00001000
00000000
00010000
00000000
00001000
00000000
00000100
00000000
,
00000001
00000000
00000010
00000000
00000000
00000100
00000000
00000000
00010000
00000000
00001000
00000000
00000000
00010000
00000000
00000000
,
00002000
00000000
00000000
00000000
00000000
00000000
00000000
00000000
00000000
00000000
00000000
00000000
00000000
00000000
00000000
00000000
00000000
00000000
00000000
00000000
00000000
00000000
00000000
00000000
00013000
00000000
00000000
00000000
00000000
00000000
00000000
00000000
00001000
00000000
00000000
00000000
00000000
00000000
00000000
00011000
00000000
00000000
00000000
00000000
00000000
00000000
00000000
00000000
,
00001000
00010000
01000000
00000000
00010000
00001000
00000100
00000000
,
00000010
00001000
00000100
00000010
00000001
00000100
00000010
00000000
,
00000001
00000100
00001000
00000000
00010000
01000000
10000000
00000000
,
01000000
00100000
00010000
10000000
01000000
00100000
01000000
00000000
,
10000000
00100000
00010000
00000000
00001000
00000010
00000001
00000000
,
00000001
00000010
00001000
00000000
00010000
00100000
10000000
00000000
,
00100000
10000000
01000000
00100000
00001000
00010000
00001000
00000100
,
00000010
00000010
00000100
00000100
00000002
00000000
00000003
00000000
,
00002000
00000100
00000000
00000010
,
00000000
00000001
00000000
00003100
,
00020000
00100000
00000000
00031000
,
00001000
00000000
00000000
00100000
00000000
00000000
00010000
00000000
00000000
01000000
00000000
00000000
01100000
00000000
01100000
00000000
,
10000000
00000000
10010000
00000000
01000000
00100000
00000000
00001000
,
00010000
00000000
00000000
00000000
00001000
00000000
00000000
00000000
00010000
00000000
00000000
00000000
00001000
00000000
00000000
00010000
00000000
00000000
00000000
00000000
00000000
00000100
00000000
00000000
,
00000010
00000000
00000010
00000000
00000000
00000001
00000000
00000000
00000100
00000000
00000010
00000000
00000000
00001000
00000000
00000000
,
00000100
00000000
00000000
00000000
00010000
00000000
00000000
00000000
00001000
00000000
00000000
00000000
00010000
00000000
00000000
01000000
00000000
00000000
10000000
00000000
00000000
01000000
00000000
00000000
,
00010000
00000000
01100000
00000000
01000000
00100000
00000000
00100000
,
00001000
00000000
00000000
00000000
00010000
00000000
00000000
00000000
00001000
00000000
00000000
00000000
00010000
00000000
00000000
00000100
00000000
00000000
00000000
00000000
00000000
00000100
00000000
00000000
,
00000010
00000000
00000001
00000000
00000000
00000100
00000000
00000000
00000010
00000000
00001000
00000000
00000000
00000100
00000000
00000000
,
00020200
00000000
00030300
00000000
00001000
00001000
00001000
00001000
,
00020000
00000000
00000000
00000000
,
00000000
00000000
00000000
00000000
,
00032000
00000000
00000000
00000000
,
00000000
00000000
00000000
00000000
00000000
00000000
00013000
00001000
,
00022000
00033000
00220000
00330000
,
02020000
03030000
00220000
00330000
,
00022000
00033000
00002200
00003300
,
00002020
00000000
00003030
00000000
00002001
00000000
00003001
00000001
,
00000100
00000010
00001000
00000000
00001100
00000000
00000000
00010000
,
00001000
01000000
00100000
00000000
01100000
00000000
00000000
00000000
,
10000000
01000000
00100000
00010000
00001000
00000100
00000010
00000001
,
00001000
00000000
00000001
00000000
00000110
00000000
00000100
00000100
,
00000001
00000010
00000001
00000100
00000010
00000000
00000000
00000010
,
00000100
00001000
00010000
00100000
01000000
01000000
01000000
00000000
,
00010000
00100000
01000000
10000000
01000000
00010000
01000000
00100000
,
00010000
00100000
00011000
00000000
,
00001000
00000000
00010000
00000000
00001000
00000000
00100000
00000000
00100000
00000000
00100000
00000000
,
01000000
00000000
10000000
00000000
00010000
00000000
01000000
00000000
01000000
00000000
01000000
00000000
,
00010000
00000000
00100000
00000000
00001000
00000000
00010000
00000000
00010000
00000000
00010000
00000000
,
00000100
00000000
00000100
00000000
00000100
00000000
00000010
00000000
00000010
00000000
00000010
00000000
,
00000100
00000000
00001000
00000000
00000001
00000000
00000100
00000000
00000100
00000000
00000100
00000000
,
00000010
00000000
00001000
00000000
00000100
00000000
00010000
00000000
00010000
00000000
00010000
00000000
,
00001000
00000000
00100000
00000000
01000000
00000000
10000000
00000000
10000000
00000000
10000000
00000000
,
00010000
00000000
00010000
00000000
00010000
00000000
01100000
00000000
01100000
00000000
01100000
00000000
,
10000000
00000000
00100000
00000000
00000000
01000000
00000000
00000000
00100000
00000000
01000000
00000000
00000000
00010000
00000000
00000000
,
00100000
00000000
00001000
00000000
00000000
00010000
00000000
00000000
00000010
00000000
00001000
00000000
00000100
00000000
00000001
00000000
,
00000100
00000000
00001000
00000000
00000000
00000010
00000000
00000000
00000100
00000000
00000001
00000000
00000000
00000010
00000000
00000000
,
00000100
00000000
00010000
00000000
00000000
00001000
00000000
00010000
00002000
00000000
00000000
00000000
00023000
00000000
00000000
00000000
,
00130000
00000000
01000000
00000000
00000000
00010000
00000000
00000000
00100000
00000000
00001000
00000000
00000000
00010000
00000000
00000000
,
01000000
00000000
10000000
00000000
00000000
00100000
00000000
00000000
00010000
00000000
00001000
00000000
00010000
00000000
00100000
00000000
,
10000000
00000000
01000000
00000000
00000000
00100000
00000000
00000000
00001000
00000000
00010000
00000000
00000000
00001000
00000000
00000000
,
00020000
00000000
00000000
00000000
00000000
00000000
00000000
00000000
00000000
00000000
00000000
00000000
00000000
00000000
00000000
00000000
00000000
00000000
00000000
00000000
00000000
00000000
00000000
00000000
00031000
00000000
00000000
00000000
00000000
00000000
00000000
00000000
00010000
00000000
00000000
00000000
00000000
00000000
00000000
00011000
00000000
00000000
00000000
00000000
00000000
00000000
00000000
00000000
;

//---------------dance-double - ----------------
#NOTES:
     dance-double:
     :
     Hard:
     14:
     0.636528,0.713027,0.405063,0.126582,0.611814,528.000000,480.000000,48.000000,15.000000,0.000000,0.000000,0.636528,0.713027,0.405063,0.126582,0.611814,528.000000,480.000000,48.000000,15.000000,0.000000,0.000000:
00000000
00000000
00000000
00000000
,
00000000
00000000
00000000
00000000
,
00000000
00000000
00000000
00000000
,
00000000
00000000
00000000
00000000
,
00000000
00000000
00000000
00000000
,
10000000
01000000
00010000
00001000
00010000
00000000
00011000
00000000
,
00001000
00010000
01000000
10000000
00100000
00000000
01100000
00000000
,
10000000
01000000
00010000
00001000
00010000
00001000
00000100
00000001
,
00000010
00000010
00000100
00000100
00000110
00000000
00000000
00000000
,
00001100
00000000
00000000
00000000
00000020
00000000
00000000
00000000
00000130
00000000
00000000
00000100
00000000
00000100
00000000
00000000
,
00001010
00000000
00000100
00000000
00000010
00000100
00001000
00010000
,
00100000
00000000
00000000
10000000
00000000
10000000
00000000
00000000
01000000
00000000
00100000
00001000
00000000
00000000
00010000
00000000
,
00002000
00000000
00000000
00000000
00013000
00000000
00000000
00000000
00011000
00000000
00000000
00001000
00000000
00001000
00000100
00000000
,
00000010
00000000
00000000
00000000
00000000
00000000
00000000
00000000
00001000
00000000
00000000
00000000
00000000
00000000
00000000
00000000
00000001
00000000
00000000
00000000
00000000
00000000
00000000
00000000
00000100
00000000
00000000
00000000
00000000
00000000
00000000
00000000
00000000
00000010
00000000
00000000
00000000
00000000
00000000
00000010
00000000
00000000
00000000
00000000
00000000
00000000
00000000
00000000
,
00001000
00000010
00000000
00001010
00000000
00000000
00000000
00000000
00001000
00000100
00000000
00010100
00000000
00000000
00000000
00000000
,
00002000
00000000
00023000
00000000
,
00032000
00000000
00000000
00003000
00000000
00000000
00011000
00000000
00001000
01000000
00010000
00100000
,
01000000
00000000
10000000
00000000
00000000
11000000
00000000
00000000
00100000
00000000
00010000
00000000
00000000
00110000
00000000
00000000
,
01000000
00000000
00100000
00000000
00000000
01100000
00000000
00000000
10000000
00000000
01000000
00000000
00100000
00010000
00100000
00000000
,
01000000
00000000
00010000
00000000
00000000
00011000
00000000
00000000
00001000
00000000
00000100
00000010
00000000
00001000
00000001
00000000
,
00000100
00000000
00000010
00000000
00000000
00000110
00000000
00000001
00000100
00000010
00001000
00000000
00000100
00010000
00001000
00000000
,
00010000
00000000
00001000
00000000
00000000
00101000
00000000
00000000
00100000
00000000
01000000
00000000
00000000
01000000
00100000
00000000
,
00010000
00000000
01000000
00000000
00000000
01100000
00000000
00000000
10000000
00000000
00100000
00000000
00010000
00001000
00010000
00000000
,
00001000
00000000
00100000
00000000
00000000
00110000
00000000
00000000
00001000
00000000
00010000
00000000
00000000
00001000
00000100
00000000
,
00000220
00000000
00000000
00000000
00000000
00000000
00000000
00000000
00000000
00000000
00000000
00000000
00000330
00000000
00000000
00000000
00000000
00000000
00000000
00000000
00000000
00000000
00000000
00000000
00000110
00000000
00000000
00000000
00000000
00000000
00000000
00000000
00001010
00000000
00000000
00000000
00000000
00000000
00000000
00001100
00000000
00000000
00000000
00000000
00000000
00000000
00000000
00000000
,
00000100
00000000
00000010
00000000
00000001
00000000
00000000
00000000
00000100
00000000
00000010
00000000
00001000
00000000
00000000
00001000
,
00000100
00010000
00001000
00100000
10000000
00100000
00010000
00000000
,
10000000
00000000
01000000
00000000
00100000
00000000
00000000
00010000
01000000
00000000
00100000
00000000
10000000
00000000
00000000
00000000
,
10000000
01000000
00010000
00001000
00000100
00000100
00000100
00000000
,
00000010
00000000
00001000
00000000
00000100
00000000
00000000
00010000
00001000
00000000
01000000
00000000
00010000
00000000
00000000
00000000
,
10000000
00000000
01000000
00000000
00010000
00000000
00000000
00001000
00010000
00000000
00000100
00000000
00000010
00000000
00000000
00000000
,
00000001
00000000
00000010
00000100
00000010
00000000
00000001
00000000
00000100
00000000
00001000
00000000
00010000
00000000
00100000
00000000
,
00010000
00001000
00000100
00001000
02000000
00000000
03000000
00000000
,
00020000
01000000
00000000
01000000
,
00000000
01000000
00000000
01030000
,
00002000
00010000
00000000
00013000
,
00001000
00010000
00000000
00001000
00000100
00000000
00000001
00000010
00000000
00000100
00000010
00000000
00000001
00000000
00000001
00000000
,
00000100
00000000
00000000
00000000
00000110
00000000
00000000
00000000
00000100
00000000
00000010
00001000
00000000
00000000
00000100
00000000
,
00001000
00000000
00000000
00000000
00000000
00000000
00000000
00000000
00000100
00000000
00000000
00000000
00000000
00000000
00000000
00000000
00010000
00000000
00000000
00000000
00000000
00000000
00000000
00000000
00001000
00000000
00000000
00000000
00000000
00000000
00010000
00000000
00000000
00001000
00000000
00000000
00000000
00000000
00000000
00000000
00000000
00000000
00100000
00000000
00000000
00010000
00000000
00000000
,
00100000
00000000
00010000
01000000
00000000
01100000
00000000
00000000
10000000
00000000
00100000
00000000
00000000
01100000
00000000
00000000
,
10000000
00000000
00000000
00000000
00000000
00000000
00000000
00000000
00100000
00000000
00000000
00000000
00000000
00000000
00000000
00000000
00010000
00000000
00000000
00000000
00000000
00000000
00000000
00000000
00001000
00000000
00000000
00000000
00000000
00000000
00010000
00000000
00000000
00001000
00000000
00000000
00000000
00000000
00000000
00001000
00000000
00000000
00010000
00000000
00000000
00000000
00000000
00000000
,
00000100
00000000
00000110
00000000
00000010
00000001
00000000
00001000
,
00000010
00000000
00000000
00000000
00000000
00000000
00000000
00000000
00000001
00000000
00000000
00000000
00000000
00000000
00000000
00000000
00000010
00000000
00000000
00000000
00000000
00000000
00000000
00000000
00001000
00000000
00000000
00000000
00000000
00000000
00000100
00000000
00000000
00010000
00000000
00000000
00000000
00000000
00000000
00000000
00000000
00000000
00001000
00000000
00000000
00010000
00000000
00000000
,
00001000
00000000
00100000
00000000
00000000
00110000
00000000
00000000
00100000
00000000
01000000
00000000
00000000
11000000
00000000
00000000
,
20020000
00000000
00000000
00000000
30030000
00000000
00000000
00000000
00100000
01000000
00100000
01000000
00010000
00100000
00010000
00100000
,
00002000
00000000
00000000
00000000
,
00000000
00000000
00000000
00000000
,
00023000
00000000
00000000
00001000
00001000
00000000
00001000
00000000
,
00000000
00000000
00001000
00000000
00030100
00000000
00001000
00001000
,
00000100
00000000
00000000
00000010
00000000
00000000
00000001
00000000
00000100
00000000
00000000
00001000
00000000
00000000
00010000
00000000
,
01000000
00000000
00000000
10000000
00000000
00000000
00100000
00000000
01000000
00000000
00000000
00010000
00000000
00000000
00100000
00000000
,
00010000
00000000
00000000
00001000
00000000
00000000
00000100
00000000
00000010
00000000
00000000
00000001
00000000
00000000
00001000
00000000
,
00000010
00000000
00000000
00000100
00000000
00000000
00001000
00000000
00010000
00000000
00000000
00001000
00010000
00000000
00010000
00000000
,
00001000
00010000
00001000
00000000
00110000
00000000
00000000
00010000
,
01000000
00100000
10000000
00100000
01100000
00000000
00000000
10000000
,
01000000
00010000
00001000
00001000
00010000
00001000
00000100
00000100
,
00000110
00000000
00001010
00000000
00000101
00000000
00000001
00000001
,
00000100
00001000
00010000
00001000
00011000
00000000
00000000
00001000
,
00010000
01000000
10000000
01000000
00100000
00100000
00110000
00000000
,
00010000
00010000
00100000
00001000
00010000
00010000
00001000
00000100
,
00000010
00000010
00000100
00000001
00001000
00000000
00000110
00000000
,
00000010
00000100
00000010
00001000
00000100
00001000
00000100
00000000
00000100
00000000
00000100
00000000
,
00010000
00001000
00010000
00001000
00100000
00010000
01000000
00000000
01000000
00000000
01000000
00000000
,
00100000
01000000
00100000
10000000
00010000
01000000
00010000
10000000
00010000
00100000
00010000
00000000
,
00001000
00010000
00001000
00010000
00001000
00000000
00000100
00000010
00000100
00000010
00000100
00000000
,
00000001
00000100
00000010
00000100
00000001
00000000
00001000
00000100
00000010
00000100
00001000
00000000
,
00000010
00010000
00001000
00100000
00010000
00000000
01000000
00001000
00010000
00001000
00100000
00000000
,
00001000
00100000
00010000
00100000
01000000
00000000
00100000
00010000
01000000
00010000
00100000
00000000
,
01000000
00100000
01000000
00100000
01000000
00000000
10000000
00010000
10000000
00010000
10000000
00000000
,
00010000
00000000
00100000
00000000
00000000
00110000
00000000
00000000
00100000
00000000
00001000
00000000
00000000
00011000
00000000
00000000
,
00001000
00000000
00000100
00000000
00000000
00000110
00000000
00000000
00000010
00000000
00001000
00000000
00000010
00001000
00000100
00000000
,
00001000
00000000
00000100
00000000
00000000
00010100
00000000
00000000
00001000
00000000
00010000
00100000
00000000
10000000
01000000
00000000
,
00100000
00000000
01000000
00000000
00000000
01100000
00000000
01000000
00100000
00001000
00010000
00000000
00001000
00010000
00000100
00000000
,
00001000
00000000
00000010
00000000
00000000
00001010
00000000
00000000
00000010
00000000
00010000
00000000
00000000
00011000
00000000
00000000
,
00010000
00000000
01000000
00000000
00000000
01100000
00000000
00000000
00100000
00000000
00010000
00000000
00100000
00010000
01000000
00000000
,
00010000
00000000
01000000
00000000
00000000
01001000
00000000
00000000
00010000
00000000
00001000
00000010
00000000
00000001
00000100
00000000
,
00000020
00000000
00000000
00000000
00000000
00000000
00000000
00000000
00000000
00000000
00000000
00000000
00000030
00000000
00000000
00000000
00000000
00000000
00000000
00000000
00000000
00000000
00000000
00000000
00001010
00000000
00000000
00000000
00000000
00000000
00000000
00000000
00011000
00000000
00000000
00000000
00000000
00000000
00000000
00110000
00000000
00000000
00000000
00000000
00000000
00000000
00000000
00000000
;

//---------------dance-single - ----------------
#NOTES:
     dance-single:
     :
     Challenge:
     17:
     0.864376,0.875317,0.725738,0.067511,0.924051,717.000000,631.000000,86.000000,8.000000,0.000000,0.000000,0.864376,0.875317,0.725738,0.067511,0.924051,717.000000,631.000000,86.000000,8.000000,0.000000,0.000000:
// measure 0
0000
0000
0000
0000
,  // measure 1
0000
0000
0000
0000
,  // measure 2
0000
0000
0000
0000
,  // measure 3
0000
0000
0000
0000
,  // measure 4
0000
0000
0000
0000
,  // measure 5
1000
0000
0001
0000
0010
0100
1000
0000
1010
0000
0000
0000
0000
0000
0001
0000
,  // measure 6
0001
0000
0100
0000
0010
1000
0001
0000
0101
0000
0000
0000
0000
0000
0000
0000
,  // measure 7
0010
0010
0100
0100
1000
0001
1000
0001
,  // measure 8
0011
0010
0110
0100
1100
0000
0000
0000
,  // measure 9
0010
0000
0100
0000
0001
1000
0100
0000
1100
0000
0000
0001
0000
0000
0010
0000
,  // measure 10
0010
0000
1000
0000
0100
0010
0001
0000
1001
0000
0000
0100
0000
0000
0010
0000
,  // measure 11
1000
0000
1000
0000
0100
0000
0100
0000
0010
0001
0100
0000
0010
0001
0100
0000
,  // measure 12
0110
0010
1010
1000
1100
0001
0100
0000
,  // measure 13
0001
0000
1000
0000
0010
1000
0100
0000
0110
0000
0000
0010
0000
0000
0001
0000
,  // measure 14
0001
0000
1000
0000
0001
0100
0010
0000
1010
0000
0000
0001
0000
0000
1000
0000
,  // measure 15
0010
0010
0100
0100
1000
0001
1000
0001
,  // measure 16
0011
0000
0000
0000
0000
0000
0001
0000
0000
0000
0000
0000
1001
0000
0000
0000
0000
0000
1000
0000
0000
0000
0000
0000
1100
0000
0000
0000
0000
0000
1000
0000
0000
0001
0000
0000
0100
0000
0000
0000
0010
0000
0000
0000
1000
0000
0000
0000
,  // measure 17
0001
0000
1000
0010
0000
0010
0100
0000
0001
0000
0001
0000
0010
0100
1000
0000
,  // measure 18
0010
0000
1000
0001
0000
0001
0100
0000
0010
0000
0010
0000
0100
0001
1000
0000
,  // measure 19
0001
0000
1000
0100
0000
0100
0010
0000
0001
0000
0001
0000
0010
0100
1000
0000
,  // measure 20
0010
0000
0010
1000
0000
1000
0001
0000
0010
0100
0010
0001
0100
0010
1000
0001
,  // measure 21
0100
0000
0001
1000
0000
1000
0010
0000
0100
0000
0100
0000
0001
1000
0010
0000
,  // measure 22
1000
0000
0010
1000
0000
1000
0001
0000
0100
0000
0100
0000
0001
0100
0010
0000
,  // measure 23
1000
0000
0001
0100
0000
0100
0001
0000
0010
0000
0010
0000
0100
1000
0001
0100
,  // measure 24
0020
0000
0000
0000
0000
0000
0000
0000
0000
0000
0000
0000
0030
0000
0000
0000
0000
0000
0000
0000
0000
0000
0000
0000
1001
0000
0000
0000
0000
0000
0000
0000
0000
0110
0000
0000
0000
0000
0000
0000
1001
0000
0000
0000
0000
0000
0000
0000
,  // measure 25
1000
0010
1000
0010
1000
0000
0000
0100
0010
0001
0010
0001
0010
0000
0000
0001
,  // measure 26
1000
0010
1000
0010
0100
0001
0100
0001
0010
0000
0011
0000
1010
0000
0000
0000
,  // measure 27
1000
0100
1000
0100
0010
0000
0000
0001
0100
0010
0100
0010
0100
0000
0000
0000
,  // measure 28
0010
1000
0010
1000
0001
0100
0001
0100
0010
0100
0001
1000
0100
0000
0000
0000
,  // measure 29
1000
0010
0100
0010
1000
0000
0000
0100
0010
0001
1000
0001
0100
0000
0000
0000
,  // measure 30
0010
1000
0001
1000
0010
0000
0000
0100
0010
1000
0100
1000
0001
0000
0000
0000
,  // measure 31
0010
0010
0100
0100
1000
0001
1000
0001
,  // measure 32
0101
0000
0100
0000
0110
0000
0010
0000
1010
0000
1000
0001
1000
0100
0010
0001
,  // measure 33
0200
0010
0010
0010
,  // measure 34
0010
0010
0010
0310
,  // measure 35
2000
0001
0001
3001
,  // measure 36
1000
0100
0000
0100
0001
0000
1000
0010
0000
0010
0001
0000
1001
0000
0110
0000
,  // measure 37
1001
0000
0000
0000
1010
0000
0000
0000
0101
0000
0001
1000
0000
0010
0100
0000
,  // measure 38
1010
0000
0000
0000
0000
0000
0000
0000
0101
0000
0000
0000
0000
0000
0000
0000
0011
0000
0000
0000
0000
0000
0000
0000
1100
0000
0000
0000
0000
0000
1000
0000
0000
0010
0000
0000
0000
0000
0000
0100
0000
0000
0010
0000
0000
1000
0000
0000
,  // measure 39
0001
0000
0010
0100
0000
0100
1000
0000
1100
0000
0110
0000
0000
0011
0000
0000
,  // measure 40
1001
0000
0000
0000
0000
0000
0000
0000
0101
0000
0000
0000
0000
0000
0000
0000
1100
0000
0000
0000
0000
0010
0000
0000
1000
0000
0000
0001
0000
0000
0010
0000
0000
0100
0000
0000
0010
0000
0000
0001
0000
0000
1000
0000
0000
0000
0000
0000
,  // measure 41
1001
0000
0000
0000
0011
0000
0000
0000
0110
0000
0010
0001
0000
1000
0100
0000
,  // measure 42
1100
0000
0000
0000
0000
0000
0000
0000
0011
0000
0000
0000
0000
0000
0000
0000
1001
0000
0000
0000
0000
0000
0000
0000
1010
0000
0000
0000
0000
0000
1100
0000
0000
0000
0000
0000
0001
0000
0000
0000
0000
0000
1000
0000
0000
0010
0000
0000
,  // measure 43
0100
0000
0001
1000
0000
1000
0100
0000
0110
0000
1100
0000
0000
0011
0000
0000
,  // measure 44
2002
0000
0000
0000
0003
0000
0000
0000
3010
0100
0001
1000
0010
0100
0001
1000
,  // measure 45
0020
1000
0000
0001
0000
1000
0000
0001
,  // measure 46
0000
0100
0000
0001
0000
0100
0000
1030
,  // measure 47
0010
0100
0001
1000
0100
0010
0001
0000
,  // measure 48
1000
0010
1000
0001
0010
0100
1000
0001
,  // measure 49
0011
0000
0101
0000
1010
0000
1001
0000
1100
0000
0110
0000
,  // measure 50
1100
0000
1001
0000
0101
0000
0011
0000
1010
0000
0110
0000
,  // measure 51
1010
0000
0101
0000
0011
0000
1100
0000
1001
0000
0110
0000
,  // measure 52
0101
0000
0000
0000
0110
0000
0000
0000
1010
0000
0000
0000
1001
0000
0000
0000
0000
0000
0010
0000
0000
0010
0000
0000
,  // measure 53
1000
0000
0001
0000
0010
0001
0100
0000
0101
0000
0000
0000
1000
0000
0010
0000
,  // measure 54
0010
0000
0100
0000
0010
1000
0001
0000
0011
0000
0000
0000
0100
0000
0100
0000
,  // measure 55
1000
0000
1000
0000
0001
0000
0001
0000
0100
0001
0010
0000
0100
1000
0010
0000
,  // measure 56
1010
0000
1001
0000
0011
0000
0100
0100
,  // measure 57
1000
0000
0010
0000
1000
0001
0100
0000
1001
0000
0000
0000
0010
0000
0010
0000
,  // measure 58
0001
0000
0100
0000
0001
1000
0010
0000
0101
0000
0000
0000
0100
0000
0100
0000
,  // measure 59
0001
0000
0001
0000
1000
0000
1000
0000
0010
1000
0100
0000
0010
0001
0100
0000
,  // measure 60
0101
0000
0000
0100
0000
0000
0110
0000
0000
0010
0000
0000
1010
0000
0000
0000
1000
0001
1000
0000
0100
0000
0010
0000
,  // measure 61
0001
1000
0010
0100
0000
0000
0001
0010
1000
0001
0100
1000
,  // measure 62
0010
0100
0001
1000
0000
0000
0001
0100
1000
0001
0010
1000
,  // measure 63
0100
0010
0001
1000
0000
0000
0001
0010
1000
0001
0100
1000
,  // measure 64
0001
0010
1000
0001
0100
1000
0001
0010
1000
0001
0100
1000
,  // measure 65
0010
1000
0100
0010
0001
0000
1000
0010
0001
1000
0100
0001
,  // measure 66
0010
0100
1000
0001
0010
0000
1000
0100
0001
1000
0010
0001
,  // measure 67
1000
0100
0010
0100
0010
0001
0010
0001
1000
0001
1000
0100
,  // measure 68
1000
0000
0010
0000
0100
0000
0001
1000
0001
0000
0100
0000
0010
0000
1000
0000
0100
0000
0010
0001
0010
0000
0100
0000
,  // measure 69
1000
0000
0010
1000
0000
1000
0001
0000
0100
0000
0100
0000
0001
0010
0100
0000
,  // measure 70
1000
0000
0001
0010
0000
0010
0100
0000
1000
0010
1000
0000
0100
0010
0001
0000
,  // measure 71
0100
0000
0010
1000
0000
1000
0010
0000
0100
0000
0100
0000
0001
0010
0001
0000
,  // measure 72
0010
0000
0100
1000
0000
1000
0010
0000
0100
0001
0010
0001
1000
0001
0100
0000
,  // measure 73
0010
0000
0001
1000
0000
1000
0010
0000
0100
0000
0100
0000
0010
1000
0100
0000
,  // measure 74
0010
0000
0001
0010
0000
0010
0100
0000
1000
0001
1000
0000
0010
1000
0100
0000
,  // measure 75
0010
0000
0001
0100
0000
0100
0010
0000
1000
0000
1000
0000
1000
0100
0010
0000
,  // measure 76
0022
0000
0000
0000
0000
0000
0000
0000
0000
0000
0000
0000
0033
0000
0000
0000
0000
0000
0000
0000
0000
0000
0000
0000
1001
0000
0000
0000
0000
0000
0000
0000
0000
0110
0000
0000
0000
0000
0000
0000
1001
0000
0000
0000
0000
0000
0000
0000
;
