#VERSION:0.83;
#TITLE:STAY (Joey Riot remix);
#SUBTITLE:;
#ARTIST:DANNY D;
#TITLETRANSLIT:;
#SUBTITLETRANSLIT:;
#ARTISTTRANSLIT:;
#GENRE:;
#ORIGIN:;
#CREDIT:;
#BANNER:STAY (Joey Riot remix).png;
#BACKGROUND:STAY (Joey Riot remix)-bg.png;
#PREVIEWVID:;
#JACKET:STAY (Joey Riot remix)-jacket.png;
#CDIMAGE:;
#DISCIMAGE:;
#LYRICSPATH:;
#CDTITLE:;
#MUSIC:STAY (Joey Riot remix).ogg;
#OFFSET:0.000000;
#SAMPLESTART:33.551998;
#SAMPLELENGTH:20.000000;
#SELECTABLE:YES;
#BPMS:0.000=150.000;
#STOPS:;
#DELAYS:;
#WARPS:;
#TIMESIGNATURES:0.000=4=4;
#TICKCOUNTS:0.000=4;
#COMBOS:0.000=1;
#SPEEDS:0.000=1.000=0.000=0;
#SCROLLS:0.000=1.000;
#FAKES:;
#LABELS:0.000=Song Start;
#BGCHANGES:;
#KEYSOUNDS:;
#ATTACKS:
;

//---------------dance-single - ----------------
#NOTEDATA:;
#CHARTNAME:;
#STEPSTYPE:dance-single;
#DESCRIPTION:;
#CHARTSTYLE:;
#DIFFICULTY:Beginner;
#METER:1;
#RADARVALUES:0.074319,0.143064,0.000000,0.000000,0.000000,50.000000,50.000000,0.000000,0.000000,0.000000,0.000000,0.000000,0.000000,0.000000,0.074319,0.143064,0.000000,0.000000,0.000000,50.000000,50.000000,0.000000,0.000000,0.000000,0.000000,0.000000,0.000000,0.000000;
#CREDIT:;
#NOTES:
0000
0000
0000
0000
,
0000
0000
0000
0000
,
0000
0000
0000
0000
,
0000
0000
0000
0000
,
0000
0000
0000
0000
,
0000
0001
0000
0000
,
0000
0000
0000
0000
,
0000
0100
0000
0000
,
0000
0000
0000
0000
,
0010
0000
0000
0000
,
0000
0000
0000
0000
,
1000
0000
0000
0000
,
0000
0000
0000
0000
,
0000
1000
0000
0000
,
0000
0000
0000
0000
,
0000
0010
0000
0000
,
0000
0000
0000
0000
,
0100
0000
0000
0000
,
0000
0000
0000
0000
,
0001
0000
0000
0000
,
0000
0000
0000
0000
,
0010
0000
0000
0000
,
0010
0000
0000
0000
,
1000
0000
0000
0000
,
0001
0000
0000
0000
,
0100
0000
0000
0000
,
0100
0000
0000
0000
,
0001
0000
0000
0000
,
1000
0000
0000
0000
,
0001
0000
0001
0000
,
0100
0000
0100
0000
,
1000
0000
0000
0000
,
0010
0000
0000
0000
,
1000
0000
1000
0000
,
0010
0000
0010
0000
,
0001
0000
0000
0000
,
0100
0000
0000
0000
,
0100
0000
0000
0000
,
0000
0000
0000
0000
,
0001
0000
0000
0000
,
0001
0000
0000
0000
,
1000
0000
0000
0000
,
1000
0000
0000
0000
,
0100
0000
0000
0000
,
0100
0000
0000
0000
,
0010
0000
0000
0000
,
0010
0000
0000
0000
,
0001
0000
0000
0000
,
0001
0000
0001
0000
,
1000
0000
0000
0000
,
1000
0000
1000
0000
,
0100
0000
0000
0000
,
0100
0000
0100
0000
,
0100
0000
0000
0000
,
0010
0000
0010
0000
,
0010
0000
0000
0000
;

//---------------dance-single - ----------------
#NOTEDATA:;
#CHARTNAME:;
#STEPSTYPE:dance-single;
#DESCRIPTION:;
#CHARTSTYLE:;
#DIFFICULTY:Easy;
#METER:2;
#RADARVALUES:0.112965,0.143064,0.000000,0.010405,0.000000,76.000000,76.000000,0.000000,1.000000,0.000000,0.000000,0.000000,0.000000,0.000000,0.112965,0.143064,0.000000,0.010405,0.000000,76.000000,76.000000,0.000000,1.000000,0.000000,0.000000,0.000000,0.000000,0.000000;
#CREDIT:;
#NOTES:
0000
0000
0000
0000
,
0000
0000
0000
0000
,
0000
0000
0000
0000
,
0000
0000
0000
0000
,
0000
0000
0000
0000
,
0000
0001
0000
0000
,
0001
0000
0000
0000
,
0000
0100
0000
0000
,
0100
0000
0000
0000
,
0010
0000
0000
0000
,
0010
0000
0000
0000
,
1000
0000
0000
0000
,
1000
0000
0000
0000
,
0000
0010
0000
0000
,
0010
0000
0000
0000
,
0000
1000
0000
0000
,
1000
0000
0000
0000
,
0100
0000
0000
0000
,
0100
0000
0000
0000
,
0001
0000
0000
0000
,
0001
0000
0000
0000
,
0010
0000
0100
0000
,
0010
0000
0001
0000
,
1000
0000
0100
0000
,
0001
0000
0010
0000
,
0100
0000
0010
0000
,
0100
0000
1000
0000
,
0001
0000
0010
0000
,
1000
0000
0100
0000
,
0001
0001
0000
0000
,
0100
0000
0100
0000
,
1000
0000
1000
0000
,
0010
0000
0010
0000
,
1000
1000
0000
0000
,
0010
0000
0010
0000
,
0001
0000
0001
0000
,
0100
0000
0100
0000
,
0020
0000
0000
0000
,
0000
0000
0030
0010
,
0001
0000
0000
0000
,
0001
0000
0001
0000
,
1000
0000
0000
0000
,
1000
0000
1000
0000
,
0100
0000
0000
0000
,
0100
0000
0100
0000
,
0010
0000
0000
0000
,
0010
0000
0010
0000
,
0001
0000
0001
0000
,
0001
0000
0000
0000
,
1000
0000
1000
0000
,
1000
0000
0000
0000
,
0100
0000
0100
0000
,
0100
0000
0000
0000
,
0001
0000
1000
0000
,
0010
0000
0100
0000
,
0010
0000
0000
0000
;

//---------------dance-single - ----------------
#NOTEDATA:;
#CHARTNAME:;
#STEPSTYPE:dance-single;
#DESCRIPTION:;
#CHARTSTYLE:;
#DIFFICULTY:Medium;
#METER:8;
#RADARVALUES:0.273493,0.407862,0.083237,0.249711,0.000000,184.000000,176.000000,8.000000,24.000000,0.000000,0.000000,0.000000,0.000000,0.000000,0.273493,0.407862,0.083237,0.249711,0.000000,184.000000,176.000000,8.000000,24.000000,0.000000,0.000000,0.000000,0.000000,0.000000;
#CREDIT:;
#NOTES:
0000
0000
0000
0000
,
0000
0000
0000
0000
,
0000
0000
0000
0000
,
0000
0000
0000
0000
,
0000
0000
0000
0000
,
0000
0000
1000
0100
1000
0000
0001
0000
,
0100
0001
1000
0101
,
0000
0000
0001
0100
0010
0000
1000
0000
,
0010
0000
0100
0000
0001
0001
0001
0000
,
0200
0000
0000
0010
,
0001
0001
0010
0300
,
0002
0000
0000
1000
,
0100
0100
1000
0003
,
0000
0000
0001
0010
0001
0000
1000
0000
,
0010
1000
0001
1010
,
0000
0000
1000
0010
0100
0000
0001
0000
,
0100
0000
0010
0000
1000
1000
1000
0000
,
0020
0000
0000
0100
,
1000
1000
0100
0030
,
2000
0000
0000
0001
,
0010
0010
0001
3000
,
0010
1000
0001
0100
,
0002
0013
2000
3100
,
0010
0000
0010
0000
0001
0010
0001
0000
,
0000
0000
0100
0000
0000
1000
0100
0000
,
0100
0001
1000
0010
,
2000
3100
0002
0013
,
0100
0000
0100
0000
1000
0100
1000
0000
,
0000
0000
0010
0000
0000
0001
0010
0000
,
1010
0000
1000
0100
,
0010
0000
0002
0000
0000
0100
0103
0000
,
0010
1000
0001
0100
0001
0000
1000
0010
,
0000
0100
0001
0000
0000
0000
0000
0000
,
0101
0000
0001
0010
,
0100
0000
2000
0000
0000
0010
3010
0000
,
0100
0001
1000
0010
1000
0000
0001
0100
,
0000
0010
1000
0000
0000
0000
0000
0000
,
0001
0100
0010
1000
0010
0000
0100
0001
,
0000
1000
0100
0000
0000
0000
0011
0000
,
2000
0000
0000
0000
,
0100
0000
0001
3000
,
0200
0000
0000
0000
,
0001
0000
0010
0300
,
0002
0013
2000
3100
,
0020
1030
0200
0301
,
1000
0010
0100
0000
1000
0010
0100
0000
,
0001
0100
0010
0100
0001
1000
0010
0000
,
0002
0000
0000
0000
,
0010
0000
1000
0003
,
0020
0000
0000
0000
,
1000
0000
0100
0030
,
2000
3100
0002
0013
,
0200
0301
0020
1030
,
0000
0101
0000
1010
,
0001
0100
0010
1000
,
0202
0000
0000
0000
,
0303
0000
0000
0000
;

//---------------dance-single - ----------------
#NOTEDATA:;
#CHARTNAME:;
#STEPSTYPE:dance-single;
#DESCRIPTION:;
#CHARTSTYLE:;
#DIFFICULTY:Hard;
#METER:12;
#RADARVALUES:0.459290,0.600868,0.260116,0.041619,0.135260,309.000000,284.000000,25.000000,4.000000,0.000000,0.000000,0.000000,0.000000,0.000000,0.459290,0.600868,0.260116,0.041619,0.135260,309.000000,284.000000,25.000000,4.000000,0.000000,0.000000,0.000000,0.000000,0.000000;
#CREDIT:;
#NOTES:
0000
0000
0000
0000
,
0000
0000
0000
0000
,
0000
0000
0000
0000
,
0000
0000
0000
0000
,
0000
0000
0000
0000
,
0001
0000
0100
0000
0010
0100
1000
0000
,
1000
0010
1000
0001
,
1000
0000
0010
0000
0100
0010
0001
0000
,
0001
0100
0001
1000
,
1000
0100
0000
0100
0000
0010
0000
0010
,
0000
1000
0000
1000
0100
0010
0001
0000
,
0001
0010
0000
0010
0000
0100
0000
0100
,
0000
0001
0000
0001
0010
0100
1000
0000
,
1001
0000
0010
0000
0100
0000
1000
0100
,
0001
0000
1001
0000
1000
0001
1000
0000
,
1001
0000
0010
0000
0100
0000
0001
0100
,
1000
0000
1001
0000
0001
1000
0001
0000
,
0001
0010
0000
0010
0000
0100
0000
0100
,
0000
0001
0000
0001
0010
0100
1000
0000
,
1000
0100
0000
0100
0000
0010
0000
0010
,
0000
1000
0000
1000
0100
0010
0001
0000
,
1100
0100
0100
0101
,
1010
0010
0010
0011
,
1000
0000
0100
0000
0010
0000
0001
1000
,
0100
0000
1000
0100
0010
0000
1001
0000
,
0011
0010
0010
1010
,
0101
0100
0100
1100
,
0001
0000
0010
0000
0100
0000
1000
0001
,
0010
0000
0001
0010
0100
0000
1001
0000
,
0110
0000
0100
0000
0010
0100
0010
0000
,
1100
0101
0101
1100
,
1000
0100
1000
0100
0000
1000
0010
1000
,
0000
1000
0001
1000
0000
1000
0100
0000
,
0110
0000
0010
0000
0100
0010
0100
0000
,
0011
1010
1010
0011
,
0001
0010
0001
0010
0000
0001
0100
0001
,
0000
0001
1000
0001
0000
0001
0010
0000
,
2000
0100
3100
0000
0200
0010
0310
0000
,
0020
0001
0031
0000
0020
0100
0130
0000
,
0100
1000
0001
0100
,
0001
1000
0000
0100
0000
1000
0001
0000
0000
0000
1000
0000
1000
0000
0000
0000
,
0010
0100
1000
0010
,
0100
1000
0010
0000
0100
0001
0010
0000
0000
0000
0001
0000
0001
0000
0000
0000
,
0100
0010
1000
0100
,
0010
1000
0100
0000
0010
0001
0100
0000
0000
0000
1000
0000
1000
0000
0000
0000
,
0010
0100
1000
0010
,
1000
0100
0010
0001
0100
0010
1000
0000
0100
0000
1000
0000
0001
0010
0100
0000
,
1000
0000
0100
0000
0000
0000
0001
0010
0001
0000
1000
0000
0100
0000
1000
0000
,
0010
0001
0100
0000
0010
1000
0100
0000
1000
0000
0100
0000
0001
0000
0100
0000
,
0010
0000
0000
0000
0000
0000
0000
0100
1000
0000
0000
0001
0010
0000
0000
0000
,
0100
1000
0010
0000
0100
0001
0010
0000
0001
0000
0010
0000
1000
0000
0100
0000
,
0010
0000
0000
0000
0000
0000
0000
0100
1000
0000
0000
0001
0010
0000
0000
0000
,
0100
1000
0010
0000
0100
0001
0010
0000
0001
0000
0010
0000
1000
0000
0100
0000
,
0010
0010
0010
0010
,
1000
0100
0010
0001
0100
0010
1000
0000
0100
0000
1000
0000
0001
0010
0100
0000
,
1001
0000
0000
0000
;

//---------------dance-single - ----------------
#NOTEDATA:;
#CHARTNAME:;
#STEPSTYPE:dance-single;
#DESCRIPTION:;
#CHARTSTYLE:;
#DIFFICULTY:Challenge;
#METER:13;
#RADARVALUES:0.637656,0.751085,0.135260,0.145665,0.364162,429.000000,416.000000,13.000000,14.000000,0.000000,0.000000,0.000000,0.000000,0.000000,0.637656,0.751085,0.135260,0.145665,0.364162,429.000000,416.000000,13.000000,14.000000,0.000000,0.000000,0.000000,0.000000,0.000000;
#CREDIT:;
#NOTES:
// measure 0
0000
0000
0000
0000
,  // measure 1
0000
0000
0000
0000
,  // measure 2
0000
0000
0000
0000
,  // measure 3
0000
0000
0000
0000
,  // measure 4
0000
0000
0000
0000
,  // measure 5
0010
0000
0001
1000
0001
0010
0100
1000
,  // measure 6
0010
0100
0010
1000
0100
0010
0001
0000
,  // measure 7
0100
0000
1000
0010
1000
0001
0010
0100
,  // measure 8
0010
0001
0100
0001
1000
0100
0010
0000
,  // measure 9
0011
0000
0001
1000
0010
1000
0100
0010
,  // measure 10
0001
0100
0001
1000
0100
0010
0100
1000
,  // measure 11
1100
0000
0010
1000
0001
0010
0100
1000
,  // measure 12
0001
1000
0010
1000
0200
0000
0320
0000
,  // measure 13
0031
0000
0000
0010
0100
0000
1000
0000
0010
0000
1000
0000
0001
0000
0010
0000
,  // measure 14
0001
0000
1000
0000
0010
0000
1000
0000
0100
0010
0100
0000
1000
0000
0000
0000
,  // measure 15
0010
0000
0000
0100
0001
0000
1000
0000
0010
0000
0100
0000
0010
0000
1000
0000
,  // measure 16
0100
0000
0010
0000
0001
0000
0100
0000
0010
1000
0010
0000
0100
0000
0000
0000
,  // measure 17
0101
0000
0000
0001
1000
0000
0100
0000
0010
0000
0100
0000
0010
0000
0001
0000
,  // measure 18
0100
0001
1000
0010
1000
0001
0100
0010
,  // measure 19
1010
0000
0000
1000
0001
0000
0010
0000
0100
0000
1000
0000
0001
0000
0000
0000
,  // measure 20
0100
0000
0000
0100
0010
0000
0000
0010
1000
0001
1000
0000
0001
0000
0000
0000
,  // measure 21
1001
0000
0000
0010
1000
0000
0100
0000
1000
0001
1000
0000
0010
0000
0100
0000
,  // measure 22
0001
0010
0100
1000
0010
0100
0010
2000
,  // measure 23
0000
0000
0001
0000
0001
0000
3001
0000
0100
0010
0100
0000
0001
0000
1000
0000
,  // measure 24
0010
1000
0002
0000
0013
0100
1000
0000
,  // measure 25
0110
0000
0000
0100
1000
0000
0010
0000
0100
0001
0100
0000
0001
0000
0010
0000
,  // measure 26
0100
1000
0010
1000
0001
0010
0100
2000
,  // measure 27
0000
0000
0010
0000
0010
0000
3010
0000
1000
0001
1000
0000
0100
0000
0010
0000
,  // measure 28
0001
0100
0020
0000
1030
0001
0100
0000
,  // measure 29
0102
0000
0100
0000
1003
0000
0000
0000
0001
1000
0000
0001
0010
0000
0100
0000
,  // measure 30
1000
0010
0100
0000
0010
1000
0001
0000
,  // measure 31
0010
0000
0010
0000
0010
0000
0001
0000
1000
0100
1000
0000
0010
0000
0200
0000
,  // measure 32
0000
0000
0310
0000
0110
0000
0000
0001
1000
0000
0100
0000
0010
0000
0000
0000
,  // measure 33
2100
0000
0100
0000
3001
0000
0000
0000
1000
0010
0000
1000
0001
0000
0010
0000
,  // measure 34
0100
1000
0010
1000
0001
0010
0100
0000
,  // measure 35
0001
0000
0001
0000
0001
0000
1000
0000
0010
0100
0010
0000
1000
0000
0002
0000
,  // measure 36
0000
0000
0013
0000
0011
0000
0000
0000
0001
1000
0001
0000
1010
0000
0000
0000
,  // measure 37
0010
0010
0010
0100
0001
0010
0100
1000
,  // measure 38
0010
0000
0100
0000
0100
0000
0001
1000
0001
0000
0000
0000
1001
0000
0000
0000
,  // measure 39
0010
0000
0001
0000
1000
0000
0010
1000
0100
0000
0010
0000
0001
0000
0100
0000
,  // measure 40
0001
0010
0000
0001
0000
0100
0010
0000
0000
0000
1000
0100
1000
0000
0001
0000
,  // measure 41
0010
0000
0100
0000
1000
0000
0010
0100
0001
0000
1000
0000
0001
0000
0100
0000
,  // measure 42
0010
1000
0000
0100
0000
0010
0001
0000
0000
0000
1000
0100
1000
0000
0001
0000
,  // measure 43
0010
0000
0100
0000
1000
0000
0001
1000
0010
0000
0100
0000
0001
0000
0010
0000
,  // measure 44
0100
1000
0000
0010
0000
1000
0100
0000
0000
0000
0010
0001
1000
0001
0010
0000
,  // measure 45
0100
0000
1000
0000
0001
0000
0010
0100
1000
0000
0010
0000
0100
0000
0001
0000
,  // measure 46
1000
0010
1000
0001
1000
0100
1000
0000
0002
0000
0000
0013
0001
0100
0001
0000
,  // measure 47
0010
0000
0001
0000
1000
0000
0100
1000
0010
0000
0100
0000
0001
0000
1000
0000
,  // measure 48
0001
0010
0001
0000
1000
0010
1000
0000
0001
0100
0001
0000
1000
0100
1000
0000
,  // measure 49
0001
0000
1000
0000
0010
0000
1000
0100
0010
0000
0001
0000
0100
0000
0001
0000
,  // measure 50
1000
0001
0000
0010
0000
0001
0100
0000
0000
0000
0010
1000
0010
0100
0001
0000
,  // measure 51
0010
0000
0001
0000
0100
0000
0001
1000
0100
0000
1000
0000
0010
0000
0100
0000
,  // measure 52
0001
0010
0001
0000
1000
0010
1000
0000
0001
0100
0001
0000
1000
0100
1000
0000
,  // measure 53
0010
0000
0010
0000
0010
0000
0010
0000
1000
0001
1000
0001
1000
0001
1000
0000
,  // measure 54
0001
1000
0001
0010
0001
0100
0001
0000
2000
0000
0000
3100
1000
0010
1000
0000
,  // measure 55
2002
0000
0000
0000
,  // measure 56
0000
0000
0000
0000
,  // measure 57
0000
0000
0000
3003
;
