#TITLE:SOS;
#SUBTITLE:;
#ARTIST:Rihanna;
#TITLETRANSLIT:;
#SUBTITLETRANSLIT:;
#ARTISTTRANSLIT:;
#GENRE:;
#CREDIT:;
#BANNER:SOS-bn.png;
#BACKGROUND:SOS-bg.png;
#LYRICSPATH:;
#CDTITLE:;
#MUSIC:SOS.ogg;
#OFFSET:0.000000;
#SAMPLESTART:42.035000;
#SAMPLELENGTH:20.000000;
#SELECTABLE:YES;
#DISPLAYBPM:137.000000;
#BPMS:0.000000=137.029999
;
#STOPS:
;
#BGCHANGES:;
#KEYSOUNDS:;
#ATTACKS:;

//---------------dance-single - ----------------
#NOTES:
     dance-single:
     :
     Hard:
     11:
     0.527444,0.510531,0.608763,0.142308,0.545515,467.000000,390.000000,77.000000,18.000000,0.000000,0.000000,0.527444,0.510531,0.608763,0.142308,0.545515,467.000000,390.000000,77.000000,18.000000,0.000000,0.000000:
0000
0000
0000
0000
,
0000
0000
0000
0000
,
0000
0000
0000
0000
,
0000
0000
0000
0000
,
1100
0000
0000
1001
0000
0001
0100
0000
0000
0100
0000
0010
,
1000
0000
0000
1000
0000
0001
0100
0000
0010
1000
0000
0100
,
0010
1001
0001
1000
,
0010
1010
0010
0011
,
0110
0000
0000
0001
0000
0001
1000
0000
1000
0010
0000
0000
,
1000
0000
0010
1000
0000
0001
0100
0000
0100
0010
0000
0000
,
0101
0000
0000
0010
0000
0010
1000
0000
1000
0100
0000
0000
,
1000
0000
0001
0010
0000
0001
0100
0000
0100
0010
0000
0000
,
1010
0000
0000
1000
0000
0001
0010
0000
0010
0000
0000
0002
,
0000
0000
1003
0001
0000
0001
0010
0000
0001
1000
0000
0200
,
0000
0000
2300
0000
0000
3010
0100
0000
0100
0001
0000
0001
,
1000
0000
0001
0010
0000
0001
1000
0000
0000
1100
0000
0000
,
0011
0000
0000
0100
0000
0100
0001
0000
0001
1000
0000
0000
,
0001
0000
0010
0001
0000
1000
0010
0000
0100
0001
0000
0000
,
1001
0000
0000
0001
0000
0001
0100
0000
0100
0010
0000
0000
,
1000
0000
0010
0100
0000
0001
1000
0000
0001
0100
0000
0000
,
0110
0000
0010
1000
0000
0001
1000
0000
0010
0100
0000
0000
,
0010
0000
0010
1000
0000
1000
0001
0000
0010
0001
0000
0200
,
0000
0000
0310
1000
0000
0002
0000
0000
1003
0010
0000
0000
,
0100
0000
0100
0001
0000
0001
0010
0000
0001
1000
0000
0100
,
1000
1010
0101
0011
,
0001
1001
1100
0110
,
0011
0101
1010
1100
,
0001
0000
0001
0010
0000
0010
0001
0000
1000
0010
0000
0200
,
0000
0310
0110
1001
,
1100
0101
1001
0110
,
1010
0000
1000
0001
0000
0000
0011
0000
0001
0100
0000
0010
,
1000
0000
0100
1000
0000
0001
0100
0000
0010
1000
0000
0000
,
0110
1001
1100
0011
,
0001
0000
0001
1000
0000
1000
0001
0000
0010
0100
0000
1000
,
0010
0000
0000
1010
0000
0000
0001
0000
0001
1000
0000
0020
,
0000
0000
1030
0010
0000
0010
0100
0000
0100
0001
0000
0000
,
0010
0000
0000
0011
0000
0000
1000
0000
1000
0001
0000
0001
,
0100
0000
0100
0010
0000
0010
1000
0000
0001
0010
0000
0002
,
0000
0000
0000
1003
0000
0010
1000
0000
0002
0000
0000
0203
,
0000
0000
0301
1000
0000
0001
0100
0000
0010
1000
0000
2001
,
0000
0010
3001
1000
,
0001
0000
0000
0010
0000
0000
0001
0000
0000
1000
0000
1020
,
0000
0130
0010
1000
,
0001
0000
0000
0010
0000
0000
1000
0000
0000
0010
0000
0210
,
0000
0001
0310
1000
,
0100
1000
0001
0010
,
1000
0000
0010
1000
0000
0010
0100
0000
0001
0010
0000
0001
,
0100
0000
0010
1000
0000
0010
1000
0000
0100
0010
0000
0001
,
0100
0101
1100
0011
,
1010
0110
0101
0011
,
1001
0110
1010
0101
,
0010
0000
0010
0100
0000
0100
0001
0000
0010
0001
0000
2000
,
0000
3100
1100
0011
,
1001
0011
0101
0110
,
1000
0000
1000
0010
0000
0010
0100
0000
0001
1000
0000
0200
,
0000
0000
1300
0010
0000
0100
0001
0000
0001
1000
0000
0100
,
1000
1001
0011
1100
,
0001
0000
0001
1000
0000
1000
0010
0000
0010
0100
0000
0001
,
1000
0000
0000
1100
0000
0000
0001
0000
0010
0001
0000
2000
,
0000
0000
3010
1000
0000
0001
0100
0000
0100
0010
0000
0000
,
0110
0000
0000
0101
0000
0000
0001
0000
0001
1000
0000
1000
,
0010
0000
0010
0100
0000
0100
0001
0000
0010
0001
0000
2000
,
0000
0000
3001
1000
0000
1000
0010
0000
0100
0000
0000
0102
,
0000
0000
1003
0001
0000
0001
0010
0000
0001
1000
0000
0000
,
1100
0000
0000
1001
0000
0001
0010
0000
0000
0010
0000
0001
,
0100
0000
0000
0100
0000
0100
0010
0000
0010
1000
0000
0001
,
0010
1001
1010
1100
,
1000
0011
1000
0101
,
1010
0000
0000
0110
0000
0010
1000
0000
0000
1000
0000
0001
,
0100
0000
0000
0100
0000
0010
1000
0000
0001
1000
0000
0100
,
1000
1100
0011
0101
,
0010
1001
0010
1001
;

//---------------dance-single - ----------------
#NOTES:
     dance-single:
     :
     Medium:
     9:
     0.407724,0.453805,0.426925,0.205556,0.363677,361.000000,307.000000,54.000000,26.000000,0.000000,0.000000,0.407724,0.453805,0.426925,0.205556,0.363677,361.000000,307.000000,54.000000,26.000000,0.000000,0.000000:
0000
0000
0000
0000
,
0000
0000
0000
0000
,
0000
0000
0000
0000
,
0000
0000
0000
0000
,
0000
0000
0000
1000
0000
1000
0100
0000
0000
0100
0000
0100
,
0010
0000
0000
0010
0000
0010
0001
0000
0001
1000
0000
0010
,
0000
0100
0001
1000
,
0010
1100
0000
0101
,
0000
0000
0000
0001
0000
0001
1000
0000
0100
0000
0000
0000
,
1000
0000
1000
0001
0000
0000
0100
0000
0100
0010
0000
0000
,
0000
0000
0000
0100
0000
0100
0001
0000
0010
0000
0000
0000
,
0001
0000
0001
0010
0000
0000
1000
0000
1000
0010
0000
0000
,
0000
0000
0000
0010
0000
0010
1000
0000
0100
0000
0000
1001
,
0000
0000
1000
0010
0000
0010
0100
0000
0000
0000
0000
0101
,
0000
0000
1100
0000
0000
0000
0010
0000
1000
0001
0000
0000
,
0100
0000
0001
1000
0000
0000
1010
0000
0000
0011
0000
0000
,
0000
0000
0000
0001
0000
0001
1000
0000
0010
0000
0000
0000
,
0010
0000
0010
1000
0000
0000
0001
0000
0001
0100
0000
0000
,
0000
0000
0000
0001
0000
0001
1000
0000
1000
0000
0000
0000
,
0100
0000
0100
1000
0000
0000
1001
0000
0000
0110
0000
0000
,
0000
0000
0000
0001
0000
0001
1000
0000
1000
0001
0000
0000
,
0000
0000
0000
1000
0000
1000
0100
0000
0100
1000
0000
0000
,
0001
0000
0001
0010
0000
0000
0001
0000
0001
0100
0000
0000
,
0010
0000
0010
1000
0000
1000
0001
0000
0000
0101
0000
0000
,
2000
3020
0230
0302
,
0023
0230
2300
3002
,
0203
0320
2030
3002
,
0003
0000
0001
1000
0000
0001
1000
0000
0001
1000
0000
0100
,
0000
1100
0011
1001
,
1010
0101
1001
0110
,
0000
0000
1000
0001
0000
0000
0001
0000
0100
0001
0000
0100
,
0010
0000
2000
0000
0000
0002
0000
0000
0000
3003
0000
0000
,
1000
1100
1010
1001
,
0001
0000
0000
0010
0000
0000
0001
0000
1000
0000
0000
0010
,
0000
0000
0000
0000
0000
0000
1000
0000
0001
1000
0000
0000
,
0010
0000
0000
0101
0000
0000
0001
0000
0001
1000
0000
0000
,
0001
0011
0101
1001
,
1000
0000
1000
0100
0000
0000
1000
0000
0001
0000
0000
0100
,
0000
0000
0000
0110
0000
0000
0010
0000
1000
0000
0000
0001
,
0000
0000
0000
1100
0000
0000
1000
0000
0001
1000
0000
0000
,
1010
0101
0000
0001
,
0000
0001
0000
0001
,
0011
1100
0000
1000
,
0000
1000
0000
1000
,
1001
0110
0010
0100
,
0001
0010
0001
1000
,
0001
0000
0001
1000
0000
1000
0010
0000
0000
0100
0000
0000
,
0001
0000
0001
1000
0000
1000
0100
0000
0000
0010
0000
0000
,
0002
2003
3020
0230
,
0302
0023
0230
2300
,
3002
0203
0320
2030
,
3000
0000
0010
0100
0000
0010
0100
0000
0010
0100
0000
0001
,
0000
0101
1010
1001
,
1100
0011
0101
1010
,
0000
0000
0010
0100
0000
0100
0001
0000
0000
1000
0000
0100
,
0000
0000
1000
0001
0000
0000
0100
0000
0010
0000
0000
1000
,
0000
1010
0110
0101
,
0001
0000
0000
1000
0000
0000
0010
0000
1000
0000
0000
0100
,
0000
0000
0000
1001
0000
0000
1000
0000
0001
0100
0000
0010
,
0000
0000
0000
0110
0000
0000
0100
0000
0100
0001
0000
0000
,
1000
1100
1001
0011
,
0010
0000
0010
0001
0000
0000
1000
0000
0010
0000
0000
1000
,
0000
0000
0000
1100
0000
0000
1000
0000
0001
0000
0000
0100
,
0000
0000
0000
0001
0000
0001
1000
0000
1000
0100
0000
0000
,
0000
0000
0000
1000
0000
1000
0001
0000
0000
0001
0000
0001
,
0100
0000
0000
0100
0000
0100
0010
0000
0010
1000
0000
0001
,
0000
0011
0001
1000
,
0010
1010
0000
0011
,
0000
0000
0000
0010
0000
0010
0001
0000
0000
0001
0000
0001
,
0100
0000
0000
0100
0000
0100
0010
0000
0010
1000
0000
0001
,
0000
0101
0001
1000
,
0010
0110
0000
1001
;

//---------------dance-single - ----------------
#NOTES:
     dance-single:
     :
     Easy:
     7:
     0.329794,0.397080,0.419019,0.031624,0.000000,292.000000,239.000000,53.000000,4.000000,0.000000,0.000000,0.329794,0.397080,0.419019,0.031624,0.000000,292.000000,239.000000,53.000000,4.000000,0.000000,0.000000:
0000
0000
0000
0000
,
0000
0000
0000
0000
,
0000
0000
0000
0000
,
0000
0000
0000
0000
,
0000
1001
0001
1000
,
0001
1000
0010
0100
,
0110
0110
1000
0001
,
0000
1100
0000
0101
,
0000
0001
1000
0100
,
1000
1000
0001
0001
,
0000
0010
0001
1000
,
0010
0010
0100
0100
,
0000
0010
1000
0100
,
1000
1000
0010
0010
,
0110
0000
0001
1000
,
0010
1000
0100
0100
,
0000
1001
0001
0010
,
0001
1000
0100
1000
,
0000
1100
1000
0010
,
0100
0001
0010
0010
,
0000
0001
1000
0001
,
0000
0100
0010
0100
,
0001
0001
1000
1000
,
0001
0010
0100
1000
,
0001
0100
0001
0100
,
0010
1000
0010
1000
,
1001
0110
1001
0110
,
0001
0100
0010
1000
,
0010
0100
0010
0100
,
0001
1000
0001
1000
,
0000
0101
1000
0001
,
1000
0010
0002
0000
,
0003
0101
1100
0101
,
1000
1000
0001
0001
,
1001
1001
0010
0100
,
0001
0001
1000
0100
,
0000
1010
0011
1010
,
0010
0100
0001
1000
,
1100
1100
1000
0010
,
0100
0001
1000
0001
,
1002
0000
0100
0000
,
1000
0000
0103
0000
,
2001
0000
0100
0000
,
0001
0000
3100
0000
,
2010
0000
0001
0000
,
0010
0000
3001
0000
,
1000
1000
0001
0001
,
1000
0010
0100
0001
,
0010
0001
0010
0001
,
1000
0100
1000
0100
,
0110
1001
0110
1001
,
1000
0001
0100
0010
,
1000
0001
1010
0101
,
0100
0010
1010
0101
,
0000
0110
0010
1000
,
0001
0001
1000
0100
,
0000
1010
0011
1010
,
0001
0010
0001
1000
,
0101
0101
0010
0100
,
0001
0001
1000
0100
,
0000
1100
0101
1100
,
0010
0100
0010
1000
,
1100
1100
1000
0001
,
0010
0001
0100
0010
,
0000
1001
1000
0001
,
1000
0010
0100
0001
,
1001
1001
0100
0010
,
1000
0001
1000
0001
,
0000
1001
0001
1000
,
0001
1000
0010
0100
,
0110
0110
0010
0100
,
0001
1001
0000
1001
;

//---------------dance-single - ----------------
#NOTES:
     dance-single:
     :
     Beginner:
     5:
     0.201039,0.226903,0.284616,0.000000,0.000000,178.000000,142.000000,36.000000,0.000000,0.000000,0.000000,0.201039,0.226903,0.284616,0.000000,0.000000,178.000000,142.000000,36.000000,0.000000,0.000000,0.000000:
0000
0000
0000
0000
,
0000
0000
0000
0000
,
0000
0000
0000
0000
,
0000
0000
0000
0000
,
1001
1001
0000
0000
,
0000
0000
0000
0000
,
0110
0110
0000
0000
,
0000
1001
0000
1001
,
0000
0000
1000
0000
,
0001
0001
0001
0001
,
0000
0000
0100
0000
,
0010
0010
0010
0010
,
0000
0000
1000
0000
,
0000
0000
0001
0000
,
0100
0000
0100
0000
,
0010
0010
0010
0010
,
0000
0000
0001
0000
,
1000
1000
1000
1000
,
0000
0000
0010
0000
,
0100
0100
0100
0100
,
0000
0000
0001
0001
,
0000
0000
1000
0000
,
0010
0000
0010
0000
,
0100
0100
0100
0000
,
0001
0001
0001
0000
,
1000
1000
1000
0000
,
0010
0010
0010
0010
,
0000
0000
0100
0000
,
0010
0010
0010
0000
,
1000
1000
1000
1000
,
0000
0000
0001
0000
,
1000
0000
0001
0000
,
1001
1001
0000
0000
,
0010
0000
0100
0000
,
0110
0110
0000
0000
,
1000
0000
0001
0000
,
0110
0110
0000
0000
,
0010
0000
1000
0000
,
1001
1001
0000
0000
,
0001
0000
0100
0000
,
1001
1001
0000
0000
,
0000
0000
0000
0000
,
0110
0110
0000
0000
,
0000
0000
0000
0000
,
1001
1001
0000
0000
,
0000
0000
0000
0000
,
0001
0001
0001
0000
,
1000
1000
1000
0000
,
0010
0010
0010
0000
,
1000
1000
1000
0000
,
0100
0100
0100
0100
,
0000
0000
1000
0000
,
0001
0001
0001
0000
,
0010
0010
0010
0010
,
0000
0000
0001
0000
,
1000
0000
0010
0000
,
0110
0110
0000
0000
,
1000
0000
0100
0000
,
1001
1001
0000
0000
,
0010
0000
0001
0000
,
1001
1001
0000
0000
,
1000
0000
0001
0000
,
0110
0110
0000
0000
,
0100
0000
0010
0000
,
0000
0000
1000
0000
,
0001
0000
1000
0000
,
1001
1001
0000
0000
,
0000
0110
0000
0110
,
0000
0000
0010
0000
,
0100
0000
0010
0000
,
0110
0110
0000
0000
,
0000
0110
0000
1001
;

//---------------dance-single - ----------------
#NOTES:
     dance-single:
     :
     Challenge:
     15:
     0.686694,0.680708,0.853849,0.015812,0.921051,608.000000,500.000000,108.000000,2.000000,0.000000,0.000000,0.686694,0.680708,0.853849,0.015812,0.921051,608.000000,500.000000,108.000000,2.000000,0.000000,0.000000:
// measure 0
0000
0000
0000
0000
,  // measure 1
0000
0000
0000
0000
,  // measure 2
0000
0000
0000
0000
,  // measure 3
0000
0000
0000
0000
,  // measure 4
1100
0000
0000
1001
0000
0001
0100
0000
0000
0110
0000
0010
,  // measure 5
1000
0000
0000
1100
0000
1000
0001
0000
0100
0010
0000
1000
,  // measure 6
1001
0000
0000
0011
0000
0000
1000
0010
0100
0010
1000
0001
,  // measure 7
0010
0101
0010
1100
,  // measure 8
0011
0000
0000
1001
0000
1000
0010
0000
0010
0100
0000
0100
,  // measure 9
0001
0010
0001
1000
0010
1000
0001
0000
1000
0010
0000
0000
,  // measure 10
1100
0000
0000
0011
0000
0001
0100
0000
0100
0010
0000
0000
,  // measure 11
1000
0000
1000
0001
0100
0001
1000
0000
0010
0100
0000
0000
,  // measure 12
0101
0000
0001
1000
0000
0001
0010
0000
0001
0100
0000
0110
,  // measure 13
0000
0000
0010
1000
0100
1000
0001
0000
0001
0010
0000
0011
,  // measure 14
0000
0000
1100
0000
0000
0010
1000
0001
1000
0010
0000
0100
,  // measure 15
0001
0010
0001
1000
0010
0100
0001
1000
0010
0100
0010
1000
,  // measure 16
1010
0000
0000
0011
0000
0001
1000
0000
0010
0100
0000
0010
,  // measure 17
1000
0100
0010
0001
1000
0010
0100
0001
1000
0100
0000
0000
,  // measure 18
1001
0000
0010
1000
0000
0100
1000
0000
0001
0010
0000
0001
,  // measure 19
0100
0010
0100
0010
1000
0100
1000
0000
0001
0010
0001
0100
,  // measure 20
0110
0000
0010
1000
0000
0001
0010
0000
0010
0100
0000
0100
,  // measure 21
1000
0010
1000
0010
0100
0001
0010
0000
0001
1000
0000
0010
,  // measure 22
1000
0000
1000
0001
0000
0001
0010
0000
0001
1000
0000
0000
,  // measure 23
0010
0100
0010
1000
0100
1000
0001
0010
0001
0100
0001
1000
,  // measure 24
1100
0110
0011
0101
,  // measure 25
1001
1010
0101
0011
,  // measure 26
0110
1100
1010
1001
,  // measure 27
0001
0010
0100
1000
0010
0100
0001
1000
0010
0100
0000
0001
,  // measure 28
0011
1010
0110
1100
,  // measure 29
0011
1010
0101
1001
,  // measure 30
0010
0000
1000
0001
0000
0010
0100
0000
1000
0010
0000
0100
,  // measure 31
0010
0000
1000
0100
0000
0001
1000
0100
0010
0001
0100
0010
,  // measure 32
1010
1100
0011
1001
,  // measure 33
0001
1000
0001
1000
0010
0100
0001
0000
1000
0010
0000
0100
,  // measure 34
0110
0000
0001
1001
0000
1000
0010
0100
0001
1000
0000
0000
,  // measure 35
0010
0100
0010
1000
0001
0010
0001
1000
0100
1000
0001
0100
,  // measure 36
0101
0000
0000
1010
0000
0000
1100
0000
1000
0001
0000
0010
,  // measure 37
0001
1000
0010
1000
0100
0010
0001
0000
1000
0100
0000
0010
,  // measure 38
0011
0000
0000
0110
0000
0010
0001
0000
0100
0010
0000
1000
,  // measure 39
0100
0000
1000
0001
0000
1000
0010
0100
0010
1000
0001
0010
,  // measure 40
0011
0000
0000
0011
0000
0010
0001
0000
0001
1000
0000
1000
,  // measure 41
0010
0000
0010
0100
0000
0200
0000
0000
0310
1000
0000
0100
,  // measure 42
1100
0000
0000
1100
0000
1000
0010
0000
0010
0100
0000
0100
,  // measure 43
0001
0000
0001
0010
0000
0002
0000
0000
1003
0010
0000
0100
,  // measure 44
0110
0000
0000
0110
0000
0010
1000
0000
1000
0001
0000
0001
,  // measure 45
0010
0000
0010
0001
0000
0001
0100
0000
0100
0010
0000
0010
,  // measure 46
1000
0000
0001
0010
0000
0100
1000
0000
0001
0100
0000
0010
,  // measure 47
1000
0000
0001
0100
0000
0010
1000
0100
0010
0100
1000
0001
,  // measure 48
0101
0011
1100
1001
,  // measure 49
1010
0110
1001
0011
,  // measure 50
1100
0101
0110
1010
,  // measure 51
0001
0010
0001
1000
0010
1000
0010
0100
0001
1000
0000
0010
,  // measure 52
1010
0110
1100
1001
,  // measure 53
0011
1100
0101
1001
,  // measure 54
0001
0000
1000
0010
0000
0100
0001
0000
0010
0001
0000
1000
,  // measure 55
0010
0000
1000
0101
0000
0000
0010
0001
1000
0010
0100
0001
,  // measure 56
1001
0011
1100
0101
,  // measure 57
1000
0010
0100
0010
1000
0001
0010
0000
0100
1000
0000
0001
,  // measure 58
1001
0000
0000
1010
0000
0010
1000
0000
0100
1000
0000
0001
,  // measure 59
0010
0000
0001
0100
0000
0010
1000
0100
1000
0001
0010
0100
,  // measure 60
1100
0000
0000
1001
0000
0000
0100
0001
1000
0001
1000
0100
,  // measure 61
1000
0010
0100
0001
0010
0100
1000
0001
1000
0010
0000
0100
,  // measure 62
0101
0000
0001
0011
0000
0010
0001
0000
1000
0010
0000
0100
,  // measure 63
0001
1000
0001
1000
0010
1000
0010
0100
0001
0100
0010
0100
,  // measure 64
0110
0000
0000
1010
0000
1000
0001
0000
0000
0011
0000
0010
,  // measure 65
0100
0000
0000
1100
0000
1000
0010
0000
0100
0001
0000
1000
,  // measure 66
1010
0101
0011
1100
,  // measure 67
0010
1010
0010
0011
,  // measure 68
1010
0000
0000
0101
0000
0010
0100
0000
0000
0110
0000
0001
,  // measure 69
1000
0000
0000
1010
0000
0010
1000
0000
0100
0010
0000
0001
,  // measure 70
0011
1100
0101
1010
,  // measure 71
1000
0110
0001
1001
;
