#VERSION:0.83;
#TITLE:SO LIT!;
#SUBTITLE:;
#ARTIST:POPSTARBILLS;
#TITLETRANSLIT:;
#SUBTITLETRANSLIT:;
#ARTISTTRANSLIT:;
#GENRE:;
#ORIGIN:;
#CREDIT:;
#BANNER:SO LIT!-bn.png;
#BACKGROUND:SO LIT!-bg.png;
#PREVIEWVID:;
#JACKET:SO LIT!-jacket.png;
#CDIMAGE:;
#DISCIMAGE:;
#LYRICSPATH:;
#CDTITLE:;
#MUSIC:SO LIT!.ogg;
#OFFSET:1.000000;
#SAMPLESTART:48.211842;
#SAMPLELENGTH:20.000000;
#SELECTABLE:YES;
#DISPLAYBPM:156.000000;
#BPMS:0.000=156.060;
#STOPS:;
#DELAYS:;
#WARPS:;
#TIMESIGNATURES:0.000=4=4;
#TICKCOUNTS:0.000=4;
#COMBOS:0.000=1;
#SPEEDS:0.000=1.000=0.000=0;
#SCROLLS:0.000=1.000;
#FAKES:;
#LABELS:0.000=Song Start;
#BGCHANGES:;
#KEYSOUNDS:;
#ATTACKS:
;

//---------------dance-single - ----------------
#NOTEDATA:;
#CHARTNAME:;
#STEPSTYPE:dance-single;
#DESCRIPTION:;
#CHARTSTYLE:;
#DIFFICULTY:Hard;
#METER:12;
#RADARVALUES:0.591563,0.587582,0.292876,0.000000,0.597955,509.000000,473.000000,36.000000,0.000000,0.000000,0.000000,0.000000,0.000000,0.000000,0.591563,0.587582,0.292876,0.000000,0.597955,509.000000,473.000000,36.000000,0.000000,0.000000,0.000000,0.000000,0.000000,0.000000;
#CREDIT:;
#DISPLAYBPM:156.000000;
#NOTES:
0000
0000
0000
0000
,
0000
0000
0000
0000
,
0000
0000
0000
0000
,
0000
0000
0000
0000
,
0000
0000
0000
0000
,
0000
0000
0000
0000
,
0000
0000
0000
0000
,
0000
0000
0000
0000
,
0000
0000
0000
0000
,
0000
0000
0000
0000
,
0000
0000
0000
0000
,
0000
0000
0000
0000
,
1000
0000
0000
1000
0000
0000
1000
0000
0000
1000
0000
0001
,
0100
0100
0010
0010
,
0100
0000
0000
0100
0000
0000
0100
0000
0000
0100
0000
0001
,
0010
0000
0000
0010
0000
0001
1000
0000
0001
0100
0000
0000
,
0101
0000
1100
0000
0001
1000
0010
1000
,
0100
0010
0100
1000
0010
0100
0001
1000
,
1010
0000
0011
0000
0001
0010
0001
0100
,
0010
0100
0010
1000
0100
1000
0001
1000
,
1010
0000
0101
0000
0010
1000
0100
0010
,
0001
1000
0010
1000
0001
0010
0100
1000
,
1100
0000
0011
0000
0010
0001
1000
0010
,
0110
0000
1001
0001
1000
0010
0100
0001
,
0010
0001
1000
0000
0001
1000
0100
0010
,
0100
0010
0001
0100
0010
1000
0100
0010
,
0001
1000
0010
0000
0100
0010
1000
0100
,
1000
0001
0010
0100
1000
0001
0010
0001
,
0100
0010
1000
0000
0010
0100
0001
1000
,
0010
1000
0100
0010
0001
1000
0001
0100
,
0001
0010
0100
0000
1000
0010
0100
0001
,
1001
0000
0110
0000
0010
0010
0010
0010
,
1010
0000
0000
1100
0000
1000
0001
0000
0001
0100
0000
0000
,
0010
0000
0010
0100
0000
0100
0001
0000
0001
1000
0000
1000
,
0001
0000
0000
0101
0000
0001
0100
0000
0010
1000
0000
0000
,
0100
0000
0100
0010
0000
0010
0001
0000
0001
1000
0000
1000
,
0001
0000
0000
0011
0000
0010
0001
0000
1000
0100
0000
0000
,
1000
0000
1000
0001
0000
0001
0100
0000
0100
0010
0000
0010
,
1000
0000
0000
0001
0000
0010
0001
0000
1000
0010
0000
0100
,
0010
0000
0000
1000
0000
0001
1000
0000
0010
0100
0000
0010
,
0100
0000
0000
0110
0000
0010
1000
0000
0001
0100
0000
0000
,
0001
0000
0010
0001
0000
0100
0010
0000
1000
0100
0000
1000
,
0001
0000
0000
1001
0000
0001
0100
0000
0010
1000
0000
0000
,
0010
0000
0100
0010
0000
1000
0100
0000
0010
0001
0000
0100
,
0001
0000
0000
0011
0000
0010
0100
0000
1000
0010
0000
0000
,
0100
0000
0010
1000
0000
0001
0010
0000
0001
0100
0000
0010
,
1000
0000
0000
1100
0000
1000
0010
0000
0100
0001
0000
0000
,
1001
0000
0000
0110
0000
0010
0100
0000
0010
0100
0000
0001
,
1000
0000
0001
0010
0000
0001
0100
0000
0000
0100
0000
0010
,
1000
0000
0100
1000
0000
0010
0100
0000
0000
0001
0000
0010
,
0001
0000
0100
0001
0000
0000
0101
0000
0100
0010
0000
1000
,
0010
0000
1000
0100
0000
0000
1010
0000
0000
1000
0000
0001
,
0010
0000
0010
0001
0000
0001
0100
0000
0100
0010
0000
0010
,
1000
0000
1000
0100
0000
0100
1000
0000
0000
0001
0000
1000
,
0010
0000
0010
1000
0000
1000
0001
0000
0001
0100
0000
0100
,
0001
0000
0010
0001
0000
1000
0010
0000
0000
0100
0000
0010
,
1000
0000
0100
0010
0000
0100
0010
0000
0001
0100
0000
0001
,
1000
0000
0010
1000
0000
0100
0010
0000
0000
0001
0000
0100
,
0010
0000
0100
0001
0000
0010
0001
0000
1000
0100
0000
0010
,
0100
0000
1000
0010
0000
0100
0001
0000
0000
0001
0000
1000
,
0100
0000
0010
0100
0000
1000
0001
0000
0100
0001
0000
1000
,
0010
0000
0000
0000
1000
0000
0001
0000
0000
0000
0010
0000
0100
0000
0000
0000
0000
0000
1000
0000
0000
1000
0000
0000
,
1000
0000
0010
0100
0000
0001
1000
0000
0100
0010
0000
0001
,
0100
0000
0000
0000
0010
0000
0100
0000
0000
0000
0001
0000
0100
0000
0000
0100
0000
0000
0100
0000
0000
0100
0000
0000
,
0110
0000
0000
0101
0000
0001
1000
0000
0010
0100
0000
0000
,
0010
0000
1000
0010
0000
0100
0001
0000
0010
0100
0000
1000
,
0001
0000
0000
1010
0000
0010
0100
0000
0001
1000
0000
0000
,
0100
0000
1000
0010
0000
0100
0001
0000
0010
0100
0000
1000
,
0010
0000
0000
0101
0000
0010
1000
0000
0001
0100
0000
0000
,
0001
0000
0001
1000
0000
1000
0010
0000
0010
0100
0000
0100
,
0001
0000
0000
0011
0000
0100
1000
0000
0010
0100
0000
0000
,
0010
0000
0000
1001
0000
0001
1000
0000
0100
0010
0000
0001
,
0100
0000
0000
1010
0000
0001
1000
0000
0100
0010
0000
0000
,
0001
0000
0100
0010
0000
1000
0100
0000
0010
0001
0000
1000
,
0010
0000
0000
0110
0000
0100
0001
0000
1000
0100
0000
0000
,
1000
0000
0001
0010
0000
0001
0100
0000
0010
1000
0000
0100
,
1000
0000
0000
0101
0000
0010
0100
0000
0001
1000
0000
0000
,
0010
0000
1000
0100
0000
0010
0001
0000
0100
0010
0000
1000
,
0100
0000
0000
1100
0000
0010
0100
0000
0001
1000
0000
0000
,
0001
0000
0000
0001
0000
1000
0001
0000
1000
0100
0000
0000
,
1001
0011
0000
0000
;

//---------------dance-single - ----------------
#NOTEDATA:;
#CHARTNAME:;
#STEPSTYPE:dance-single;
#DESCRIPTION:;
#CHARTSTYLE:;
#DIFFICULTY:Medium;
#METER:10;
#RADARVALUES:0.475342,0.522295,0.390501,0.000000,0.052880,409.000000,361.000000,48.000000,0.000000,0.000000,0.000000,0.000000,0.000000,0.000000,0.475342,0.522295,0.390501,0.000000,0.052880,409.000000,361.000000,48.000000,0.000000,0.000000,0.000000,0.000000,0.000000,0.000000;
#CREDIT:;
#DISPLAYBPM:156.000000;
#NOTES:
0000
0000
0000
0000
,
0000
0000
0000
0000
,
0000
0000
0000
0000
,
0000
0000
0000
0000
,
0000
0000
0000
0000
,
0000
0000
0000
0000
,
0000
0000
0000
0000
,
0000
0000
0000
0000
,
0000
0000
0000
0000
,
0000
0000
0000
0000
,
0000
0000
0000
0000
,
0000
0000
0000
0000
,
1000
1000
1000
1000
,
0010
0010
0100
0100
,
0001
0001
0001
0001
,
0010
0010
0001
1000
,
1100
0101
1100
0101
,
1000
0001
0100
0000
0001
1000
0100
0000
,
1010
0011
1010
0011
,
0001
1000
0010
0000
1000
0001
0010
0000
,
1001
0110
1001
0110
,
0010
1000
0100
0000
0010
0001
0100
0000
,
0101
0000
1010
0000
0010
0100
0001
0000
,
0011
0000
1100
0000
1000
0001
0100
0000
,
0110
0000
1001
0000
0010
0000
0100
0001
,
1000
0100
1000
0000
0010
0100
0001
0000
,
0011
0000
0101
0000
0010
1000
0001
0000
,
1000
0001
0010
0000
0001
1000
0010
0000
,
1010
0000
1100
0000
0001
0100
0010
0000
,
0100
0001
0010
0000
0010
0001
0100
0000
,
0110
0000
1001
0000
0000
1000
0001
1000
,
0010
0000
0100
0000
0000
0001
1000
0001
,
1000
0000
1000
0010
0100
0000
0101
0000
,
0000
0001
0100
0001
0100
0000
0100
0000
,
0010
0000
0010
1000
0001
0000
1001
0000
,
0000
0100
0010
0100
0010
0000
0010
0000
,
0100
0000
0100
0001
1000
0000
1100
0000
,
0000
1000
0010
1000
0010
0000
0010
0000
,
1000
0000
1000
0001
0010
0000
0011
0000
,
0000
1000
0100
1000
0100
0000
0100
0000
,
1000
0000
0010
0100
0010
0000
0110
0000
,
0000
0001
1000
0001
1000
0001
1000
0001
,
0010
0000
0001
1000
0010
0000
1010
0000
,
0000
0100
0010
0100
0010
0100
0010
0000
,
0100
0000
0001
1000
0001
0000
0100
0000
,
0000
0010
1000
0010
1000
0010
1000
0010
,
0100
0000
0001
0010
0001
0000
1000
0000
,
0010
0010
0100
0100
,
0001
0000
0000
0010
0000
0000
0001
0000
0000
1000
0000
0010
,
0100
0010
1000
0001
,
0010
0000
0001
0100
0000
0000
0010
0000
0000
1000
0000
0000
,
0100
0000
1000
0001
0000
0000
0100
0000
0000
0010
0000
0000
,
1000
0000
0010
0100
0000
0000
0001
0000
0000
1000
0000
0000
,
0100
0000
0000
1000
0000
0001
0100
0000
0000
0010
0000
0000
,
0100
0000
0001
1000
0000
0000
0010
0000
0000
1000
0000
0000
,
0100
0000
0000
0010
0000
0001
1000
0000
0000
1100
0000
0000
,
0101
0000
0000
0001
0000
0100
0010
0000
0000
1000
0000
0000
,
0100
0000
0000
1000
0000
0001
0010
0000
0000
1001
0000
0000
,
0001
0000
1000
0010
0000
0000
0100
0000
0000
0110
0000
0000
,
0010
0000
0000
1000
0000
0001
1000
0000
0000
1010
0000
0000
,
0011
0000
0000
0010
0000
0001
1000
0000
0000
0001
0000
0000
,
0100
0000
0000
0000
0000
0000
0010
0000
0000
0000
0100
0000
0001
0000
0000
0000
0000
0000
1000
0000
0000
0001
0000
0000
,
1000
0100
0010
0000
0100
0010
0001
0000
,
0100
0010
1000
0000
0001
0100
0010
0100
,
0010
0000
1000
0001
1000
0000
1010
0000
,
0000
0100
0001
0100
0001
0100
0001
0100
,
0010
0000
0100
0001
0100
0000
0110
0000
,
0000
1000
0001
1000
0001
1000
0001
0000
,
0100
0000
0001
0010
0001
0000
0101
0000
,
0000
1000
0100
1000
0100
1000
0100
1000
,
0010
0000
0100
0001
1000
0000
1100
0000
,
1000
0010
0100
0001
0010
0100
1000
0000
,
0010
0000
1000
0001
0100
0000
1001
0000
,
0001
1000
0010
1000
0100
0010
0001
0000
,
0100
0000
0010
1000
0001
0000
0011
0000
,
0010
0100
0010
0001
0100
0010
1000
0000
,
0001
0000
1000
0100
0010
0000
0011
0000
,
0001
1000
0100
1000
0001
0100
0010
0000
,
1010
0000
0110
0000
0100
0001
1000
0000
,
0101
0000
1100
0000
0010
1000
0001
0000
,
0100
1001
0000
0000
;

//---------------dance-single - ----------------
#NOTEDATA:;
#CHARTNAME:;
#STEPSTYPE:dance-single;
#DESCRIPTION:;
#CHARTSTYLE:;
#DIFFICULTY:Easy;
#METER:7;
#RADARVALUES:0.340526,0.457008,0.374230,0.000000,0.000000,293.000000,247.000000,46.000000,0.000000,0.000000,0.000000,0.000000,0.000000,0.000000,0.340526,0.457008,0.374230,0.000000,0.000000,293.000000,247.000000,46.000000,0.000000,0.000000,0.000000,0.000000,0.000000,0.000000;
#CREDIT:;
#DISPLAYBPM:156.000000;
#NOTES:
0000
0000
0000
0000
,
0000
0000
0000
0000
,
0000
0000
0000
0000
,
0000
0000
0000
0000
,
0000
0000
0000
0000
,
0000
0000
0000
0000
,
0000
0000
0000
0000
,
0000
0000
0000
0000
,
0000
0000
0000
0000
,
0000
0000
0000
0000
,
0000
0000
0000
0000
,
0000
0000
0000
0000
,
1000
1000
0000
0001
,
0100
0000
0010
0000
,
0100
0100
0000
0001
,
0010
0010
0001
1000
,
1001
0110
0010
0100
,
0001
0010
0100
1000
,
1100
0011
0100
0010
,
1000
0001
1000
0100
,
1010
0101
0010
0100
,
0001
0010
0100
1000
,
1100
0101
0010
1000
,
1010
0011
0001
0100
,
0101
1001
0010
0100
,
0001
1000
0010
0100
,
0110
1010
1000
0001
,
0100
0001
0010
0100
,
1100
0101
0010
0100
,
0010
1000
0001
0100
,
0110
1001
0001
1000
,
1100
0011
0000
0000
,
0100
0010
1000
0001
,
0000
0001
1000
0100
,
1000
0010
1000
0100
,
0000
0100
0010
0001
,
0100
0010
0100
0001
,
0000
0001
1000
0100
,
1000
0001
0100
0100
,
0001
1000
0010
0010
,
1001
0001
1000
1100
,
0000
0010
0010
0010
,
0110
0100
0001
0011
,
0000
1000
1000
1000
,
1010
0010
0100
0101
,
0000
0001
0001
0001
,
1001
0010
0100
0001
,
1000
0110
0000
0000
,
0010
0010
0010
1000
,
0100
0100
0100
0000
,
1000
1000
1000
0010
,
0001
0001
0001
0000
,
0010
0001
0100
0010
,
1000
0100
0010
0000
,
1000
0001
0010
0001
,
0100
0010
1000
1100
,
0101
0001
0010
0100
,
1000
0001
0100
0011
,
1010
0010
1000
0001
,
0100
0010
1000
0110
,
1001
0010
1000
0100
,
0010
0001
1000
0100
,
1000
1000
0001
0010
,
0001
0100
0100
0000
,
0001
1000
0100
1000
,
0000
0010
0010
0000
,
0100
0010
1000
0100
,
0000
0001
0001
0000
,
1000
0001
0010
0001
,
0000
0100
0100
0000
,
0001
0010
0001
1000
,
0100
0100
1000
0001
,
1001
1000
0100
0110
,
0000
0001
0001
0001
,
0011
0010
0100
1100
,
0000
1000
1000
1000
,
1010
1000
0001
0101
,
0000
0010
0010
0010
,
0110
1001
1000
0001
,
0011
1100
0010
0100
,
1010
0101
0000
0000
;

//---------------dance-single - ----------------
#NOTEDATA:;
#CHARTNAME:;
#STEPSTYPE:dance-single;
#DESCRIPTION:;
#CHARTSTYLE:;
#DIFFICULTY:Beginner;
#METER:5;
#RADARVALUES:0.185953,0.261148,0.048813,0.000000,0.000000,160.000000,154.000000,6.000000,0.000000,0.000000,0.000000,0.000000,0.000000,0.000000,0.185953,0.261148,0.048813,0.000000,0.000000,160.000000,154.000000,6.000000,0.000000,0.000000,0.000000,0.000000,0.000000,0.000000;
#CREDIT:;
#DISPLAYBPM:156.000000;
#NOTES:
// measure 0
0000
0000
0000
0000
,  // measure 1
0000
0000
0000
0000
,  // measure 2
0000
0000
0000
0000
,  // measure 3
0000
0000
0000
0000
,  // measure 4
0000
0000
0000
0000
,  // measure 5
0000
0000
0000
0000
,  // measure 6
0000
0000
0000
0000
,  // measure 7
0000
0000
0000
0000
,  // measure 8
0000
0000
0000
0000
,  // measure 9
0000
0000
0000
0000
,  // measure 10
0000
0000
0000
0000
,  // measure 11
0000
0000
0000
0000
,  // measure 12
1000
1000
0000
0000
,  // measure 13
0010
0000
0100
0000
,  // measure 14
0001
0001
0000
0000
,  // measure 15
0010
0000
0100
0000
,  // measure 16
1000
1000
0000
0000
,  // measure 17
0010
0000
0100
0000
,  // measure 18
0001
0001
0000
0000
,  // measure 19
0010
0000
0100
0000
,  // measure 20
0010
0010
0000
0000
,  // measure 21
0001
0000
1000
0000
,  // measure 22
0100
0100
0000
0000
,  // measure 23
1000
1000
0000
0000
,  // measure 24
0001
0001
0000
0000
,  // measure 25
1000
0000
0010
0000
,  // measure 26
0100
0100
0000
0000
,  // measure 27
0010
0000
0100
0000
,  // measure 28
0010
0010
0000
0000
,  // measure 29
1000
0000
0001
0000
,  // measure 30
0100
0100
0000
0000
,  // measure 31
0010
0010
0000
0000
,  // measure 32
1000
1000
0000
0001
,  // measure 33
0001
0000
0100
0000
,  // measure 34
0010
0010
0000
0100
,  // measure 35
0100
0000
0010
0000
,  // measure 36
1000
1000
0000
0100
,  // measure 37
0100
0000
1000
0000
,  // measure 38
0010
0010
0000
0000
,  // measure 39
0001
0001
0000
0000
,  // measure 40
0010
0010
0000
0100
,  // measure 41
0100
0000
1000
0000
,  // measure 42
0010
0010
0000
1000
,  // measure 43
1000
0000
0001
0000
,  // measure 44
0100
0100
0000
0001
,  // measure 45
0001
0000
0010
0000
,  // measure 46
0100
0100
0000
1000
,  // measure 47
1000
0000
0000
0000
,  // measure 48
0001
0000
0001
0000
,  // measure 49
0001
0000
0001
0000
,  // measure 50
1000
0000
1000
0000
,  // measure 51
1000
0000
1000
0000
,  // measure 52
0010
0000
0010
0000
,  // measure 53
0010
0000
0010
0000
,  // measure 54
0100
0000
0100
0000
,  // measure 55
0100
0000
0100
0000
,  // measure 56
0001
0000
1000
0000
,  // measure 57
0100
0100
0100
0000
,  // measure 58
1000
0000
0001
0000
,  // measure 59
0010
0010
0010
0000
,  // measure 60
0001
0000
0100
0000
,  // measure 61
0001
0001
0001
0000
,  // measure 62
0100
0000
0010
0000
,  // measure 63
1000
1000
1000
0000
,  // measure 64
0001
0001
0000
1000
,  // measure 65
1000
0000
1001
0000
,  // measure 66
0010
0010
0000
0100
,  // measure 67
0100
0000
0110
0000
,  // measure 68
0010
0010
0000
1000
,  // measure 69
1000
0000
1001
0000
,  // measure 70
0001
0001
0000
0000
,  // measure 71
0100
0100
0000
0000
,  // measure 72
0010
0010
0000
1000
,  // measure 73
1000
0000
0110
0000
,  // measure 74
0100
0100
0000
0001
,  // measure 75
0001
0000
1001
0000
,  // measure 76
0001
0001
0000
0010
,  // measure 77
0010
0000
0110
0000
,  // measure 78
0100
0100
0000
1000
,  // measure 79
1000
0000
0000
0000
,  // measure 80
0010
0010
0000
0000
;
