#TITLE:SILVER☆DREAM;
#SUBTITLE:;
#ARTIST:jun;
#TITLETRANSLIT:SILVER DREAM;
#SUBTITLETRANSLIT:;
#ARTISTTRANSLIT:;
#GENRE:;
#CREDIT:;
#BANNER:SILVER DREAM.png;
#BACKGROUND:SILVER DREAM-bg.png;
#LYRICSPATH:;
#CDTITLE:;
#MUSIC:SILVER DREAM.ogg;
#OFFSET:0.000000;
#SAMPLESTART:32.980000;
#SAMPLELENGTH:20.000000;
#SELECTABLE:YES;
#DISPLAYBPM:96.000000:192.000000;
#BPMS:0.000000=192.513000
,4.000000=191.975998
,172.000000=96.000000
,180.000000=192.000000
,196.000000=191.981003
;
#STOPS:196.000000=1.247000
;
#BGCHANGES:;
#KEYSOUNDS:;
#ATTACKS:;

//---------------dance-single - ----------------
#NOTES:
     dance-single:
     :
     Beginner:
     4:
     0.308158,0.355044,0.107367,0.146410,0.000000,221.000000,210.000000,11.000000,15.000000,0.000000,0.000000,0.308158,0.355044,0.107367,0.146410,0.000000,221.000000,210.000000,11.000000,15.000000,0.000000,0.000000:
0000
0000
0000
0000
,
0000
0000
0000
0000
,
0001
0000
1000
0000
,
0001
0001
0001
0001
,
1000
0000
0001
0000
,
1000
1000
1000
1000
,
0001
0000
0001
0000
,
1000
0000
1000
0000
,
0001
0000
1000
0000
,
0001
1000
0001
1000
,
0002
0000
0003
0000
,
1000
0000
1000
0000
,
0001
0000
0001
0000
,
1000
1000
1000
1000
,
0001
0000
0001
0000
,
1000
0000
1000
0000
,
0001
0001
0001
0000
,
1000
1000
1000
0000
,
0001
0000
1000
0000
,
0001
1000
0001
0000
,
1000
0000
0001
0000
,
1000
0001
1000
0000
,
0001
0001
0001
0000
,
1000
1000
1000
0000
,
0001
0000
1000
0000
,
2002
0000
3003
0000
,
2002
0000
3003
0000
,
0001
0001
0001
0000
,
1000
1000
1000
0000
,
0001
0001
1000
1000
,
0001
1000
0001
0000
,
1000
1000
0001
0000
,
0001
0001
1000
0000
,
0001
0000
1000
0000
,
2002
0000
3003
0000
,
0001
0001
1000
0000
,
1000
1000
0001
0000
,
0001
0001
1000
1000
,
0001
1000
0001
0000
,
1000
1000
0001
0000
,
0001
0001
1000
0000
,
1000
1000
0001
0001
,
1000
0001
1000
1001
,
2000
3000
0002
0003
,
2000
3000
0002
0003
,
1000
1000
1000
1000
,
0001
0001
0001
0001
,
1000
1000
1000
1000
,
2002
0000
3003
0000
,
1001
0000
0000
0000
,
1000
1000
0001
0001
,
1000
0001
1000
1001
,
0001
0001
1000
0000
,
1000
1000
0001
0000
,
0001
1000
0001
1000
,
1001
0000
1000
1000
,
0001
0001
1000
1000
,
0001
1000
0001
1000
,
0001
0001
1000
1000
,
0001
1000
1001
0000
,
1000
1000
0001
0001
,
1000
0001
1000
0001
,
1000
1000
0001
0001
,
1000
0001
1000
1001
,
0001
0001
0001
0001
,
1000
1000
1000
1000
,
0001
0001
1000
1000
,
0001
1000
0001
1000
,
0001
0001
1000
0000
,
1000
1000
0001
0000
,
0001
0001
1000
1000
,
0001
1000
0001
2002
,
0000
0000
0000
3003
,
;

//---------------dance-single - ----------------
#NOTES:
     dance-single:
     :
     Easy:
     8:
     0.428075,0.532566,0.380666,0.185453,0.000000,307.000000,268.000000,39.000000,19.000000,0.000000,0.000000,0.428075,0.532566,0.380666,0.185453,0.000000,307.000000,268.000000,39.000000,19.000000,0.000000,0.000000:
0000
0000
0000
0000
,
0000
0000
0000
0000
,
0000
1000
0010
0001
,
0200
1000
0000
1300
,
0000
0001
0010
1000
,
0200
0001
0000
0301
,
0000
1000
0010
0001
,
0200
1000
0000
1300
,
0101
0000
1100
0000
,
1000
0001
0100
0010
,
1001
0000
0010
0200
0000
0000
0300
0000
,
0001
0000
1000
0000
0100
0001
0100
0000
,
0001
0100
1000
0100
,
0010
1000
0010
0001
,
0000
1000
0100
1000
,
0000
0001
0100
0001
,
0010
0101
0010
1100
,
0010
0000
0100
1000
0001
0000
0110
0000
,
1000
0100
0010
0000
0001
0000
0100
0000
,
1000
0100
0010
0000
0100
0000
0100
0000
,
1000
0100
0010
0000
0001
0000
0100
0000
,
1000
0100
0001
0100
,
0001
0100
0101
0000
,
1000
0100
1100
0000
,
0001
0010
1000
0100
,
0001
0001
1000
0001
,
1001
0000
0000
0110
0000
0000
0000
0000
,
0100
0000
0010
0000
0001
0100
1000
0000
,
0100
0100
0001
0001
,
1000
0010
0001
0010
,
0100
0000
0010
0000
0001
1000
0100
0000
,
0010
0001
0100
0001
,
0010
1000
0100
1000
,
0001
0001
1000
1000
,
0120
0000
1000
1030
,
0001
0101
1000
1100
,
0110
1001
0110
1001
,
0100
0001
0100
1000
,
0100
0010
1000
0000
0010
0000
0001
0000
,
0110
1001
0010
0100
,
0010
0001
0010
1000
,
0010
1001
0010
1001
,
1000
0001
0010
0000
1000
0000
0110
0000
,
2000
0010
3002
0010
,
0203
1000
0302
0013
,
0200
1000
1000
1000
,
0001
0001
0001
0001
,
1000
1000
0001
0301
,
2002
0000
0000
3003
,
0110
0002
0000
2000
0000
0000
3003
0000
,
0001
0010
1000
0010
,
0100
0000
0010
0000
1000
0001
0100
0000
,
0010
1000
0100
1000
,
0010
0001
0100
0001
,
1000
1000
0001
0001
,
0120
0000
0001
0031
,
1000
1100
0001
0101
,
0110
1001
0110
1001
,
0100
1000
0100
0001
,
0100
0010
0001
0000
0010
0000
1000
0000
,
0110
1001
0010
0100
,
0010
1000
0010
0001
,
0010
1001
0010
1001
,
0001
1000
0010
0000
0001
0000
0110
0000
,
0000
0001
0010
1000
,
0200
0001
0000
0301
,
0000
1000
0010
0001
,
0200
1000
0000
1300
,
0010
0001
0100
1000
,
0010
0001
0100
1000
,
0010
0101
0010
1100
,
0001
1000
0100
0000
0010
0000
2002
0000
,
0000
0000
0000
3003
,
;

//---------------dance-single - ----------------
#NOTES:
     dance-single:
     :
     Medium:
     11:
     0.634443,0.603575,0.761332,0.195213,0.000000,455.000000,377.000000,78.000000,20.000000,0.000000,0.000000,0.634443,0.603575,0.761332,0.195213,0.000000,455.000000,377.000000,78.000000,20.000000,0.000000,0.000000:
0000
0000
0000
0000
,
0000
0000
0000
0000
,
0001
0100
0010
0100
0001
0100
0000
0110
,
0000
0011
0000
0101
0000
0010
0100
0000
,
1000
0100
0010
0100
1000
0100
0000
0110
,
0000
1010
0000
1100
0000
0010
0100
0000
,
0001
0100
0010
0100
0001
0100
0000
0110
,
0000
0011
0000
0101
0000
0010
0100
0000
,
0001
0100
0002
0000
1003
0100
2000
0000
,
3010
0010
0100
0010
0100
0000
1001
0000
,
0010
0000
0100
0020
0000
0000
0130
0000
,
0010
1000
0001
0100
0010
0000
1010
0000
,
1000
0001
0010
0000
0001
1000
0010
0000
,
0100
0001
0010
1000
0010
0100
0010
0000
,
0010
0001
0100
0000
0002
0000
1003
0000
,
0010
1000
0100
0000
2000
0000
3001
0000
,
1100
1010
0101
0011
,
0100
1000
0010
0001
0010
0000
0110
0000
,
0001
0010
0100
1000
0020
0000
0130
0000
,
0001
0010
0100
1000
0010
0100
0010
0000
,
0001
0010
0100
1000
0020
0000
0130
0000
,
0010
0101
0010
1100
,
0010
1000
0100
0000
0010
0001
0100
0000
,
0010
1000
0100
0010
0001
0100
0010
0000
,
1001
0100
1001
0010
,
1001
0101
1100
0110
,
1001
0000
0100
0010
0000
0100
1000
0000
,
1010
0000
0101
0000
1000
0100
0001
0000
,
0010
0001
0010
0000
1000
0010
1000
0000
,
0001
0100
0100
0000
1000
0100
0100
0000
,
0010
0001
0100
1000
0100
0001
0010
0000
,
0101
0000
1100
0000
0010
0100
1000
0000
,
1010
0000
0011
0000
0010
0100
0001
0000
,
1000
0100
0001
0100
1000
0010
0001
0010
,
0200
0000
0001
0301
,
1010
0101
1100
0011
,
1100
0101
1100
0101
,
0010
1000
0100
0000
0010
0001
0100
0000
,
0010
0100
0001
0010
0100
1000
0010
0000
,
0101
0000
0011
0000
0100
1000
0010
0000
,
0100
0010
1000
0100
0100
0000
1001
0000
,
0110
1001
0110
1001
,
0001
1000
0100
0010
0001
0000
0110
0000
,
0002
0010
2003
0010
,
3200
0001
2300
3010
,
0200
0001
0001
0001
,
1000
1000
1000
1000
,
0001
0001
1000
1300
,
1001
0000
0000
0100
0000
0010
0100
0000
,
0110
1100
0000
0202
0000
0000
0303
0000
,
1000
0100
0100
0000
0001
0100
0100
0000
,
0010
1000
0100
0001
0100
1000
0010
0000
,
1100
0000
0101
0000
0010
0100
0001
0000
,
0011
0000
1010
0000
0010
0100
1000
0000
,
0001
0100
1000
0100
0001
0010
1000
0010
,
0200
0000
1000
1300
,
0011
1100
0101
1010
,
0101
1100
0101
1100
,
0010
0001
0100
0000
0010
1000
0100
0000
,
0010
0100
1000
0010
0100
0001
0010
0000
,
1100
0000
1010
0000
0100
0001
0010
0000
,
0100
0010
0001
0100
0100
0000
1001
0000
,
0110
1001
0110
1001
,
1000
0001
0100
0010
1000
0000
0110
0000
,
1000
0100
0010
0100
1000
0100
0000
0110
,
0000
1010
0000
1100
0000
0010
0100
0000
,
0001
0100
0010
0100
0001
0100
0000
0110
,
0000
0011
0000
0101
0000
0010
0100
0000
,
1000
0100
0001
0100
1000
0100
0001
0100
,
1000
0010
0001
0010
1000
0010
0001
0010
,
1000
0100
2000
0000
3001
0100
0002
0000
,
0013
0010
0100
0010
0100
0000
2002
0000
,
0000
0000
0000
3003
,
;

//---------------dance-single - ----------------
#NOTES:
     dance-single:
     :
     Hard:
     15:
     0.790614,0.887611,0.624683,0.536837,0.317222,567.000000,503.000000,64.000000,55.000000,0.000000,0.000000,0.790614,0.887611,0.624683,0.536837,0.317222,567.000000,503.000000,64.000000,55.000000,0.000000,0.000000:
0000
0000
0000
0000
,
0000
0000
0000
0000
,
1001
0100
0001
0100
2000
0100
3100
0010
,
0100
1000
0010
0100
0010
0001
0110
0000
,
1001
0100
1000
0100
0002
0100
0103
0010
,
0100
0001
0010
0100
0010
1000
0110
0000
,
1001
0100
0001
0100
2000
0100
3100
0010
,
0100
1000
0010
0100
0010
0001
0110
0000
,
1100
0001
0100
0000
0101
1000
0100
0000
,
1010
0000
0000
0000
0101
0000
0000
0000
0010
0000
0001
0000
1000
0000
0010
0100
,
0010
0000
0000
0000
0100
0000
0020
0000
0000
0000
0000
0000
0130
0000
0010
1000
,
0010
0001
1000
0100
0001
0010
0011
0000
,
0001
1000
0010
0100
0001
1000
0100
1000
,
0001
0002
1000
2003
3001
1000
1001
0000
,
0010
1000
0100
1000
0010
0001
0100
0001
,
0010
1000
0001
0100
0010
1000
0100
0000
,
0101
0001
0011
0000
1100
1000
1010
0000
,
0100
0001
0010
1000
0110
0000
1001
0000
,
1000
0010
0100
0001
0010
0010
0100
0000
,
1000
0010
0100
0001
0010
0100
0110
0000
,
1000
0010
0100
0001
0010
0010
0100
0100
,
0011
1100
1010
0101
,
0010
0001
0100
0001
0010
1000
0100
1000
,
0010
0001
1000
0100
0001
0010
0100
0000
,
1002
0103
2001
3010
,
1001
1100
0101
0110
,
1001
1000
0100
0020
0000
0130
1000
0000
,
0011
0001
0101
0000
1010
1000
1100
0000
,
0010
0000
0001
0010
0002
0000
1003
0010
2000
0000
3001
0100
0002
0000
1003
0100
,
2000
3100
0110
0000
0001
0100
0110
0000
,
0010
1000
0100
0001
0100
1000
0010
0000
,
1100
0000
0000
0200
0001
0000
0000
0301
0100
0000
1000
0000
0010
0000
0000
0000
,
0011
0000
0000
0020
1000
0000
0000
1030
0010
0000
0001
0000
1000
0000
0000
0000
,
0001
0100
1000
0100
0001
0010
1000
0010
,
0210
0000
0000
0000
1000
1000
1300
0000
,
0011
0000
0000
0020
0100
0000
0000
0230
1000
0000
0000
2300
0010
0000
0000
3020
,
0100
0000
0000
0230
1000
0000
0000
2300
0100
0000
0000
3100
0001
0000
0000
0000
,
0010
0002
0100
0103
0010
2000
0100
3100
,
0010
0100
1000
0010
0100
0001
0011
0000
,
1100
0000
0000
2000
0010
0000
0000
3020
0100
0000
0000
0130
0001
0000
0000
0000
,
0010
0100
0010
0001
0100
0010
1001
0000
,
0010
0000
1000
0200
1000
0000
0000
0000
0310
0000
0001
0100
0002
0000
0000
0000
,
1003
0001
0100
0010
1001
0000
0110
0000
,
2000
0000
0000
0000
3010
0010
0000
0000
0100
0001
1000
0200
0000
0000
0310
0100
,
0020
0000
0000
0000
0031
0001
0000
0000
0100
0002
0100
0000
0013
0100
0010
0000
,
1200
0000
1000
0000
1000
1000
1000
0000
,
0001
0000
0001
0000
0001
0001
0001
0000
,
1000
1000
1000
0000
0001
0001
0301
0000
,
1001
0000
0000
0100
0000
0010
0100
0000
,
0110
0101
0000
2200
0000
0000
3300
0000
,
0001
0100
0110
0000
1000
0100
0110
0000
,
0010
0001
0100
1000
0100
0001
0010
0000
,
0101
0000
0000
0200
1000
0000
0000
1300
0100
0000
0001
0000
0010
0000
0000
0000
,
1010
0000
0000
0020
0001
0000
0000
0031
0010
0000
1000
0000
0001
0000
0000
0000
,
1000
0000
0100
0001
0100
0000
1000
0010
1000
0000
0010
0001
0010
0000
1000
0001
,
1000
0000
0100
0000
0001
0000
0100
0000
0010
0001
0100
0010
1000
0100
0010
0001
,
1000
0000
0000
0020
0100
0000
0000
0230
0001
0000
0000
0302
0010
0000
0000
0023
,
0100
0000
0000
0230
0001
0000
0000
0302
0100
0000
0000
0103
1000
0000
0000
0000
,
0010
2000
0100
3100
0010
0002
0100
0103
,
0010
0100
0001
0010
0100
1000
1010
0000
,
0101
0000
0000
0002
0010
0000
0000
0023
0100
0000
0000
0130
1000
0000
0000
0000
,
0010
0100
0010
1000
0100
0010
1001
0000
,
0010
0000
0001
0200
0001
0000
0000
0000
0310
0000
1000
0100
2000
0000
0000
0000
,
3001
1000
0100
0010
1001
0000
0110
0000
,
1001
0100
1000
0100
0002
0100
0103
0010
,
0100
0001
0010
0100
0010
1000
0110
0000
,
1001
0100
0001
0100
2000
0100
3100
0010
,
0100
1000
0010
0100
0010
0001
0110
0000
,
0010
0000
1000
0100
1000
0000
0001
0100
0001
0000
0010
0001
0010
0000
0100
1000
,
0100
0000
1000
0010
1000
0000
0100
0010
0100
0000
1000
0001
1000
0000
0001
0010
,
0001
0000
0100
0001
0200
0000
0000
0000
1300
0000
0100
1000
0200
0000
0000
0000
,
0310
0000
1000
0100
0010
0000
0001
0100
0010
0000
0000
0000
2002
0000
0000
0000
,
0000
0000
0000
3003
;

//---------------dance-double - ----------------
#NOTES:
     dance-double:
     :
     Easy:
     9:
     0.419709,0.497062,0.351384,0.517315,0.000000,301.000000,265.000000,36.000000,53.000000,0.000000,0.000000,0.419709,0.497062,0.351384,0.517315,0.000000,301.000000,265.000000,36.000000,53.000000,0.000000,0.000000:
00000000
00000000
00000000
00000000
,
00000000
00000000
00000000
00000000
,
00000000
00010000
00100000
01000000
,
20000000
01000000
00000000
31000000
,
00000000
00010000
00001000
00000100
,
00000020
00000001
00000000
00000031
,
00000000
00000001
00000100
00001000
,
00020000
00031000
00002000
00013000
,
00001000
01000000
00100000
10000000
,
00010000
10000000
10010000
00000000
,
01000000
00000000
00100000
02000000
00000000
00000000
03000000
00000000
,
00010000
10000000
00010000
00100000
,
00001000
00001000
00010000
00010000
,
00000100
00000010
00000100
00000100
,
00000010
00000001
00000100
00001000
,
00010000
00010000
00001000
00001000
,
00100000
00110000
01000000
11000000
,
00100000
00010000
10010000
00000000
,
00001000
00000100
00000010
00000100
,
00001000
00000001
00001000
00000010
,
00010000
00010000
00001000
00001000
,
01000000
01100000
00100000
01100000
,
10000000
01000000
00010000
00001000
,
00010000
00010000
00001000
00001000
,
00000010
00000011
00000100
00000110
,
00010000
00001000
00011000
00000000
,
01000000
00000000
00000000
02200000
00000000
00000000
03300000
00000000
,
10010000
00000000
01000000
00000000
00010000
10000000
00010000
00000000
,
00100000
01010000
00100000
00001000
,
00010000
00010200
00001000
00000010
,
00001300
00000010
00000101
00000010
,
00002000
00003100
00000002
00000103
,
00002000
00003010
00000200
00010300
,
00200000
20300000
32000000
03020000
,
00002000
00000000
00000000
00033000
,
00000020
00000001
00000230
00000001
,
00000310
00000001
00000100
00001000
,
00020000
00230000
20300000
32000000
,
03100000
01100000
00010000
00001000
,
00000020
00000001
00000230
00000001
,
00001300
00000001
00000100
00001000
,
00010000
00011000
00100000
01100000
,
10000000
11000000
00110000
10010000
,
20000000
00000000
31000000
00000000
00100000
00100000
01000000
00000000
,
00020000
00000000
00031000
00000000
00000010
00000010
00000100
00000000
,
00001000
00000001
00000010
00001000
,
00010000
01000000
10000000
00100000
,
00010000
00001000
00000100
00000001
,
00001001
00000000
00000000
00000000
,
00000110
00000020
00000000
00000200
00000000
00000000
00000330
00000000
,
00000001
00000021
00000100
00001030
,
00010000
00001000
00000100
00000110
,
00002000
00010000
00203000
00010000
,
02300000
00010000
23000000
00010000
,
30200000
00320000
00032000
00003010
,
00000210
00000000
00000001
00000301
,
00000010
00000012
00000100
00000013
,
00000100
00001002
00000103
00001000
,
00020000
00230000
20300000
32000000
,
03010000
00000000
01100000
00000000
00010000
10000000
00010000
00000000
,
02000000
10000000
03200000
10000000
,
00320000
00032000
00003200
00000310
,
00000001
00000101
00001000
00001100
,
00000001
00001000
00000001
00000000
00000110
00000000
00001001
00000000
,
00000000
00001000
00000010
00000100
,
00000002
00000100
00001000
00000103
,
00000010
00000100
00001000
00010000
,
00002000
00010000
00100000
00013000
,
00100000
10000000
01000000
00010000
,
00001000
00000100
00000001
00000010
,
00000100
00001001
00000010
00000110
,
00001000
00010000
00011000
00022000
,
00000000
00000000
00000000
00033000
,
;

//---------------dance-double - ----------------
#NOTES:
     dance-double:
     :
     Medium:
     12:
     0.559147,0.639080,0.653965,0.263538,0.000000,401.000000,334.000000,67.000000,27.000000,0.000000,0.000000,0.559147,0.639080,0.653965,0.263538,0.000000,401.000000,334.000000,67.000000,27.000000,0.000000,0.000000:
00000000
00000000
00000000
00000000
,
00000000
00000000
00000000
00000000
,
00010000
00001000
00010000
00000000
00000100
00001000
00000000
00000011
,
00000000
00001000
00000000
00000011
00000000
00000001
00000100
00000000
,
00001000
00010000
00001000
00000000
01000000
00010000
00000000
10100000
,
00000000
00010000
00000000
10100000
00000000
01000000
00010000
00000000
,
10000000
01000000
10000000
00000000
00010000
00100000
00000000
11000000
,
00000000
00010000
00000000
11000000
00000000
00100000
00001000
00000000
,
00010000
00000100
00020000
00000000
00031000
01000000
00002000
00000000
,
00013000
00001000
00010000
00000100
00000010
00000000
00000000
00000000
,
00000110
00000000
00000010
00000200
00000000
00000000
00000310
00000000
,
00000100
00000010
00000001
00000000
00001000
00000000
00001100
00000000
,
00000001
00000100
00001000
00000000
00001000
00000000
00011000
00000000
,
00010000
01000000
10000000
00000000
00010000
00000000
01010000
00000000
,
00100000
10000000
01000000
00100000
,
00001000
00010000
00001000
00000100
,
00000001
00001100
00000001
00000110
,
00001000
00010000
00001000
00000000
01000000
00200000
00000000
00000000
,
10300000
00010000
10000000
00010000
,
00100000
01000000
10000000
00000000
00010000
00000000
01010000
00000000
,
10000000
01000000
00010000
00000000
00010000
00000000
00011000
00000000
,
00001000
00000100
00000001
00000000
00001000
00000000
00001100
00000000
,
00000010
00000001
00000100
00001000
,
00010000
00011000
00001000
01100000
,
00100000
00010000
01000000
00000000
00100000
10000000
01000000
00000000
,
00100000
01000000
00010000
00001000
00000020
00000000
00000000
00000000
,
00000130
00000000
00001000
00000001
00000000
00000100
00000010
00000000
,
00001100
00000000
00001001
00000000
00000010
00000001
00000100
00000000
,
00000001
00001000
00000100
00000000
00010000
00001000
00100000
00000000
,
00110000
00000000
10010000
00000000
01000000
10000000
00100000
00000000
,
10000000
00010000
00100000
00000000
00001000
00010000
00000100
00000000
,
00001000
00000000
00000010
00000000
00000100
00001000
00010000
00000000
,
00100000
00000000
10000000
00000000
01000000
00010000
00001000
00000000
,
00000010
00000101
00001010
00010100
,
00021000
00000000
00001000
00031000
,
01000000
00011000
00000100
00011000
,
00100000
00011000
00000010
00011000
,
00010000
11000000
10000000
01010000
,
10000000
01000000
00010000
00000000
00001000
00000000
00011000
00000000
,
00102000
00013000
00020010
00031000
,
01002000
00013000
00020100
00031000
,
00010000
00000100
00010000
00000000
00001000
00100000
00001000
00000000
,
00010000
00001000
00000010
00001000
00010000
00000000
00011000
00000000
,
00020000
00000000
01000000
00000000
10030000
10000000
00100000
00000000
,
00002000
00000000
00000100
00000000
00003001
00000001
00000010
00000000
,
00000200
00000001
00000001
00001000
,
00000001
00000001
00001300
00010000
,
02000000
10000000
10000000
00010000
,
13000000
00000000
00000000
00000000
,
01100000
00011000
00000000
00022000
00000000
00000000
00033000
00000000
,
00000010
00000000
00001001
00000000
00000100
00000001
00000010
00000000
,
00000001
00001000
00000010
00000000
00010000
00001000
00100000
00000000
,
02000000
00000000
03100000
00000000
00010000
00001000
00000010
00000000
,
00000200
00000000
00000310
00000000
00001000
00010000
00100000
00000000
,
10100000
10010000
00110000
01001000
,
00012000
00000000
00010000
00013000
,
00021000
01030000
00012000
00003100
,
00021000
00130000
00012000
00003010
,
00001000
00000010
00000001
00000000
00000001
00000100
00001000
00000000
,
00001000
00000100
00000001
00000010
00001000
00000000
00011000
00000000
,
00101000
00011000
00010010
00011000
,
01001000
00010100
00101000
00010010
,
00001000
00010000
00100000
00000000
00010000
00001000
00000010
00000000
,
00001000
00010000
00100000
00010000
00001000
00000000
00011000
00000000
,
00001000
00010000
00001000
00000000
01000000
00010000
00000000
10100000
,
00000000
01010000
00000000
10100000
00000000
10000000
01000000
00000000
,
00010000
00001000
00010000
00000000
00000100
00001000
00000000
00000011
,
00000000
00001100
00000000
00000011
00000000
00000100
00001000
00000000
,
00000001
00000010
00000001
00000000
00001000
00000010
00001000
00000000
,
00010000
00001000
00010000
00000000
00100000
00010000
00100000
00000000
,
01000000
10000000
00200000
00000000
01300000
00010000
00200000
00000000
,
01300000
10000000
00100000
00010000
00001000
00000000
00022000
00000000
,
00000000
00000000
00000000
00033000
,
;

//---------------dance-double - ----------------
#NOTES:
     dance-double:
     :
     Hard:
     15:
     0.757149,0.852106,0.390427,0.614922,0.361145,543.000000,503.000000,40.000000,63.000000,0.000000,0.000000,0.757149,0.852106,0.390427,0.614922,0.361145,543.000000,503.000000,40.000000,63.000000,0.000000,0.000000:
00000000
00000000
00000000
00000000
,
00000000
00000000
00000000
00000000
,
00010000
00001000
00000010
00000100
00002000
00000001
00003001
00000100
,
00000010
00000100
00001000
00010000
00001000
00100000
00100000
00000000
,
00001000
00010000
01000000
00100000
00020000
10000000
10030000
01000000
,
00100000
01000000
00010000
00001000
00010000
00000100
00000100
00000000
,
00010000
00001000
00000100
00000010
00002000
00000001
00003001
00000010
,
00000100
00000010
00001000
00010000
00001000
01000000
01000000
00000000
,
10100000
10000000
01000000
00000000
00110000
00010000
01000000
00000000
,
10000000
00000000
01000000
00000000
00010000
00000000
00000000
00000000
00001000
00000000
00000100
00000000
00000001
00000000
00001000
00000001
,
00001000
00000000
00000000
00000000
00000100
00000000
00000020
00000000
00000000
00000000
00000000
00000000
00000130
00000000
00001000
00000001
,
00001000
00000001
00000010
00001000
00000001
00000100
00000100
00000000
,
00001000
00000001
00000010
00000100
00010000
00001000
01000000
00000000
,
00010000
00020000
10000000
20030000
30010000
10000000
10010000
00000000
,
01000000
00100000
00010000
01000000
00100000
10000000
01000000
00100000
,
00010000
01000000
00001000
00100000
00001000
00000000
00011000
00000000
,
00001000
00001000
00101000
00000000
00010000
00010000
00010010
00000000
,
00001000
00000010
00000001
00001000
00000100
00000020
00000000
00000000
,
00000031
00000100
00000010
00001000
00000100
00000100
00010000
00000000
,
00001000
01000000
00100000
10000000
01000000
01000000
00100000
00000000
,
00010000
10000000
00100000
01000000
00010000
00100000
00001000
00001000
,
00101000
00010010
00101000
00010010
,
00000100
00000010
00000001
00000100
00000010
00001000
00000100
00010000
,
00001000
00010000
01000000
00100000
00010000
10000000
10010000
00000000
,
00120000
00031000
00002010
00013000
,
01100000
01001000
00010100
00000110
,
00001001
00000001
00000100
00000020
00000000
00000130
00000001
00000000
,
00000100
00000010
00000110
00000000
00001000
00010000
00011000
00000000
,
00100000
00000000
00010000
00100000
00020000
00000000
10030000
00100000
20000000
00000000
30010000
01000000
00020000
00000000
10030000
01000000
,
20000000
31000000
01100000
00000000
00010000
00001000
00011000
00000000
,
00001000
00000100
00000001
00000010
00000001
00000100
00001000
00000000
,
00011000
00000000
00000000
00020000
01000000
00000000
00000000
01030000
10000000
00000000
01000000
00000000
00010000
00000000
00000000
00000000
,
00011000
00000000
00000000
00002000
00000100
00000000
00000000
00003100
00000001
00000000
00000100
00000000
00001000
00000000
00000000
00000000
,
00010000
00001000
00010000
00000100
00000010
00000100
00010000
00001000
,
00020000
00000000
00000000
00000000
01000000
01000000
01030000
00000000
,
10100000
00000000
00000000
20000000
01000000
00000000
00000000
32000000
00010000
00000000
00000000
03020000
00001000
00000000
00000000
00032000
,
00000010
00000000
00000000
00003020
00000001
00000000
00000000
00000032
00000100
00000000
00000000
00000103
00001000
00000000
00000000
00000000
,
00010000
00001000
00010000
01000000
00100000
01000000
10000000
00010000
,
00100000
00010000
10000000
01000000
00010000
00001000
00010000
00000000
,
00011000
00000000
00000000
00000020
00000100
00000000
00000000
00000230
00001000
00000000
00000000
00002300
00010000
00000000
00000000
00023000
,
00100000
00000000
00000000
00230000
10000000
00000000
00000000
20300000
01000000
00000000
00000000
31000000
00100000
00000000
00000000
00000000
,
00010000
00000000
00100000
00002000
00100000
00000000
00000000
00000000
00013000
00000000
00000010
00020000
00000010
00000000
00000000
00000000
,
00030100
00010000
00001000
00100000
01000000
00000000
10010000
00000000
,
20000000
00000000
00000000
00000000
30100000
00100000
00000000
00000000
10000000
01000000
00100000
00002000
00000000
00013000
00000100
00000010
,
00000002
00000000
00000000
00000000
00000013
00000010
00000000
00000000
00000001
00000010
00000100
00020000
00000000
00031000
00100000
01000000
,
20000000
00000000
01000000
00000000
00100000
00100000
00100000
00000000
,
30020000
00000000
01000000
00000000
00100000
00100000
00100000
00000000
,
00032000
00000000
00000100
00000000
00000010
00000010
00003010
00000000
,
00001001
00000000
00000000
00000100
00000000
00000010
00000100
00000000
,
00000110
00011000
00000000
02200000
00000000
00000000
03300000
00000000
,
10000000
01000000
01100000
00000000
00010000
00001000
00011000
00000000
,
00001000
00000100
00000001
00000010
00000001
00000100
00001000
00000000
,
00011000
00000000
00000000
00020000
00100000
00000000
00000000
00130000
10000000
00000000
01000000
00000000
00010000
00000000
00000000
00000000
,
00011000
00000000
00000000
00002000
00000010
00000000
00000000
00003010
00000001
00000000
00000100
00000000
00000010
00000000
00000100
00000000
,
00000001
00000001
00000100
00000100
00001000
00001000
00100000
00100000
,
01000000
00000000
10000000
01000000
10000000
00000000
00010000
01000000
00010000
00000000
00100000
00001000
00100000
00000000
00001000
00010000
,
00001000
00000000
00000000
00020000
00000010
00000000
00000000
00030020
00001000
00000000
00000000
00002030
00010000
00000000
00000000
00023000
,
00100000
00000000
00000000
00230000
01000000
00000000
00000000
02300000
00010000
00000000
00000000
03010000
00001000
00000000
00000000
00000000
,
00000010
00000000
00000001
00000200
00000001
00000000
00000000
00000000
00000310
00000000
00001000
00000200
00001000
00000000
00000000
00000000
,
00000310
00000100
00010000
00001000
00100000
01000000
01000000
00000000
,
10010000
00000000
00000000
20000000
01000000
00000000
00000000
32000000
00010000
00000000
00000000
03020000
00001000
00000000
00000000
00032000
,
00000010
00000000
00000000
00003020
00000001
00000000
00000000
00000031
00001000
00000000
00000001
00000000
00001001
00000000
00000000
00000000
,
00000010
00000000
00001000
00000200
00001000
00000000
00000000
00000000
00000310
00000000
00000001
00000200
00000001
00000000
00000000
00000000
,
00000310
00000100
00001000
00010000
00011000
00000000
00011000
00000000
,
00001000
00010000
01000000
00100000
00020000
10000000
10030000
00100000
,
01000000
00000000
00100000
00000000
00010000
00000000
00001000
00000000
00010000
00000000
00000100
00001000
00000100
00000000
00000000
00000000
,
00010000
00001000
00000010
00000100
00002000
00000001
00003001
00000010
,
00000100
00000000
00000010
00000000
00001000
00000000
00010000
00000000
00001000
00000000
01000000
00010000
01000000
00000000
00000000
00000000
,
00100000
00000000
10000000
01000000
10000000
00000000
00010000
01000000
00010000
00000000
00100000
00001000
00100000
00000000
00001000
00010000
,
00001000
00000000
00010000
00000100
00010000
00000000
00000010
00001000
00000010
00000000
00000100
00000001
00000100
00000000
00000010
00000000
,
00001000
00000000
00000100
00020000
00000100
00000000
00000000
00000000
00031000
00000000
00100000
00002000
00100000
00000000
00000000
00000000
,
00103000
00000000
00010000
01000000
00100000
00000000
10000000
01000000
00100000
00000000
00000000
00000000
20020000
00000000
00000000
00000000
,
00000000
00000000
00000000
30030000
,
;

//---------------dance-single - ----------------
#NOTES:
     dance-single:
     :
     Challenge:
     18:
     1.042997,1.505705,0.644204,0.624683,0.751571,748.000000,682.000000,66.000000,64.000000,0.000000,0.000000,1.042997,1.505705,0.644204,0.624683,0.751571,748.000000,682.000000,66.000000,64.000000,0.000000,0.000000:
// measure 0
0000
0000
0000
0000
,  // measure 1
0000
0000
0000
0000
,  // measure 2
0001
1000
0100
1000
0001
0000
0100
0000
0010
0000
1000
0000
0001
0000
2000
0000
,  // measure 3
3100
2000
3010
0200
0301
0020
2030
3010
,  // measure 4
1000
0100
0010
0100
1000
0000
0001
0000
0100
0000
0010
0000
1000
0000
0200
0000
,  // measure 5
0310
0200
1300
0002
0103
0020
2030
3010
,  // measure 6
0100
0001
0010
0001
0100
0000
0010
0000
1000
0000
0001
0000
1000
0000
0020
0000
,  // measure 7
0130
0002
0013
0200
1300
0200
2300
3001
,  // measure 8
0010
0001
1000
0001
0010
0000
0100
0000
1000
0000
0010
0000
0100
0000
0002
0000
,  // measure 9
1003
0000
0200
0000
1300
0000
0020
0000
0130
0001
0010
0100
1000
0010
0100
0000
,  // measure 10
0210
0010
0010
0010
0310
0100
0001
2000
,  // measure 11
0000
0000
0010
0000
0010
0000
0010
0000
3010
1000
0100
0000
1100
0000
0000
0000
,  // measure 12
0102
1000
1000
1000
1003
0010
0100
0020
,  // measure 13
0000
0000
0100
0000
0100
0000
0100
0000
0130
0001
0010
0000
0001
0000
1000
0000
,  // measure 14
1001
0100
0010
0001
0100
0010
1000
0001
,  // measure 15
0010
0000
0001
0000
0100
0000
0010
1000
0200
0000
0000
0000
0010
0000
0310
0000
,  // measure 16
0100
1000
0010
0000
0100
0000
0001
0000
1000
0000
0100
0000
0020
0000
0000
0000
,  // measure 17
0031
0100
0010
1000
0100
0000
0010
0000
0001
0000
2010
0000
3010
0000
0000
0000
,  // measure 18
1000
0000
0100
0010
0001
0000
0100
0010
1000
0000
0001
0000
0100
0000
0010
0000
,  // measure 19
1000
0000
0001
0100
0010
0000
1000
0000
0100
1000
0001
0100
0010
0000
0000
0000
,  // measure 20
0010
0000
1000
0100
0010
0000
0100
0010
0001
0000
1000
0000
0001
0000
0100
0000
,  // measure 21
0010
0000
0100
0001
1000
0000
0100
0000
0010
0001
0100
0010
1000
0000
0001
0000
,  // measure 22
0010
0000
0100
0001
0010
0000
0100
1000
0001
0000
1000
0000
0100
0000
0010
0000
,  // measure 23
0001
0000
0100
0010
1000
0000
0100
0000
0020
0000
0000
0000
0031
1000
0100
1000
,  // measure 24
0020
0000
0130
0001
0100
0000
0020
0000
1030
0100
1000
0000
0001
0000
0100
0000
,  // measure 25
0002
0010
0010
1000
2003
0100
0100
0000
,  // measure 26
3010
0100
0001
1000
0100
0000
0022
0000
0030
0000
0100
0000
0010
0000
0103
0000
,  // measure 27
0001
0010
0100
1000
0010
0000
0100
0001
1000
0000
0100
0000
0010
0000
0001
0000
,  // measure 28
0100
0000
0001
0010
0100
0010
0100
0010
0001
0000
1000
0000
0100
0000
0010
0000
,  // measure 29
0001
1000
0100
0010
0100
0000
1000
0000
0010
0000
0100
0000
0001
0000
0010
0000
,  // measure 30
0100
0000
1000
0000
0010
0000
0100
0000
0001
0010
0100
1000
0001
0000
0000
0000
,  // measure 31
0011
0000
0100
0010
0100
0000
1010
0000
0100
0010
0100
0000
0001
0000
1000
0000
,  // measure 32
1100
0000
0010
0100
0010
0000
0101
0000
0010
0100
0010
0000
1000
0000
0001
0000
,  // measure 33
1000
0100
1000
0010
0100
0000
1001
0000
0010
0000
0100
0000
0001
0000
0000
0000
,  // measure 34
0100
0010
1000
0001
0100
0000
0220
0000
0300
0000
1000
0000
0001
0000
1030
0000
,  // measure 35
1010
0000
1000
0100
0001
0000
1000
0100
0001
0000
1000
0010
0001
0000
0100
0000
,  // measure 36
0010
1000
0100
0110
0011
0100
0010
1000
,  // measure 37
1100
0000
0001
0100
1000
0000
0001
0100
1000
0000
0001
0010
1000
0000
0010
0000
,  // measure 38
0100
0000
0001
0000
0010
0000
0200
0000
0000
0000
1300
0100
0010
0000
0001
0000
,  // measure 39
1001
0000
1000
0001
0010
0000
1000
0001
0100
0000
1000
0001
0010
0000
0100
0000
,  // measure 40
1000
0000
0010
0100
0001
0000
0200
0000
0000
0000
0010
0000
1000
0000
0301
0000
,  // measure 41
0101
0000
1000
0100
0010
0000
0001
0100
0010
0000
1000
0100
0001
0000
0110
0000
,  // measure 42
0000
1100
0011
0101
1010
0100
1001
0000
,  // measure 43
0100
0100
0100
0100
0110
0010
1000
1100
0001
0101
0100
1001
0000
0011
1010
1000
,  // measure 44
0001
0001
0001
0001
0011
0010
0100
1100
1000
1010
0010
0101
0000
1001
0110
0100
,  // measure 45
0001
0000
1000
0100
1000
0000
0001
0100
0001
0000
1000
0010
1000
0000
0001
0010
,  // measure 46
0001
0000
1000
0001
0100
0000
0001
1000
0100
0000
1000
0001
0010
0000
0001
1000
,  // measure 47
0010
0100
0010
0100
0001
0100
0001
0100
0001
1000
0001
1000
0010
1000
0010
1000
,  // measure 48
0100
1000
0001
0100
0010
0000
2020
0000
0030
0000
0100
0000
0001
0000
3010
0000
,  // measure 49
2002
0000
3003
2200
0000
0000
3300
0000
0000
0202
0000
0000
0300
0000
0000
0100
0000
0000
1000
0000
0000
0013
0000
0000
,  // measure 50
0001
0000
0100
0001
1000
0000
0200
0000
0310
0000
0002
0000
1003
0000
0200
0000
,  // measure 51
1300
0000
0100
1000
0010
0000
0100
0000
0001
0010
0001
0000
0100
0000
0000
0000
,  // measure 52
0001
0100
1000
0100
0001
0000
1000
0100
0001
0100
1000
0000
0010
0000
0010
0000
,  // measure 53
1000
0010
0001
0010
1000
0000
0001
0010
1000
0010
0001
0000
0100
0000
0100
0000
,  // measure 54
0002
0000
1003
0100
1000
0000
0002
0000
0103
0010
0100
0000
0012
0000
0000
0000
,  // measure 55
1003
0001
0010
0001
0100
0000
0220
0000
0030
0000
1000
0000
0010
0000
0301
0000
,  // measure 56
1001
0000
0010
0100
1000
0000
0010
0100
1000
0000
0010
0100
1000
0000
0001
0000
,  // measure 57
0100
0001
1000
0110
0101
0001
1000
0010
,  // measure 58
1010
0000
0010
0100
0001
0000
0010
0100
0001
0000
0010
0100
0001
0000
1000
0000
,  // measure 59
0100
0000
0010
0000
0001
0000
2000
0000
0000
0000
3100
1000
0001
0000
0010
0000
,  // measure 60
0011
0000
1000
0100
0001
0000
0001
0100
1000
0000
1000
0100
0001
0000
0010
0000
,  // measure 61
0100
1100
1010
1100
0102
0010
0103
0000
,  // measure 62
0011
0000
0001
0010
1000
0000
1000
0010
0001
0000
0001
0010
1000
0000
0110
0000
,  // measure 63
0000
1001
0110
1010
1100
0001
0101
0000
,  // measure 64
0010
1000
0100
0010
0001
0000
0100
0000
0010
0000
2000
0000
3100
0000
0020
0000
,  // measure 65
0031
2000
3001
0200
0310
0100
1001
0010
,  // measure 66
0001
1000
0100
0010
0001
0000
1000
0000
0010
0000
0200
0000
0301
0000
0020
0000
,  // measure 67
0130
0020
0031
2000
3100
0001
0011
0100
,  // measure 68
1000
0001
0010
1000
0100
0010
0001
0100
0001
1000
0100
0001
0010
0100
0010
1000
,  // measure 69
0001
0100
0010
0001
0010
1000
0100
1000
0010
0001
1000
0001
0100
0010
1000
0100
,  // measure 70
0001
1000
0100
1000
0020
0000
0000
0000
0130
0001
0010
0001
2000
0000
0000
0000
,  // measure 71
3010
1010
0101
0011
1100
0110
1001
0000
;
