#VERSION:0.83;
#TITLE:SEXY PLANET;
#SUBTITLE:;
#ARTIST:Crystal Aliens;
#TITLETRANSLIT:;
#SUBTITLETRANSLIT:;
#ARTISTTRANSLIT:;
#GENRE:;
#ORIGIN:;
#CREDIT:;
#BANNER:SEXY PLANET.png;
#BACKGROUND:SEXY PLANET-bg.png;
#PREVIEWVID:;
#JACKET:SEXY PLANET-jacket.png;
#CDIMAGE:;
#DISCIMAGE:;
#LYRICSPATH:;
#CDTITLE:;
#MUSIC:SEXY PLANET.ogg;
#OFFSET:0.000000;
#SAMPLESTART:54.766998;
#SAMPLELENGTH:20.000000;
#SELECTABLE:YES;
#DISPLAYBPM:180.000000;
#BPMS:0.000=180.905,
4.000=180.255;
#STOPS:;
#DELAYS:;
#WARPS:;
#TIMESIGNATURES:0.000=4=4;
#TICKCOUNTS:0.000=4;
#COMBOS:0.000=1;
#SPEEDS:0.000=1.000=0.000=0;
#SCROLLS:0.000=1.000;
#FAKES:;
#LABELS:0.000=Song Start;
#BGCHANGES:;
#KEYSOUNDS:;
#ATTACKS:
;

//---------------dance-single - ----------------
#NOTEDATA:;
#CHARTNAME:;
#STEPSTYPE:dance-single;
#DESCRIPTION:;
#CHARTSTYLE:;
#DIFFICULTY:Beginner;
#METER:3;
#RADARVALUES:0.129420,0.177313,0.011920,0.000000,0.000000,76.000000,75.000000,1.000000,0.000000,0.000000,0.000000,0.000000,0.000000,0.000000,0.129420,0.177313,0.011920,0.000000,0.000000,76.000000,75.000000,1.000000,0.000000,0.000000,0.000000,0.000000,0.000000,0.000000;
#CREDIT:;
#DISPLAYBPM:181.000000;
#NOTES:
0000
0000
0000
0000
,
0000
0000
0000
0000
,
0000
0000
0000
0000
,
0001
0000
0000
0000
,
0010
0000
0000
0000
,
0100
0000
0000
0000
,
1000
0000
0000
0000
,
0001
0000
0000
0000
,
1000
0000
0000
0000
,
0010
0000
0000
0000
,
0100
0000
0000
0000
,
1000
0000
0000
0000
,
0001
0000
0000
0000
,
0100
0000
0000
0000
,
0010
0000
0000
0000
,
0100
0000
0000
0000
,
0010
0000
0010
0000
,
1000
0000
1000
0000
,
0001
0000
0001
0000
,
1000
0000
1000
0000
,
0001
0000
1000
0000
,
0000
0010
0000
0010
,
0000
0100
0000
0100
,
0000
0001
0000
0001
,
0000
1000
0000
1000
,
1000
0000
0000
0000
,
0001
0000
0000
0000
,
0100
0000
0000
0000
,
0001
0000
0000
0000
,
0100
0000
0000
0000
,
0100
0000
0000
0000
,
0010
0000
0000
0000
,
1000
0000
0000
1001
,
0000
0000
0000
0000
,
0100
0000
0000
0000
,
1000
0000
0000
0000
,
1000
0000
0000
0000
,
0001
0000
0000
0000
,
0001
0000
0000
0000
,
0100
0000
0000
0000
,
0100
0000
0000
0000
,
0000
0000
0001
0000
,
0000
1000
0000
0000
,
0000
0001
0000
0000
,
0000
1000
0000
0000
,
0000
0001
0000
0001
,
0000
1000
0000
0000
,
0000
0001
0000
0000
,
0000
0001
0000
0000
,
0000
1000
0000
0000
,
0000
0000
1000
0000
,
1000
0000
0001
0000
,
0001
0000
1000
0000
,
1000
0000
0001
0000
,
0000
0000
0100
0000
,
0100
0000
0010
0000
,
0010
0000
0100
0000
,
0100
0000
0001
0000
,
1000
0000
0010
0000
,
0100
0000
1000
0000
,
0000
0000
0000
0000
;

//---------------dance-single - ----------------
#NOTEDATA:;
#CHARTNAME:;
#STEPSTYPE:dance-single;
#DESCRIPTION:;
#CHARTSTYLE:;
#DIFFICULTY:Easy;
#METER:7;
#RADARVALUES:0.400179,0.531940,0.405288,0.000000,0.000000,235.000000,201.000000,34.000000,0.000000,0.000000,0.000000,0.000000,0.000000,0.000000,0.400179,0.531940,0.405288,0.000000,0.000000,235.000000,201.000000,34.000000,0.000000,0.000000,0.000000,0.000000,0.000000,0.000000;
#CREDIT:;
#DISPLAYBPM:181.000000;
#NOTES:
0000
0000
0000
0000
,
0000
0000
0000
0000
,
0000
0000
0000
0000
,
0001
0000
0001
0000
,
0010
0010
0010
0000
,
0100
0000
0000
0000
,
1000
0000
0000
0000
,
0001
1000
0001
0000
,
0110
1001
0110
1001
,
0110
1000
0100
1000
,
0110
0001
0100
0001
,
1000
0010
0001
0100
,
0001
0010
1000
0100
,
1001
0010
0001
0100
,
1001
0010
1000
0100
,
0001
0000
0000
0000
,
1001
0110
1001
0110
,
1000
1000
1000
1000
,
0001
0001
0001
0110
,
1000
0010
1001
0100
,
0001
0010
1000
0000
,
0010
0010
0010
0010
,
0100
0100
0100
1001
,
1000
0010
0110
1000
,
0001
0000
1001
0110
,
1000
1000
1000
1000
,
0001
0001
0001
0001
,
1000
0100
1000
0100
,
0010
0001
0010
0001
,
0010
0010
0010
0010
,
0100
0100
0100
0100
,
0001
0010
1000
0100
,
1000
0100
0001
0000
,
1000
1000
0000
0000
0001
0000
0000
0000
,
0100
0000
0010
0000
,
1000
0100
0001
0000
1000
0000
0000
0000
,
0000
1000
0000
1000
0000
1000
0000
0000
,
0001
0001
0000
0000
1000
0000
0000
0000
,
0001
0001
1000
0000
,
1000
0010
0001
0000
1000
0000
0000
0000
,
0100
1000
0110
1001
,
0000
0010
0000
0000
0001
0000
0000
0100
,
0000
1000
0100
0001
,
0010
1000
0100
0001
,
0010
1000
0010
0001
,
0100
1000
0010
0001
,
0000
1001
0010
1000
,
0001
0110
1000
0010
,
0100
0001
0010
1000
,
0100
1001
0110
1001
,
0110
1000
1000
1000
,
1000
0001
0001
0001
,
0110
1000
0100
0010
,
1001
0001
0100
1000
,
0000
0100
0100
0100
,
0100
0001
0001
1000
,
1000
0010
1001
0110
,
0001
0110
1001
0010
,
1000
0001
0110
0100
,
1001
0100
1000
0000
,
0000
0000
0000
0000
;

//---------------dance-single - ----------------
#NOTEDATA:;
#CHARTNAME:;
#STEPSTYPE:dance-single;
#DESCRIPTION:;
#CHARTSTYLE:;
#DIFFICULTY:Medium;
#METER:8;
#RADARVALUES:0.415505,0.496478,0.274165,0.000000,0.000000,244.000000,221.000000,23.000000,0.000000,0.000000,0.000000,0.000000,0.000000,0.000000,0.415505,0.496478,0.274165,0.000000,0.000000,244.000000,221.000000,23.000000,0.000000,0.000000,0.000000,0.000000,0.000000,0.000000;
#CREDIT:;
#DISPLAYBPM:181.000000;
#NOTES:
0000
0000
0000
0000
,
0000
0000
0000
0000
,
0000
0000
0000
0000
,
0100
0010
0000
0000
0000
0000
0000
0000
,
0000
0010
0000
0010
0000
0010
0000
0000
,
0000
0100
0000
0000
0000
0100
0000
0000
,
0000
1000
0000
0001
0000
1000
0000
0000
,
0010
1000
0100
0001
1000
0000
0000
0000
,
0001
0001
0001
0100
,
0011
0001
0100
1000
,
1010
0001
0100
1000
,
0110
0001
0100
1000
,
0011
0000
1100
0000
,
1010
1000
0100
0001
,
0110
1000
0100
0001
,
0011
0000
0000
0000
,
1001
0110
1001
0110
,
1000
0000
0100
0000
0010
0000
0010
0001
,
1000
0100
0010
1000
,
0001
0000
0100
0000
0010
0000
0010
1000
,
0001
0100
1000
0000
,
0001
0000
0010
0000
1000
0000
1000
0100
,
0001
0010
1000
0100
,
0001
0100
1000
0010
,
0001
0000
1100
0101
,
1000
1000
1000
1000
,
0001
0001
0001
0001
,
1000
1000
0000
0000
1000
1000
0000
0000
,
0001
0001
0000
0000
0001
0001
0000
0000
,
0010
0010
0010
0010
,
0100
0100
0100
0100
,
1000
1000
0000
0000
0001
0001
0000
0000
,
0010
0010
0010
0000
0100
0000
0000
0000
,
1000
0000
0001
0000
1000
0100
0001
0000
,
0000
1000
0000
1000
0000
1000
0000
0000
,
0001
0100
0100
0000
1000
0010
0010
0000
,
0000
0001
0000
0001
0000
0001
0000
0000
,
0010
0000
1000
0000
0010
0001
1000
0000
,
0000
0100
0000
0100
0000
0100
0000
0000
,
0010
1000
0001
0000
0010
1000
0001
0000
,
1000
1000
0001
0001
0010
0000
0100
0000
,
0000
1000
0001
1000
1000
0000
0000
0001
,
1000
0001
0001
0000
0100
0000
1000
0000
,
0010
0101
1000
0010
,
0001
1100
0010
0001
,
0100
1010
0000
0101
,
0000
1000
0100
0001
,
0010
1100
0001
0010
,
1000
0100
0000
0000
,
0000
1001
0110
1001
,
0110
1000
0010
0001
,
0100
1000
0010
0000
0001
0000
0100
0000
,
1000
0001
0010
1000
,
0100
0001
0010
0000
1000
0000
0100
0000
,
0000
0010
0100
1000
,
0001
0100
1000
0000
0001
0000
1000
0000
,
0010
0001
1000
0100
,
0001
0000
1000
0100
0000
0000
0001
0010
,
0000
0000
0100
0010
0000
0000
0001
1000
,
0000
0000
0100
0000
,
0000
0000
0000
0000
;

//---------------dance-single - ----------------
#NOTEDATA:;
#CHARTNAME:;
#STEPSTYPE:dance-single;
#DESCRIPTION:;
#CHARTSTYLE:;
#DIFFICULTY:Hard;
#METER:11;
#RADARVALUES:0.509164,0.496478,0.441049,0.000000,0.000000,299.000000,262.000000,37.000000,0.000000,0.000000,0.000000,0.000000,0.000000,0.000000,0.509164,0.496478,0.441049,0.000000,0.000000,299.000000,262.000000,37.000000,0.000000,0.000000,0.000000,0.000000,0.000000,0.000000;
#CREDIT:;
#DISPLAYBPM:181.000000;
#NOTES:
0000
0000
0000
0000
,
0000
0000
0000
0000
,
0000
0000
0000
0000
,
0010
0001
0100
1000
0000
0010
0001
0000
,
0100
1000
0100
1000
0100
1000
0000
0000
,
0000
0011
0000
0000
0010
0001
0000
0000
,
0000
0010
0100
0001
0010
1000
0000
0000
,
0001
0001
0001
0001
0000
1000
0100
0000
,
0011
0000
1010
0000
0001
0010
1000
0000
,
0010
0001
0100
1000
,
0010
0001
0100
1000
,
0000
1001
0110
0101
,
1010
0000
0001
0001
0100
0000
0000
0000
,
0010
1000
0100
0001
,
0010
1000
0100
0001
,
0000
0110
1001
1010
,
0100
0001
0010
0000
0100
1000
0010
0000
,
1010
0000
0011
0000
,
1100
0000
0101
0000
,
1000
0100
0010
0000
0010
0001
0100
0000
,
0100
1000
0001
0000
0001
0100
1000
0000
,
1100
0000
1010
0000
,
0101
0000
0011
0000
,
0001
0010
1000
0000
0001
0010
1000
0000
,
0010
0010
1100
0101
,
1000
0101
1000
0011
,
0001
1010
0001
1100
,
0001
0010
0001
0000
0100
1000
0100
0000
,
0010
0010
1100
0000
,
0001
1100
0001
1010
,
1000
0101
1000
0011
,
0100
1000
0100
0000
0001
0010
0001
0000
,
1000
0100
0010
0000
0110
0000
0000
0000
,
1000
0100
0001
0000
1000
0010
0001
0000
,
0000
1000
0010
0100
1000
0001
0000
0000
,
0010
0010
0010
0010
0000
0100
0010
0000
,
0000
0001
0100
0001
0100
0001
0000
0000
,
0001
0010
1000
0000
0001
0100
1000
0000
,
0000
1000
0010
0100
1000
0001
0000
0000
,
0100
0100
0100
0100
0000
1000
0001
0000
,
1000
0100
1000
0001
0010
0001
0010
0000
,
0000
1000
1000
1000
1000
0000
0000
0001
,
0001
0001
0001
0000
0100
0000
1000
0000
,
0010
0001
0100
1000
,
0010
0000
1001
0110
,
0101
0000
1010
0000
0000
0000
0100
0100
,
0100
1000
0010
0001
,
0100
1000
0010
0001
,
0100
0000
1001
0110
,
1010
0000
0001
0100
0001
0000
0010
1000
,
0010
0000
0100
1000
0000
0000
0010
0001
,
0000
0000
1000
0100
0000
0000
0001
0010
,
0000
0000
0010
0010
0010
0000
1000
1000
,
1000
0000
0001
0001
0001
0000
0100
0100
,
0100
0000
0010
1000
0000
0000
1000
0010
,
0000
0000
0010
0001
0000
0000
0001
0010
,
0000
0000
0010
0010
1000
0000
1000
1000
,
0001
0000
0001
0001
0100
0000
0100
0100
,
0010
0000
0010
1000
0100
0010
1000
0100
,
0010
1000
0000
0000
0001
0000
0000
0000
,
0000
0000
0000
0000
;

//---------------dance-double - ----------------
#NOTEDATA:;
#CHARTNAME:;
#STEPSTYPE:dance-double;
#DESCRIPTION:;
#CHARTSTYLE:;
#DIFFICULTY:Easy;
#METER:5;
#RADARVALUES:0.301412,0.354627,0.023840,0.000000,0.000000,177.000000,175.000000,2.000000,0.000000,0.000000,0.000000,0.000000,0.000000,0.000000,0.301412,0.354627,0.023840,0.000000,0.000000,177.000000,175.000000,2.000000,0.000000,0.000000,0.000000,0.000000,0.000000,0.000000;
#CREDIT:;
#DISPLAYBPM:181.000000;
#NOTES:
00000000
00000000
00000000
00000000
,
00000000
00000000
00000000
00000000
,
00000000
00000000
00000000
00000000
,
00001000
00000000
00010000
00000000
,
00000010
00000000
00000100
00000000
,
00010000
00000000
00001000
00000000
,
00100000
00000000
01000000
00000000
,
00100000
00000000
00001000
00000000
,
00100000
01000000
10000000
00000000
,
00100000
10000000
01000000
01000000
,
00010000
00001000
00000100
00000100
,
00000001
00000100
00001000
00010000
,
01000000
10000000
00010000
00000000
,
00000010
00000001
00000100
00001000
,
00000010
00000001
00000100
00001000
,
00010000
00000000
00000000
00000000
,
00100000
00100000
10000000
01000000
,
00010000
00000000
01000000
00000000
,
10000000
00000000
01000000
00000000
,
00001000
00001000
00010000
00010000
,
00000010
00000010
00000100
00000000
,
00000001
00000000
00000100
00000000
,
00001000
00000000
00000100
00000000
,
00000001
00000001
00000100
00000100
,
00001000
00010000
00000110
00000000
,
00000010
00001000
00000100
00000001
,
00000010
00001000
00000100
00000001
,
00000010
00001000
00000010
00001000
,
00100000
00010000
01000000
00000000
,
00100000
00010000
01000000
10000000
,
00100000
00010000
01000000
10000000
,
00100000
00010000
00100000
00010000
,
00000010
00001000
00000100
00000000
,
00001000
00000000
00010000
00000000
,
00001000
00001000
00010000
00000000
,
00100000
00000000
10000000
00000000
,
01000000
01000000
00010000
00000000
,
00001000
00000000
00000100
00000000
,
00000001
00000001
00000010
00000000
,
00000001
00000000
00001000
00000000
,
00010000
00100000
10000000
00000000
,
00010000
00001000
00010000
00000000
,
00000001
00000100
00000100
00001000
,
00100000
00010000
01000000
10000000
,
01000000
00010000
00100000
01000000
,
00010000
00001000
00000100
00000001
,
00000000
00000010
00000001
00001000
,
00000100
00000010
00001000
00010000
,
00000000
00010000
10000000
01000000
,
01000000
00010000
01000000
00010000
,
01000000
00010000
00001000
00010000
,
00010000
00000100
00000000
00000100
,
00000000
00000001
00000000
00000100
,
00000000
00001000
00000000
00010000
,
00000000
00100000
00100000
10000000
,
10000000
01000000
00000000
01000000
,
00000000
00001000
00000000
00010000
,
00000000
00000010
00000100
00000010
,
00000100
00000001
00000100
00001000
,
00010000
01000000
10010000
00000000
,
00000000
00000000
00000000
00000000
;

//---------------dance-double - ----------------
#NOTEDATA:;
#CHARTNAME:;
#STEPSTYPE:dance-double;
#DESCRIPTION:;
#CHARTSTYLE:;
#DIFFICULTY:Medium;
#METER:7;
#RADARVALUES:0.401882,0.494392,0.345687,0.000000,0.000000,236.000000,207.000000,29.000000,0.000000,0.000000,0.000000,0.000000,0.000000,0.000000,0.401882,0.494392,0.345687,0.000000,0.000000,236.000000,207.000000,29.000000,0.000000,0.000000,0.000000,0.000000,0.000000,0.000000;
#CREDIT:;
#DISPLAYBPM:181.000000;
#NOTES:
00000000
00000000
00000000
00000000
,
00000000
00000000
00000000
00000000
,
00000000
00000000
00000000
00000000
,
00001000
00010000
00001000
00010000
00000000
00000000
00000000
00000000
,
00000000
00000010
00000000
00000010
00000000
00000010
00000000
00000000
,
00000000
00010000
00000000
00000000
00000000
00001000
00000000
00000000
,
00000000
00010000
00000000
00001000
00000000
00010000
00000000
00000000
,
00100000
00000000
00000000
00000000
,
01100000
10010000
01100000
10010000
,
00100000
10000000
01000000
00010000
,
00100000
10000000
01000000
00010000
,
10000000
10000000
00010000
00010000
,
00001000
00001000
00000001
00000000
,
00000010
00000001
00000100
00001000
,
00000010
00000001
00000100
00001000
,
00010000
00000000
00000000
00000000
,
00001001
00000110
00001001
00000110
,
00010000
00010000
10000000
10000000
,
00010000
00010000
01000000
01000000
,
10000000
00010000
00001000
00000000
,
00000001
00001000
00000100
00000000
,
00001000
00001000
00000001
00000001
,
00001000
00001000
00000100
00010000
,
00000010
00001000
00010000
00000000
,
00010000
00001000
00000110
00001001
,
00000010
00001000
00000100
00000001
,
00000010
00001000
00000100
00000001
,
00000010
00001000
00000010
00001000
,
00011000
00110000
01100000
00000000
,
00100000
00010000
01000000
10000000
,
00100000
00010000
01000000
10000000
,
00100000
00010000
00100000
00010000
,
00011000
00001100
00000110
00000000
,
00001000
00001000
00000000
00000000
00010000
00000000
00000000
00000000
,
00001000
00001000
00001000
00000000
00010000
00000000
00000000
00000000
,
00010000
01000000
10000000
00000000
10000000
01000000
00010000
00000000
,
00000000
00100000
00000000
00100000
00000000
00100000
00000000
00000000
,
00010000
00010000
00000000
00000000
00001000
00000000
00000000
00000000
,
00010000
00010000
00010000
00000000
00001000
00000000
00000000
00000000
,
00001000
00000010
00000001
00000000
00000001
00000010
00001000
00000000
,
00000010
00000001
00000110
00001000
,
00000000
00010000
00010000
00010000
00000100
00000000
00000000
00001000
,
00001000
00001000
01000000
00000000
10000000
00000000
01000000
00000000
,
00100000
00010000
01000000
10000000
,
00010000
00001000
00100000
01000000
,
00010000
00000100
00000001
00000000
,
00001001
00000010
00000001
00001000
,
00000110
00010000
00000010
00001000
,
00100000
00000000
00000000
00000000
,
10010000
00011000
00001001
00000110
,
00000001
00000001
00001000
00001000
,
00010000
00010000
00001000
00010000
,
10000000
01000000
00100000
00000000
,
00010000
00001000
00000100
00000000
,
00000010
00000010
00000100
00000100
,
00010000
00010000
00001000
00001000
,
00000010
00001001
00000110
00001000
,
00011000
00100000
01000000
10010000
,
00010000
01100000
00010000
00011000
,
01000000
10000000
00000000
00000000
,
00000000
00000000
00000000
00000000
;

//---------------dance-double - ----------------
#NOTEDATA:;
#CHARTNAME:;
#STEPSTYPE:dance-double;
#DESCRIPTION:;
#CHARTSTYLE:;
#DIFFICULTY:Hard;
#METER:10;
#RADARVALUES:0.519381,0.638328,0.822496,0.000000,0.000000,305.000000,236.000000,69.000000,0.000000,0.000000,0.000000,0.000000,0.000000,0.000000,0.519381,0.638328,0.822496,0.000000,0.000000,305.000000,236.000000,69.000000,0.000000,0.000000,0.000000,0.000000,0.000000,0.000000;
#CREDIT:;
#DISPLAYBPM:181.000000;
#NOTES:
00000000
00000000
00000000
00000000
,
00000000
00000000
00000000
00000000
,
00000000
00000000
00000000
00000000
,
00000010
00000100
00000010
00000100
00000000
00000001
00001000
00000000
,
00000000
00001010
00000000
00000110
00000000
00000101
00000000
00000000
,
00000000
00010100
00000000
00000000
00000000
01001000
00000000
00000000
,
00000000
00010010
00000000
00101000
00000000
00010010
00000000
00000000
,
00010000
00010000
00010000
00100000
00000000
01000000
10000000
00000000
,
00110000
00000000
10100000
00000000
11000000
00010000
01000000
00000000
,
10000000
00010000
00001000
00001001
,
00000001
00001000
00010000
10010000
,
01100000
00010000
01000000
10000000
,
00110000
00000000
00001100
00000000
,
00000001
00001000
00010000
10010000
,
10000000
00010000
00001000
00001001
,
00000110
00000000
00000000
00000000
,
00001001
00010100
01001000
10010000
,
10000000
10000000
00000000
00000000
00010000
00010000
00000000
00000000
,
10000000
10000000
00000000
00000000
00010000
00010000
00000000
00000000
,
10000000
01000000
00100000
00000000
00100000
00010000
00001000
00000000
,
00010000
00001000
00000100
00000000
00000100
00000010
00000001
00000000
,
00000001
00000001
00000000
00000000
00001000
00001000
00000000
00000000
,
00000001
00000001
00000000
00000000
00001000
00001000
00000000
00000000
,
00000001
00000010
00000100
00000000
00000100
00001000
00010000
00000000
,
00001000
00010000
00100000
00000000
10010000
00000000
01100000
00000000
,
00110000
00110000
00011000
00011000
,
00001010
00001010
00011000
00011000
,
00110000
00011000
00001010
00011000
,
00101000
00000000
00010010
00000000
,
01010000
01010000
00011000
00011000
,
00001100
00001100
00011000
00011000
,
01010000
00011000
00001100
00011000
,
01001000
00010100
00011000
00000000
,
00100000
00000000
00000000
00000000
01000000
00010000
00000000
00000000
,
00000000
00011000
00000000
00001010
00000000
00000101
00000000
00000000
,
00000010
00000001
00000010
00000001
00000000
00001000
00000100
00000000
,
00000000
00011000
00000000
10100000
00000000
11000000
00000000
00000000
,
00000000
01000000
00000000
00000000
00100000
00010000
00000000
00000000
,
00000000
00011000
00000000
00001100
00000000
00000011
00000000
00000000
,
00000100
00000001
00000100
00000001
00000000
00000000
00000100
00000000
,
00010000
00010000
00000100
00000100
00010000
00000000
00001000
00000000
,
00000000
00100000
00100000
00100000
00001000
00000000
00000000
00000100
,
00000100
00000100
00001000
00000000
00010000
00000000
01000000
00000000
,
00010000
00100000
00001000
00000100
,
00010000
00100000
01000000
00000000
10000000
00010000
00100000
00000000
,
01010000
00000000
00001010
00000000
,
00010000
01000000
00001000
00000100
,
00010000
01000000
00001000
00000010
,
00000001
00000000
00000000
00000000
,
00001001
00010010
00101000
10010000
,
10000000
10000000
00000000
00000000
00100000
00100000
00000000
00000000
,
01000000
01000000
00000000
00000000
00010000
00010000
00000000
00000000
,
00001000
00001000
00000010
00000000
00000010
00000010
00000001
00000000
,
00000001
00000001
00000100
00000000
00000100
00000100
00001000
00000000
,
00000010
00000010
00000000
00000000
00000001
00000001
00000000
00000000
,
00000100
00000100
00000000
00000000
00001000
00001000
00000000
00000000
,
00010000
00100000
01000000
00000000
01000000
10000000
00100000
00000000
,
00100000
01000000
00010000
00000000
00010000
00001000
00000100
00000000
,
00000100
00000010
00000001
00000100
00000010
00000001
00000100
00000010
,
00000000
00000000
00001000
00000000
,
00000000
00000000
00000000
00000000
;

//---------------dance-couple - ----------------
#NOTEDATA:;
#CHARTNAME:;
#STEPSTYPE:dance-couple;
#DESCRIPTION:;
#CHARTSTYLE:;
#DIFFICULTY:Medium;
#METER:7;
#RADARVALUES:0.345687,0.531940,0.262245,0.000000,0.000000,203.000000,181.000000,22.000000,0.000000,0.000000,0.000000,0.000000,0.000000,0.000000,0.345687,0.496478,0.262245,0.000000,0.000000,203.000000,181.000000,22.000000,0.000000,0.000000,0.000000,0.000000,0.000000,0.000000;
#CREDIT:;
#DISPLAYBPM:181.000000;
#NOTES:
00000000
00000000
00000000
00000000
,
00000000
00000000
00000000
00000000
,
00000000
00000000
00000000
00000000
,
00011000
10000001
00011000
10000001
00000000
00000000
00000000
00000000
,
00000000
00100010
00000000
00100010
00000000
00100010
00000000
00000000
,
01000100
00000000
00000000
00000000
,
10000001
01000100
00000000
00000000
00000000
00000000
00000000
00000000
,
00011000
01000100
10000001
00000000
00011000
00000000
00000000
00000000
,
01100110
10011001
01100110
10011001
,
01100001
10000000
01000000
10000000
,
01100001
00010000
01000000
00010000
,
10000001
00100000
00010000
01000000
,
00010001
00100000
10000000
01000000
,
10000110
00001000
00000100
00001000
,
10000110
00000001
00000100
00000001
,
10001000
00000010
00000001
00000100
,
10000001
00000010
00001000
00000100
,
10100000
00000001
00110000
00000001
,
11000000
00000001
01010000
00000001
,
10000000
01000000
00100001
00000000
00100000
00010000
01000001
00000000
,
01000000
10000000
00010001
00000000
00010000
01000000
10000001
00000000
,
00001010
10000000
00000011
10000000
,
00001100
10000000
00000101
10000000
,
00001000
00000100
10000010
00000000
00000010
00000001
10000100
00000000
,
00000100
00001000
10000001
00000000
00000001
00000100
10001000
00000000
,
00001000
01000101
00001000
01000011
,
00000001
01001010
00000001
01001100
,
00000001
00000010
01000001
00000000
00000100
00001000
01000100
00000000
,
00000010
01000010
00001100
01000000
,
10000000
01010100
10000000
00110100
,
00010000
10100100
00010000
11000100
,
00010000
00100000
00010100
00000000
01000000
10000000
01000100
00000000
,
00100000
00100100
11000000
00000100
,
10000001
10000000
00000000
00000000
00010000
00000000
00000000
00000000
,
01000001
01000000
01000000
00000000
00100000
00000000
00000000
00000000
,
10000001
01000000
00010000
00000000
10000000
01000000
00010000
00000000
,
00000000
10001000
00000000
10001000
00000000
10001000
00000000
00000000
,
10001000
00001000
00000000
00000000
00000001
00000000
00000000
00000000
,
10000100
00000100
00000100
00000000
00000010
00000000
00000000
00000000
,
10001000
00000100
00000001
00000000
00001000
00000100
00000001
00000000
,
01000100
10001000
01100110
10011001
,
00000000
10001000
00010001
10001000
10001000
00000000
00000000
00010001
,
10001000
00010001
00010001
00000000
01000100
00000000
00010001
00000000
,
00100010
10001000
01000100
00010001
,
00100010
10001000
00100010
00010001
,
01000100
10001000
00100010
00010001
,
00000000
10001000
00100010
00010001
,
01000100
10001000
00100010
00010001
,
01000100
00000000
10011001
01100110
,
10101010
00000000
00010001
01000100
00010001
00000000
00100010
10001000
,
00100010
10000000
10000001
10000000
,
10000001
00010000
00010001
00010000
,
01100001
10000000
01000001
00100000
,
10010000
00010001
01000000
10000001
,
00000000
00001000
10001000
00001000
,
10001000
00000001
10000001
00000001
,
10000110
00001000
10000100
00000010
,
00001001
10000001
00000100
10001000
,
00100010
00000000
00100010
10001000
01000100
00100010
10001000
01000100
,
00100010
10001000
00000000
00000000
00010001
00000000
00000000
00000000
;

//---------------dance-solo - ----------------
#NOTEDATA:;
#CHARTNAME:;
#STEPSTYPE:dance-solo;
#DESCRIPTION:;
#CHARTSTYLE:;
#DIFFICULTY:Easy;
#METER:7;
#RADARVALUES:0.383150,0.496478,0.321846,0.000000,0.000000,225.000000,198.000000,27.000000,0.000000,0.000000,0.000000,0.000000,0.000000,0.000000,0.383150,0.496478,0.321846,0.000000,0.000000,225.000000,198.000000,27.000000,0.000000,0.000000,0.000000,0.000000,0.000000,0.000000;
#CREDIT:;
#DISPLAYBPM:181.000000;
#NOTES:
000000
000000
000000
000000
,
000000
000000
000000
000000
,
000000
000000
000000
000000
,
000100
000100
000001
000000
,
001000
001000
001000
000000
,
100000
000000
000001
000000
,
000100
000100
100000
000000
,
000010
010000
000010
000000
,
001100
100001
001100
100001
,
001000
100000
001000
100000
,
000100
000001
000100
000001
,
100000
000100
000001
001000
,
000001
000100
100000
001000
,
100001
000100
000001
001000
,
100001
000100
100000
001000
,
000001
000000
000000
000000
,
100001
001100
100001
001100
,
100000
000001
010000
000010
,
100000
000000
000000
000000
,
001000
000000
000000
000000
,
000001
000000
000000
000000
,
100000
001000
000001
001000
,
001000
000000
000000
000000
,
100000
000000
000000
000000
,
000001
000000
000000
000000
,
100000
100000
100000
100000
,
000001
000001
000001
000001
,
100000
001000
100000
001000
,
000100
000001
000100
000001
,
000100
000100
000100
000100
,
001000
001000
001000
001000
,
000001
000100
100000
001000
,
000001
001000
100000
000000
,
100000
000000
000001
000000
,
001000
000100
000001
100000
,
000001
100000
100000
000001
,
010000
010000
010000
000001
,
100000
000100
001000
000001
,
001000
000100
000001
100000
,
010000
000001
010000
000010
,
001000
100000
001100
100001
,
000000
100000
000001
100000
000001
000000
000000
100000
,
000001
100000
000001
000000
001000
000000
000001
000000
,
000100
100000
001000
000001
,
000100
100000
000100
000001
,
001000
100000
000100
000001
,
000000
100001
000100
100000
,
000001
001100
100000
000100
,
001000
000001
000100
100000
,
001000
100001
001100
100001
,
001100
100000
000001
010000
,
000010
100000
000001
000001
,
001100
100000
001000
000100
,
100001
000001
000100
100000
,
010010
100000
001000
000001
,
001000
001000
000001
100000
,
100000
000100
100001
001100
,
000001
001100
100001
000100
,
100000
000001
001100
001000
,
010010
000001
100000
000000
;

//---------------dance-solo - ----------------
#NOTEDATA:;
#CHARTNAME:;
#STEPSTYPE:dance-solo;
#DESCRIPTION:;
#CHARTSTYLE:;
#DIFFICULTY:Medium;
#METER:8;
#RADARVALUES:0.437643,0.496478,0.238405,0.000000,0.000000,257.000000,237.000000,20.000000,0.000000,0.000000,0.000000,0.000000,0.000000,0.000000,0.437643,0.496478,0.238405,0.000000,0.000000,257.000000,237.000000,20.000000,0.000000,0.000000,0.000000,0.000000,0.000000,0.000000;
#CREDIT:;
#DISPLAYBPM:181.000000;
#NOTES:
000000
000000
000000
000000
,
000000
000000
000000
000000
,
000000
000000
000000
000000
,
100000
000001
000000
000000
000000
000000
000000
000000
,
000000
010000
000000
010000
000000
010000
000000
000000
,
000000
000000
000000
000000
,
000001
100000
000001
000000
000000
000000
000000
000000
,
000100
100000
001000
000001
000000
100000
100000
000000
,
000010
000010
000010
000010
,
010010
000001
000100
100000
,
010010
100000
000100
000001
,
001100
001000
000100
100000
,
000010
000000
000010
000000
010000
000010
100000
000000
,
010010
000001
000100
100000
,
010010
100000
000100
000001
,
001100
001000
000100
100000
,
100001
001100
100001
001100
,
100000
000000
001000
000000
000100
000000
000001
000100
,
010000
001000
000100
100000
,
000001
000000
001000
000000
000100
000000
100000
000100
,
000010
001000
100000
000000
,
000001
000000
000100
000000
100000
000000
100000
001000
,
000001
000100
100000
001000
,
000001
000000
001000
000000
100000
000000
100000
001000
,
000001
000100
100000
000000
,
010000
010000
010000
010000
,
000010
000000
000010
000000
100000
000100
000001
000000
,
000001
000001
000001
000001
,
100000
000000
100000
000000
010000
000100
000010
000000
,
010000
010000
000001
000001
,
100000
000000
000100
000000
000001
000100
100000
000000
,
100000
100000
100000
000001
,
000100
000100
000100
000000
001000
000000
000000
000000
,
100000
000000
000001
000000
100000
001000
000001
000000
,
000000
100000
000000
100000
000000
100000
000000
000000
,
000001
001000
001000
000000
100000
000100
000100
000000
,
000000
000010
000000
000010
000000
000010
000000
000000
,
000100
000000
100000
000000
000100
000001
100000
000000
,
000000
010000
000000
010000
000000
010000
000000
000000
,
000100
100000
000001
000000
000100
100000
000001
000000
,
100000
001000
100001
000010
,
000000
100000
000001
100000
100000
000000
000000
000001
,
100000
000001
000001
000000
000001
000000
000100
000000
,
100000
010010
100000
000100
,
000001
001100
001000
000100
,
100000
000000
000010
000000
000010
000000
010000
000010
,
100000
010010
000001
000100
,
100000
010010
100000
000100
,
001100
001000
000100
100000
,
000000
100001
001100
100001
,
001100
100000
000100
000001
,
001000
100000
000100
000000
000001
000000
001000
000000
,
100000
000001
000100
100000
,
001000
000001
000100
000000
100000
000000
001000
000000
,
000000
100000
001000
000100
,
000001
000100
010000
000000
001000
000000
000100
000000
,
100000
000001
001000
000100
,
100000
000100
000010
000000
001000
000000
000100
000000
,
000100
000000
001000
000100
001000
000000
000001
100000
,
000001
000100
000000
000000
001000
000000
000000
000000
;

//---------------dance-solo - ----------------
#NOTEDATA:;
#CHARTNAME:;
#STEPSTYPE:dance-solo;
#DESCRIPTION:;
#CHARTSTYLE:;
#DIFFICULTY:Hard;
#METER:11;
#RADARVALUES:0.519381,0.567403,0.417208,0.000000,0.000000,305.000000,270.000000,35.000000,0.000000,0.000000,0.000000,0.000000,0.000000,0.000000,0.519381,0.567403,0.417208,0.000000,0.000000,305.000000,270.000000,35.000000,0.000000,0.000000,0.000000,0.000000,0.000000,0.000000;
#CREDIT:;
#DISPLAYBPM:180.000000;
#NOTES:
000000
000000
000000
000000
,
000000
000000
000000
000000
,
000000
000000
000000
000000
,
000100
000010
010000
000100
000000
000010
000100
000000
,
000000
100000
000000
100000
000000
100000
000000
000000
,
000000
000000
000000
000000
,
000100
000010
010000
000100
000000
000000
000000
000001
,
000001
100000
000001
000000
000000
100000
100000
000000
,
000101
000000
100100
000000
000001
000100
100000
000000
,
000100
000000
000001
000000
001000
000001
100000
000000
,
000100
000000
000001
000000
001000
000001
100000
000000
,
100100
000000
000101
000000
010000
000100
000010
000000
,
101000
000000
001001
000000
100000
001000
000001
001000
,
000100
100000
001000
000001
,
000100
000000
100000
000000
001000
100000
000001
000000
,
100100
000101
100001
100100
,
001000
000001
000100
000000
001000
100000
000100
000000
,
100100
000000
000101
000000
,
101000
000000
001001
000000
,
100000
001000
000100
000000
000100
000001
001000
000000
,
001000
100000
000001
000000
000001
001000
100000
000000
,
101000
000000
100100
000000
,
001001
000000
000101
000000
,
000001
000100
100000
000000
000001
000100
100000
000000
,
000100
000100
101000
001001
,
010000
100100
000010
000101
,
010000
100100
000010
000101
,
000001
000100
000001
000000
001000
100000
001000
000000
,
000100
000000
000100
000000
010000
000100
000001
000000
,
000001
001001
100000
101000
,
000001
001001
100000
101000
,
001000
100000
001000
000000
000001
000100
000001
000000
,
100000
001000
000100
010000
000010
000000
000000
000000
,
100000
001000
000001
000000
100000
000100
000001
000000
,
000000
100000
000100
001000
000001
100000
000000
000000
,
000010
000010
000010
000010
000000
000000
000000
000000
,
000000
000001
001000
000100
100000
000001
000000
000000
,
000010
000100
100000
010000
000010
000100
100000
010000
,
000000
000010
000000
000010
000000
000010
000000
000000
,
001000
001000
001000
001000
000000
100000
000001
000000
,
100000
001000
100000
000001
000100
000001
000100
000000
,
000000
010000
010000
010000
010000
000000
000000
000010
,
000010
000010
000010
000000
100000
000000
000001
000000
,
001000
100000
000010
010000
,
000000
000000
100001
001100
,
001001
000000
100100
000000
000000
000000
100000
000001
,
100000
010000
000100
000010
,
000001
001000
100000
010000
,
000100
000010
100001
001100
,
100100
000000
000001
000010
000001
000000
000100
010000
,
000100
000000
001000
100000
000000
000000
000100
000010
,
000000
000000
100000
001000
000000
000000
000010
000100
,
000000
000000
000100
000100
000100
000000
100000
100000
,
100000
000000
000001
000001
000001
000000
001000
001000
,
001000
000000
000100
100000
000000
000000
100000
000100
,
000000
000000
000100
000010
000001
000000
000010
000100
,
100000
000000
000001
000001
100000
001000
100000
100000
,
000001
000000
000001
000001
100000
001000
100000
100000
,
000001
000000
000100
010000
001000
100000
000100
010000
,
001000
100000
000100
100000
000001
000000
000000
000000
;

//---------------dance-single - ----------------
#NOTEDATA:;
#CHARTNAME:;
#STEPSTYPE:dance-single;
#DESCRIPTION:;
#CHARTSTYLE:;
#DIFFICULTY:Challenge;
#METER:15;
#RADARVALUES:0.856554,0.929778,0.619852,0.596012,0.417208,503.000000,451.000000,52.000000,50.000000,0.000000,0.000000,0.000000,0.000000,0.000000,0.856554,0.929778,0.619852,0.596012,0.417208,503.000000,451.000000,52.000000,50.000000,0.000000,0.000000,0.000000,0.000000,0.000000;
#CREDIT:;
#DISPLAYBPM:180.000000;
#NOTES:
0000
0000
0000
0000
,
0000
0000
0000
0000
,
0000
0000
0000
0000
,
0011
0000
0010
0100
1000
0000
1100
0000
0000
0000
0010
0000
0100
0000
0000
0000
,
0001
1000
0010
0110
0000
0100
1001
0000
,
0010
0000
1000
0100
1000
0000
0001
1000
0001
0000
0100
0010
0200
0000
0000
0000
,
0310
0000
0001
0100
0001
0000
2000
0000
0000
0000
0010
0000
3010
0000
0000
0000
,
1010
0000
1000
0010
0100
0000
0101
0000
0000
0000
0001
0000
1000
0000
0000
0000
,
0010
1000
0010
0000
0100
0000
0001
0000
1001
0000
0000
0000
0110
0000
0000
0000
,
0010
0000
0001
0100
0001
0000
1000
0100
1000
0000
0010
0100
0002
0000
0000
0000
,
0013
0000
0001
1000
0001
0000
0020
0000
0000
0000
0100
0000
0130
0000
0000
0000
,
0001
0000
1000
0100
1000
0000
0001
0100
0001
0000
0100
0010
0100
0000
0000
0000
,
0011
0001
1000
0001
0100
0010
1010
0000
,
1000
0000
0100
1000
0001
0000
0100
0010
0100
0000
0001
0010
0002
0000
0000
0000
,
0103
0000
0010
1000
0010
0000
0200
0000
0000
0000
0001
0000
0301
0000
0000
0000
,
0010
0000
0001
1000
0001
0000
1000
0100
0010
0000
0100
0010
0001
0000
0000
0000
,
0101
0001
1000
0100
0010
0100
1100
0000
,
1000
0010
0100
0010
0001
0010
0100
0010
,
1000
0100
0010
0100
0001
0100
0010
0100
,
2000
0010
3001
2000
0100
3001
2000
0010
,
3001
2000
0100
3001
2000
0010
3001
0000
,
0001
0100
0010
0100
1000
0100
0010
0100
,
0001
0010
0100
0010
1000
0010
0100
0010
,
0002
0100
1003
0002
0010
1003
0002
0100
,
1003
0000
0002
0000
0010
0000
1003
0000
0002
0000
0100
0000
1003
0001
1000
0001
,
0010
0000
0001
0100
0000
0000
0100
0010
0000
0000
0010
1000
0000
0000
1000
0001
,
0000
0000
0001
0010
0000
0000
1000
0100
2000
0000
3200
0000
0320
0000
0032
0000
,
0003
0000
0001
1000
0000
0000
0100
0001
0000
0000
0010
1000
0000
0000
1000
0100
,
0000
0000
0001
0010
0000
0000
0100
0010
0200
0000
0320
0000
2030
0000
3002
0000
,
0003
0000
0001
0100
0000
0000
1000
0100
0000
0000
0001
1000
0000
0000
1000
0001
,
0000
0000
0001
1000
0000
0000
0100
0010
0200
0000
0320
0000
2030
0000
3002
0000
,
0003
0000
0001
0100
0000
0000
1000
0001
0000
0000
0100
1000
0000
0000
0100
0010
,
0000
1100
1001
0100
0101
0001
1000
0000
,
1010
1000
0100
0110
0000
0011
0010
0000
,
1000
2010
3001
0201
0301
0012
1003
0000
,
0010
0000
1000
0100
0010
0000
0001
0000
0000
0000
0100
0000
1001
0000
0000
0000
,
0110
0100
0001
0010
0001
1000
1100
0000
,
1001
0100
0001
0011
0000
1100
1000
0000
,
0010
0210
0301
0102
1003
1020
0130
0000
,
0101
0000
1000
0010
0100
0000
0110
0000
0000
0000
1001
0000
0001
0000
0000
0000
,
0100
0001
0100
0000
0010
0000
1000
0000
1100
0000
1010
0000
0011
0000
0000
0000
,
0000
1100
1100
1100
1001
0000
0000
0101
,
0101
0000
0101
0000
1001
0000
0010
1000
0100
0000
0010
0001
0100
0000
0010
1000
,
0200
0000
0000
0000
1300
0000
0001
1000
0100
0000
0020
0000
0000
0000
0001
0000
,
0031
0000
0000
0000
0100
0000
0001
1000
0100
0000
0010
0001
0010
0000
0100
1000
,
0001
0000
1010
0010
0100
0001
0010
0100
,
1100
0000
0000
0000
0010
0000
1000
0001
0100
0000
0001
0010
0100
0000
1000
0010
,
2000
0000
0000
0000
3010
0000
1000
0100
1000
0000
0002
0000
0000
0000
0100
0000
,
0103
0000
0000
0000
0001
0000
1000
0100
1000
0000
0100
0010
0001
0000
0010
0001
,
1000
0000
0011
0001
0101
0100
0110
0010
,
1001
0000
1000
0100
0010
0100
0001
0100
,
0010
0100
1000
0010
0100
0010
0001
0010
,
0100
0010
2000
0100
3001
2000
0010
3001
,
2000
0100
3001
2000
0010
3001
2000
0100
,
3001
0000
0001
0010
0100
0010
1000
0010
,
0100
0010
0001
0100
0010
0100
1000
0100
,
0010
0100
0002
0010
1003
0002
0100
1003
,
0002
0010
1003
0002
0100
1003
0002
0010
,
1003
0000
0000
0000
1000
0100
1000
0100
1000
0010
1000
0010
0100
0001
0100
0001
,
0010
0001
0010
0001
0100
0000
0110
0000
2002
0000
0000
0000
0000
0000
0000
0000
,
3003
0000
0000
0000
;

//---------------dance-solo - ----------------
#NOTEDATA:;
#CHARTNAME:;
#STEPSTYPE:dance-solo;
#DESCRIPTION:;
#CHARTSTYLE:;
#DIFFICULTY:Beginner;
#METER:4;
#RADARVALUES:0.206050,0.390090,0.011920,0.000000,0.000000,121.000000,120.000000,1.000000,0.000000,0.000000,0.000000,0.000000,0.000000,0.000000,0.206050,0.390090,0.011920,0.000000,0.000000,121.000000,120.000000,1.000000,0.000000,0.000000,0.000000,0.000000,0.000000,0.000000;
#CREDIT:;
#DISPLAYBPM:180.000000;
#NOTES:
000000
000000
000000
000000
,
000000
000000
000000
000000
,
000000
000000
000000
000000
,
000010
000000
000000
000000
,
001000
001000
001000
000000
,
001000
000000
000000
000000
,
010000
000000
000000
000000
,
000010
010000
000010
000000
,
001000
001000
001000
001000
,
010000
000000
000000
000000
,
010000
000000
000000
000000
,
000010
000000
000000
000000
,
000010
000000
000000
000000
,
010000
000000
000000
000000
,
010000
000000
000000
000000
,
001000
000000
000000
000000
,
010000
001000
010000
001000
,
001000
000000
000000
000000
,
001000
000000
000000
000000
,
010000
000000
000000
000000
,
010000
000000
000000
000000
,
001000
000000
000000
000000
,
001000
000000
000000
000000
,
010000
000000
000000
000000
,
010000
000000
000000
000000
,
000010
001000
000010
001000
,
001000
001000
010000
010000
,
010000
001000
010000
001000
,
001000
001000
000010
000010
,
000010
001000
000010
001000
,
001000
001000
010000
010000
,
010000
001000
010000
001000
,
001000
001000
001000
000000
,
000010
000000
000000
000000
,
001000
001000
001000
001000
,
010000
000000
000000
000000
,
001000
001000
001000
001000
,
000010
000000
000000
000000
,
000010
000010
000010
000010
,
010000
000000
000000
000000
,
010000
000010
010000
000010
,
000000
001000
001000
001000
001000
000000
000000
001000
,
001000
001000
001000
000000
000000
000000
001000
000000
,
000000
001000
000000
001000
,
000000
000010
000000
000010
,
000000
010000
000000
010000
,
000000
001000
000000
001000
,
000000
000010
000000
000010
,
000000
010000
000000
010000
,
000000
000010
001000
000010
,
001000
001000
000000
000000
,
000000
001000
000000
000000
,
000000
001000
000000
000000
,
000000
000010
000000
000000
,
000000
010000
000000
000000
,
000000
000010
000000
000000
,
000000
010000
000000
000000
,
000000
000010
000000
000000
,
000000
001000
000000
001000
,
010000
000000
010010
000000
;

//---------------dance-solo - ----------------
#NOTEDATA:;
#CHARTNAME:;
#STEPSTYPE:dance-solo;
#DESCRIPTION:;
#CHARTSTYLE:;
#DIFFICULTY:Challenge;
#METER:15;
#RADARVALUES:0.895720,0.969562,0.667533,0.405288,0.464889,526.000000,470.000000,56.000000,34.000000,0.000000,0.000000,0.000000,0.000000,0.000000,0.895720,0.969562,0.667533,0.405288,0.464889,526.000000,470.000000,56.000000,34.000000,0.000000,0.000000,0.000000,0.000000,0.000000;
#CREDIT:;
#DISPLAYBPM:180.000000;
#NOTES:
// measure 0
000000
000000
000000
000000
,  // measure 1
000000
000000
000000
000000
,  // measure 2
000000
000000
000000
000000
,  // measure 3
100100
000000
000100
001000
000010
000000
010000
000000
000002
000000
001000
000000
001003
000000
000000
000000
,  // measure 4
000010
010000
000010
000000
100000
000000
102000
000000
000000
000000
010000
000000
013000
000000
000010
000000
,  // measure 5
000100
000000
000001
001000
000001
000000
000000
000000
000100
000000
100000
001000
100000
000000
000000
000000
,  // measure 6
010100
000000
000100
001000
000010
000000
000120
000000
000000
000000
100000
000000
100030
000000
000000
000000
,  // measure 7
010010
000000
000010
100000
001000
000000
010000
000000
000002
000000
000100
000000
000103
000000
000000
000000
,  // measure 8
000010
000100
000010
000100
000010
010000
000010
010000
000010
001000
000010
001000
000100
000000
000000
000000
,  // measure 9
000010
000000
010000
001000
010000
000000
000010
000000
000001
000000
100000
000100
100000
000000
000000
000000
,  // measure 10
000010
010000
000100
010000
000010
000000
200010
000000
000000
000000
001000
000000
301000
000000
100000
000000
,  // measure 11
001000
000000
010000
000010
010000
000000
000100
000000
100000
000000
000001
000100
000001
000000
001000
000000
,  // measure 12
000010
000000
010000
000100
001000
000000
001002
000000
000000
000000
100000
000000
100003
000000
000000
000000
,  // measure 13
000100
000000
000010
010000
000010
000000
100000
000000
001000
000000
000100
000001
000100
000000
000000
000000
,  // measure 14
000010
010000
001000
010000
000010
000000
200010
000000
000000
000000
000001
000000
300001
000000
010000
000000
,  // measure 15
001000
000000
100000
000010
000100
000000
000001
000000
001000
000000
000100
010000
000010
000000
000000
000000
,  // measure 16
100000
000000
001000
010000
001000
000000
100000
000010
010000
000000
000001
000100
000001
000000
000100
000010
,  // measure 17
010000
000100
000010
000100
010000
001000
000010
001000
,  // measure 18
010000
000100
000010
000100
010000
001000
000010
001000
,  // measure 19
000200
100000
001300
000200
010000
001300
000200
100000
,  // measure 20
001300
000200
010000
001300
000200
100000
001300
000001
,  // measure 21
000010
000100
010000
000100
000010
001000
010000
001000
,  // measure 22
000010
000100
010000
000100
000010
001000
010000
001000
,  // measure 23
000002
000100
000013
000002
001000
000013
000002
000100
,  // measure 24
000013
000000
000002
000000
001000
000000
000013
000000
100000
000100
100000
000100
010000
001000
010000
001000
,  // measure 25
100000
100100
000000
011000
000000
000101
000000
100100
,  // measure 26
000000
000000
011000
000000
000000
000000
000101
000000
000001
000010
000100
000000
100000
000000
000010
000000
,  // measure 27
001000
001100
000000
100100
000000
011000
000000
100001
,  // measure 28
000000
000000
011000
000000
000000
000000
100010
000000
100000
010000
001000
000000
000001
000000
010000
000000
,  // measure 29
000100
100100
000000
010010
000000
101000
000000
011000
,  // measure 30
000000
000000
100010
000000
000000
000000
001100
000000
001000
000010
000001
000000
010000
000000
000100
000000
,  // measure 31
100000
101000
000000
001010
000000
100100
000000
000011
,  // measure 32
000000
100100
001100
001000
100001
010000
000010
000000
,  // measure 33
100100
000100
010000
010020
000000
000100
001030
000000
,  // measure 34
000000
000000
000001
000100
000001
000000
000010
000100
000010
000000
000001
000100
000001
000000
100000
000000
,  // measure 35
110000
100000
000010
000210
000000
010000
000301
000000
,  // measure 36
000000
000000
010000
001000
010000
000000
100000
001000
100000
000000
010010
000000
000001
000000
000000
000000
,  // measure 37
001100
000100
100000
102000
000000
000010
013000
000000
,  // measure 38
000000
000000
010000
000010
010000
000000
100000
000010
100000
000000
010000
000010
010000
000000
001000
000000
,  // measure 39
101000
100000
000001
000102
000000
010000
001003
000000
,  // measure 40
000100
001000
000010
010000
001000
000100
000010
000000
010010
000000
001100
000000
100001
000000
000000
000000
,  // measure 41
000000
110000
110000
110000
100001
000000
000000
000011
,  // measure 42
000011
000000
000011
000000
100001
000000
100000
001000
100000
000000
000100
000000
010000
000000
000001
000010
,  // measure 43
000001
000000
000000
000000
010000
001000
000010
001000
010000
000000
002001
000000
000000
000000
000100
000000
,  // measure 44
003100
000000
100000
000000
000010
000000
000100
000001
100000
000000
001000
000000
010000
000000
000010
001000
,  // measure 45
000010
000000
000000
000000
100000
001000
100000
001000
000100
000000
000001
010000
000002
000000
000010
000000
,  // measure 46
000013
000000
000000
000000
010000
000000
000001
000100
000001
000000
100000
000000
001000
000000
010000
000010
,  // measure 47
010000
000000
000000
000000
001000
000010
001000
010000
001000
000000
100200
000000
000000
000000
000001
000000
,  // measure 48
000301
000000
010000
000000
001000
000000
100000
000001
100000
000000
000010
000000
010000
000000
000100
001000
,  // measure 49
000100
000000
000000
000000
100000
001000
100000
001000
010000
000100
010000
000100
001000
000001
001000
000010
,  // measure 50
010000
000000
000010
000100
010000
000100
000010
001000
,  // measure 51
010000
001000
000010
000100
010000
000100
000010
001000
,  // measure 52
010000
001000
200000
000010
301000
200000
000001
301000
,  // measure 53
200000
000010
301000
200000
000001
301000
200000
000010
,  // measure 54
301000
000000
010000
001000
000010
001000
010000
000100
,  // measure 55
000010
000100
010000
001000
000010
001000
010000
000100
,  // measure 56
000010
000100
002000
100000
003010
002000
010000
003010
,  // measure 57
002000
000000
100000
000000
003001
000000
002000
000000
000010
000000
013000
000000
000100
001000
000100
001000
,  // measure 58
000100
000000
000000
000000
100000
001000
100000
001000
010000
000010
010000
000010
001000
000100
001000
000100
,  // measure 59
100000
000001
100000
000001
000100
000000
000010
000000
200002
000000
000000
000000
000000
000000
000000
000000
,  // measure 60
000000
300003
000000
000000
;
