#TITLE:SEXY PLANET (FROM NONSTOP MEGAMIX);
#SUBTITLE:;
#ARTIST:Crystal Aliens;
#TITLETRANSLIT:;
#SUBTITLETRANSLIT:;
#ARTISTTRANSLIT:;
#GENRE:;
#CREDIT:;
#BANNER:SEXY PLANET (FROM NONSTOP MEGAMIX)-bn.png;
#BACKGROUND:SEXY PLANET (FROM NONSTOP MEGAMIX)-bg.png;
#LYRICSPATH:;
#CDTITLE:;
#MUSIC:SEXY PLANET (FROM NONSTOP MEGAMIX).ogg;
#OFFSET:0.000000;
#SAMPLESTART:24.000000;
#SAMPLELENGTH:20.000000;
#SELECTABLE:YES;
#BPMS:0.000000=180.000000
;
#STOPS:
;
#BGCHANGES:;
#KEYSOUNDS:;
#ATTACKS:;

//---------------dance-single - ----------------
#NOTES:
     dance-single:
     :
     Medium:
     10:
     0.527143,0.618375,0.780000,0.110000,0.000000,369.000000,291.000000,78.000000,11.000000,0.000000,0.000000,0.527143,0.618375,0.780000,0.110000,0.000000,369.000000,291.000000,78.000000,11.000000,0.000000,0.000000:
0000
0000
0000
0000
,
0000
0000
0000
0000
,
0000
0000
0000
0000
,
0000
0000
0000
1000
,
1000
0000
0001
0000
0001
0000
0001
1000
,
0010
0000
0010
0000
0010
0000
0010
0100
,
0001
0000
0001
0000
,
0002
1000
1003
1001
,
0100
0000
0100
0000
0100
0000
0100
0001
,
1000
0000
1000
0000
1000
0000
1000
0010
,
0100
0101
1000
1100
,
0001
0011
1000
1010
,
0100
0101
1100
0101
,
1100
0101
1100
0101
,
1000
0000
1100
0100
0010
0000
0011
0001
,
1000
0010
0100
0000
1000
0010
0100
0000
,
0001
1000
0001
1000
0001
1000
0001
1000
,
0010
0100
0010
0100
0010
0100
0010
0010
,
1000
0001
0100
0010
,
1000
0000
1000
0000
1000
0001
1000
0000
,
0010
0010
0100
0100
,
0001
0011
1100
0011
,
1000
0010
0100
0001
,
0010
0000
0100
0000
0010
0100
0010
0000
,
0001
1000
0001
1000
,
0010
1010
0101
1010
,
0100
0101
0100
0101
,
0100
0101
0100
0101
,
0100
0101
0100
0101
,
1100
0000
0101
0000
1000
0001
0100
0000
,
0010
1010
0010
1010
,
0010
1010
0010
1010
,
0010
1010
0010
1010
,
1100
0000
1010
0000
0100
0001
0100
0001
,
2000
0000
0010
0000
0010
0000
3010
0200
,
0000
0001
0301
1001
,
1000
0000
0010
0000
0100
0000
0001
1000
,
0010
1000
0010
0000
0100
0000
1001
0000
,
2000
0000
3000
1001
,
0200
0000
0300
0110
,
0100
0000
0001
0000
1000
0000
0010
0010
,
0100
0001
0100
0000
0001
0000
1001
0000
,
1000
1000
1000
1000
,
2000
0000
3000
1001
,
0010
0010
0010
0010
,
0020
0000
0030
0110
,
0100
0001
1000
0000
1000
0010
0100
0000
,
1000
0000
1000
0000
1000
0100
0001
0000
,
1000
0010
0100
0000
0001
0100
0010
0000
,
1000
0010
0100
0001
1000
0000
1001
0000
,
1010
0000
0110
0000
,
1010
0000
0110
0000
,
1010
0110
1010
0110
,
1001
2002
3003
1001
,
0001
1000
0010
0100
,
0001
0000
0001
0000
0001
1000
0001
0000
,
0100
0100
0010
0010
,
1000
1100
0011
1100
,
0001
0100
0010
1000
,
0100
0000
0010
0000
0100
0010
0100
0000
,
1000
0001
1000
0001
,
0100
0101
1010
0101
,
0010
1010
0010
1010
,
0010
1010
0010
1010
,
0010
1010
0010
1010
,
0011
0000
1010
0000
0001
1000
0010
0000
,
0100
0101
0100
0101
,
0100
0101
0100
0101
,
0100
0101
0100
0101
,
0011
0000
0101
0000
0010
1000
0010
1000
,
0001
0100
0000
0100
,
0000
2002
0000
0000
,
0000
0000
0000
3003
;

//---------------dance-double - ----------------
#NOTES:
     dance-double:
     :
     Medium:
     9:
     0.432857,0.574000,0.600000,0.110000,0.000000,303.000000,243.000000,60.000000,11.000000,0.000000,0.000000,0.432857,0.574000,0.600000,0.110000,0.000000,303.000000,243.000000,60.000000,11.000000,0.000000,0.000000:
00000000
00000000
00000000
00000000
,
00000000
00000000
00000000
00000000
,
00000000
00000000
00000000
00000000
,
00000000
00000000
00000000
00000000
,
10000000
01000000
00010000
00001000
,
00000100
00000100
00000010
00001001
,
00001100
00000000
00000000
01001000
,
00100000
10000000
00100000
01000000
,
00001000
00000000
00001000
00000000
,
00001000
00000000
00010000
00000000
00001000
00010000
00001000
00010000
,
00000010
00000000
00000000
00000000
00000000
00000100
00000001
00001000
,
00000010
00000000
00000000
00000000
00000000
00010000
00000000
01000000
,
10000000
00000000
00000000
00000000
00000000
00010000
00000000
00000010
,
00000001
00000000
00000000
00000000
00000000
00001000
00000000
00000010
,
00010000
00000000
00001000
00000000
,
01000000
00000000
00100000
00000000
,
10000000
10000000
10000000
10000000
,
10000000
00100000
10000000
00100000
10000000
00100000
01000000
00001000
,
00020000
00000000
00000000
00000000
,
00000000
00000000
00030000
00010100
,
00000100
00001000
00000010
00000100
,
00000001
00001000
00000001
00001001
,
00000100
00000000
00000100
00011000
,
00100000
00011000
00100000
00110000
,
02000000
00000000
00000000
03100000
,
10000000
00000000
00010000
00000000
10000000
00000000
00010000
01000000
,
00001000
01001000
00100000
00101000
,
00001000
00011000
01000000
01001000
,
00001000
00011000
00010000
00010010
,
00001000
00001010
00000100
00000100
,
00000001
00000101
00001000
00001100
,
00000100
00010100
00010000
00011000
,
00010000
00110000
01000000
01010000
,
10000000
11000000
10000000
10010000
,
02000000
00200000
03300000
10010000
,
01000000
00001000
00010000
00000010
,
00002000
00000002
00003003
00000110
,
00000001
00001000
00000010
00000000
,
00001000
00001000
00001000
00000010
,
00020000
00000100
00030100
00010100
,
00001000
01000000
00001000
01000000
,
00100000
01100000
01100000
00000000
,
10000000
01000000
00100000
00001000
,
00010000
00000010
00001000
00000001
,
00000100
00000010
00001000
00000100
,
00010000
00001000
01000000
00100000
,
10000000
10000000
10000000
00000000
10000000
10000000
10000000
00000000
,
10000000
01000000
00010000
00000000
10000000
01000000
00010000
00000000
,
01000000
00010000
00001000
00000100
,
00000020
00000000
00000000
00000030
,
00001001
00000000
00000110
00000000
,
00001001
00000000
00000110
00000000
,
00001001
00000110
00001001
00000110
,
00000010
00000000
00010000
00000000
00001000
00010000
00001000
01000000
,
00020000
00000000
00000000
00000000
,
00000000
00000000
00030000
00110000
,
00001000
00010000
00000010
00000100
,
00000001
00001000
00000001
00001001
,
00000100
00000000
00000100
00011000
,
00100000
00011000
00100000
00110000
,
02000000
00000000
00000000
03100000
,
10000000
00000000
00010000
00000000
10000000
00000000
00010000
01000000
,
00001000
01001000
00100000
00101000
,
00001000
00011000
01000000
01001000
,
00001000
00011000
00010000
00010010
,
00001000
00001010
00000100
00000100
,
00000001
00000101
00001000
00001100
,
00000100
00010100
00010000
00011000
,
00010000
00110000
01000000
01010000
,
10000000
11000000
00010000
01010000
,
11000000
01010000
11000000
01010000
,
00000000
20000000
00000000
00000000
00000000
00000000
30000000
00000000
;

//---------------dance-single - ----------------
#NOTES:
     dance-single:
     :
     Challenge:
     15:
     0.861429,1.054875,0.330000,0.020000,0.300000,603.000000,570.000000,33.000000,2.000000,0.000000,0.000000,0.861429,1.054875,0.330000,0.020000,0.300000,603.000000,570.000000,33.000000,2.000000,0.000000,0.000000:
0000
0000
0000
0000
,
0000
0000
0000
0000
,
0000
0000
0000
0000
,
0000
0000
0000
0000
,
0000
0000
0000
0000
,
0000
0000
0000
0000
,
1000
0010
0100
0001
0010
0100
1000
0001
,
1000
0010
0100
0010
1000
0100
0010
0001
,
0010
0100
1000
0001
1000
0010
0100
0001
,
0010
0100
0010
0001
0100
0010
1000
0001
,
0011
0001
1000
0010
1000
0100
0010
0001
,
0101
0100
0010
1000
0100
0010
0001
1000
,
1100
0100
0010
0100
1000
0001
1000
0010
,
1010
1000
0100
0010
0001
1000
0010
0100
,
0110
0000
0100
0000
0010
0000
1000
0000
0001
0010
0001
0000
1000
0000
0100
0000
,
1001
0000
0010
0000
0100
0000
0001
0000
1000
0100
1000
0000
0001
0000
0010
0000
,
0001
0100
0001
0000
0010
0000
0100
0000
1000
0010
1000
0000
0001
0000
0100
0000
,
0001
0010
0001
0010
0100
1000
0100
1000
0010
0100
0010
0100
0001
1000
0001
1000
,
0100
1000
0001
0000
0010
0000
0100
0000
1000
0000
0010
0000
0100
0000
0010
0000
,
1000
0000
0100
0000
0010
0000
0001
0000
0100
0010
0100
0000
0110
0000
0000
0000
,
0001
1000
0010
0000
1000
0000
0100
0000
0010
0000
0001
0000
0100
0000
0010
0000
,
0100
0000
0001
0000
0010
0000
0100
0000
1000
0010
1000
0000
1001
0000
0000
0000
,
0010
1000
0100
0000
1000
0000
0010
0000
0100
0000
0001
0000
1000
0000
0001
0000
,
0010
0000
0100
0000
1000
0000
0010
0000
0100
0001
0100
0000
0101
0000
0000
0000
,
0001
0010
0100
0000
1000
0000
0010
0000
1000
0000
0100
0000
0010
0000
0001
0000
,
0100
0000
0010
0000
1000
0000
0001
0000
0010
0100
1000
0000
0010
0100
0001
0000
,
0100
0000
0010
0000
1000
0000
0001
0000
1000
0000
0100
0010
0001
0000
0100
0000
,
0001
0000
1000
0000
0001
0000
0010
0000
0100
0000
1000
0010
0100
0000
0001
0000
,
0010
0000
0001
0000
0100
0000
0001
0000
1000
0000
0010
1000
0100
0000
0010
0000
,
0100
0000
0010
0000
0001
0000
0100
0000
0001
0000
1000
0010
0100
0000
0001
0000
,
0010
0000
0100
0000
1000
0000
0010
0000
1000
0000
0100
0010
0001
0000
1000
0000
,
0001
0000
0010
0000
0100
0000
0010
0000
0001
0000
1000
0100
0010
0000
0100
0000
,
1000
0000
0001
0000
1000
0000
0010
0000
0100
0000
0001
1000
0010
0000
0100
0000
,
0001
0010
0100
1000
0010
0100
0001
0000
,
1000
0100
0001
0100
0010
0100
0001
0100
,
1000
0100
1000
0100
0010
0100
1000
0100
,
0001
0100
0010
0100
0010
0100
1000
0100
,
1000
0100
0001
0100
0001
0100
0010
0100
,
1000
0010
0100
0010
0001
0010
1000
0010
,
1000
0010
0100
0010
0001
0010
0001
0010
,
0100
0010
0001
0010
1000
0010
0001
0010
,
1000
1100
1100
0001
1001
0100
0010
0000
,
0110
0010
1000
0100
0010
0100
0010
0001
,
0100
0001
1000
1100
1001
0100
0110
0000
,
1010
0001
1000
0100
0010
0001
0100
0010
,
1000
0001
0010
0110
1100
1000
0101
0000
,
1001
0010
1000
0100
0010
0100
1000
0001
,
1000
0010
0100
0101
0011
0010
0110
0000
,
1100
1000
0001
0010
0100
1000
0001
0000
,
1000
0010
1000
0000
0010
0100
0010
0000
0100
0001
0100
0000
0001
0000
0000
0000
,
0101
0001
1000
0100
1100
1000
0010
0100
,
1010
0001
0010
0100
0011
1000
0001
0010
,
0001
0010
0001
0000
1000
0010
1000
0000
0001
0100
0001
0000
1000
0100
1000
0000
,
0010
0100
0010
0100
0010
1000
0010
1000
0001
1000
0001
1000
0001
0100
0001
0100
,
0010
1000
0100
0000
1000
0000
0001
0000
0010
0000
0100
0000
1000
0000
0001
0000
,
0010
0000
0001
0000
1000
0000
0001
0000
0100
0010
1000
0000
1100
0000
0000
0000
,
1000
0001
0010
0000
0001
0000
0100
0000
0010
0000
1000
0000
0100
0000
0010
0000
,
0100
0000
1000
0000
0001
0000
0100
0000
0001
0010
0001
0000
0101
0000
0000
0000
,
1000
0001
0010
0000
0100
0000
0010
0000
0100
0000
1000
0000
0001
0000
0100
0000
,
0010
0000
1000
0000
0001
0000
0100
0000
0001
1000
0001
0000
0011
0000
0000
0000
,
0100
0010
0100
0000
0001
0000
0010
0000
0100
0000
1000
0000
0010
0000
0100
0000
,
0001
0000
1000
0000
0001
0000
0010
0000
0100
1000
0001
0000
0100
0010
1000
0000
,
0001
0000
1000
0000
0010
0000
0100
0000
0001
0000
1000
0100
0010
0000
0001
0000
,
1000
0000
0001
0000
0010
0000
0100
0000
0010
0000
0001
1000
0010
0000
0100
0000
,
0010
0000
1000
0000
0100
0000
0010
0000
0100
0000
1000
0001
0100
0000
0010
0000
,
0001
0000
0010
0000
1000
0000
0001
0000
0010
0000
0100
1000
0010
0000
0100
0000
,
0010
0000
1000
0000
0100
0000
1000
0000
0001
0000
0010
0100
1000
0000
0001
0000
,
0100
0000
0010
0000
0100
0000
0001
0000
0010
0000
0100
1000
0001
0000
1000
0000
,
0001
0000
0100
0000
0010
0000
1000
0000
0100
0000
1000
0010
0100
0000
0001
0000
,
0010
0000
0100
0000
1000
0000
0001
0000
1000
0000
0001
0100
0010
0000
1000
0000
,
0001
0010
1000
0010
0001
0100
1000
0100
,
0001
1000
0220
0000
0000
0000
0000
0000
,
0000
0000
0000
0330
;

//---------------dance-single - ----------------
#NOTES:
     dance-single:
     :
     Hard:
     12:
     0.698571,0.654750,0.650000,0.110000,0.000000,489.000000,424.000000,65.000000,11.000000,0.000000,0.000000,0.698571,0.654750,0.650000,0.110000,0.000000,489.000000,424.000000,65.000000,11.000000,0.000000,0.000000:
0000
0000
0000
0000
,
0000
0000
0000
0000
,
0000
0000
0000
0000
,
0000
0000
0000
0000
,
1000
0010
0100
0000
0001
0010
0000
0001
,
1000
0000
0010
0100
0000
0001
0010
0100
,
1000
0010
0100
0001
0010
0100
1000
0000
,
0001
0100
0010
1000
0100
0010
0001
0000
,
1000
0001
0100
0000
0010
1000
0000
0001
,
1000
0000
0100
0010
0000
0001
0100
0010
,
1001
0000
0100
0010
1000
0100
0010
0001
,
0110
0000
1000
0001
1000
0010
0100
0001
,
1001
0000
0001
0100
0010
1000
0001
0100
,
0110
0000
0010
0100
0001
0010
0100
1000
,
1100
0000
1000
0001
0101
0000
0100
0010
,
1010
0000
0001
0010
0011
0000
1000
0100
,
1000
0010
0100
0010
1000
0010
0100
0010
,
0100
0001
0010
0001
0100
0001
0010
0001
,
1000
0010
0100
0001
0010
0100
1000
0000
,
0001
0100
0010
2000
0000
0100
3100
0000
,
1000
0001
1000
0010
0100
0001
1000
0000
,
0010
1000
0001
0200
0000
0010
0310
0000
,
0001
0010
0001
0100
0010
1000
0100
0000
,
1000
0001
0100
0020
0000
1000
1030
0000
,
0010
1000
0100
0010
0001
0100
0001
0000
,
0011
1100
0101
1010
,
1000
0001
0101
0000
0001
1000
1100
0000
,
1000
0010
0110
0000
0100
0001
0011
0000
,
0010
0100
1100
0000
0010
0100
0110
0000
,
0001
0010
1001
0000
0100
1000
1010
0000
,
0001
1000
0101
0000
0010
0100
1010
0000
,
1000
0100
1010
0000
0001
0010
1100
0000
,
0001
0100
0110
0000
0010
1000
0101
0000
,
0001
1000
0001
0010
0100
1000
0001
0000
,
0101
0000
0001
1000
0010
1000
0100
0000
,
1000
0001
0100
0000
0110
0000
1001
0000
,
1100
0000
1000
0010
1000
0001
0010
0000
,
0100
1000
0001
0000
0011
0000
1100
0000
,
0101
0000
0010
0100
0001
0010
0100
0000
,
1000
0010
0100
0000
0101
0000
1010
0000
,
1100
0000
1000
0001
0010
0100
1000
0000
,
0001
0100
0110
0000
1001
0000
0100
0000
,
1000
0001
1000
0010
1000
0100
0010
0000
,
0001
0100
0010
2000
0000
0001
3001
0000
,
1000
0001
0010
0100
0010
0001
0100
0000
,
0010
1000
0001
0200
0000
0001
0301
0000
,
0001
1000
0001
1000
0100
0010
0001
0000
,
0100
0001
1000
0020
0000
0100
0130
0000
,
0001
1000
0010
1000
0100
0010
0001
0000
,
0010
0100
0010
0001
0100
0010
1000
0000
,
1010
0001
1000
0000
0101
0010
0100
0000
,
0011
1000
0010
0000
1100
0001
0100
0000
,
0001
0010
0100
0010
0001
0010
0100
0010
,
0100
1000
0010
1000
0100
1000
0010
1000
,
0001
1000
0010
1000
0100
0010
0001
0000
,
1000
0010
0100
0002
0000
0010
0013
0000
,
0001
1000
0001
0100
0010
0100
0001
0000
,
0010
0001
1000
0200
0000
1000
1300
0000
,
0001
1000
0001
0010
0001
1000
0100
0000
,
1000
0010
1000
0002
0000
0100
0103
0000
,
0001
0010
0001
0100
0010
1000
0001
0000
,
0011
1100
1010
0101
,
0010
0001
0101
0000
1000
0100
1100
0000
,
1000
0010
0110
0000
0100
0001
0011
0000
,
0001
1000
1100
0000
1000
0001
0011
0000
,
0100
0010
0011
0000
0010
0100
1001
0000
,
1000
0001
0011
0000
0100
0010
0101
0000
,
0001
0010
1100
0000
1000
0100
1010
0000
,
1000
0010
1100
0000
0001
0100
0110
0000
,
0001
0010
0011
0000
1000
0010
0101
0000
,
0001
0100
1010
0000
1000
0100
1001
0000
,
0010
2002
0000
0000
,
0000
0000
0000
3003
;

//---------------dance-single - ----------------
#NOTES:
     dance-single:
     :
     Easy:
     7:
     0.295714,0.363750,0.170000,0.360000,0.000000,207.000000,190.000000,17.000000,36.000000,0.000000,0.000000,0.295714,0.363750,0.170000,0.360000,0.000000,207.000000,190.000000,17.000000,36.000000,0.000000,0.000000:
0000
0000
0000
0000
,
0000
0000
0000
0000
,
0000
0000
0000
0000
,
0000
0000
0000
0000
,
0000
1000
0000
0000
0010
0000
0000
0100
,
0000
0000
0001
0000
0000
1000
0001
0000
,
0100
0000
0000
0220
0000
0000
0000
0000
,
0000
0000
0000
0330
,
0000
0010
0000
0000
0100
0000
0000
0001
,
0000
0000
1000
0000
0000
0010
0100
0000
,
0202
0000
0000
0303
,
2200
0000
0000
3300
,
0022
0000
0000
0033
,
2020
0000
0000
3030
,
2002
3003
0220
0330
,
2002
3003
0220
0330
,
1000
0001
1000
0001
,
0100
0010
0100
0010
,
1000
0100
1000
0001
,
0100
0010
2000
3000
,
0001
1000
0001
0100
,
0001
0010
0200
0300
,
1000
0010
0100
0001
,
0100
0001
2000
3000
,
0001
1000
0001
0010
,
0100
1000
0020
0030
,
1000
0100
0001
0100
,
0000
0010
0000
1000
,
0000
0001
0000
1000
,
0000
0001
0000
0010
,
0001
0100
1000
0100
,
0000
0010
0000
0010
,
0000
1000
0000
0001
,
0000
1000
0000
0001
,
1000
0000
0000
0010
0000
0000
1000
0000
,
0000
0001
0000
0000
0010
0000
0100
0000
,
1000
0000
0000
0010
0000
0000
0100
0000
,
0000
0001
0000
0000
1000
0000
0100
0000
,
1000
0000
0000
0010
0000
0000
1000
0000
,
0000
0100
0000
0000
0010
0000
0001
0000
,
0100
0000
0000
0010
0000
0000
1000
0000
,
0000
0001
0000
0000
1001
0000
0000
0000
,
1000
0010
1000
0001
,
0000
0000
0100
0100
,
0001
0010
0001
1000
,
0000
0000
0010
0010
,
1000
0100
1000
0001
,
0000
0000
0100
0100
,
0001
0010
0100
1000
,
0001
1000
0001
1000
,
2200
3300
0022
0033
,
0202
0303
2020
3030
,
0001
1000
0001
1000
,
0010
0100
0010
0100
,
0001
0010
0001
0100
,
0010
1000
0002
0003
,
1000
0001
1000
0100
,
0010
0100
2000
3000
,
0010
1000
0001
0010
,
0001
1000
0200
0300
,
1000
0010
0100
0001
,
0010
0100
0020
0030
,
0001
1000
0010
1000
,
0000
0100
0000
0010
,
0000
0100
0000
0010
,
0000
0001
0000
0001
,
1000
0001
1000
0010
,
0000
0100
0000
0001
,
0000
1000
0000
1000
,
0000
0010
0000
0100
,
0000
0101
0000
1100
,
0000
2002
0000
0000
,
0000
0000
0000
3003
;

//---------------dance-single - ----------------
#NOTES:
     dance-single:
     :
     Beginner:
     4:
     0.180000,0.218250,0.050000,0.020000,0.000000,126.000000,121.000000,5.000000,2.000000,0.000000,0.000000,0.180000,0.218250,0.050000,0.020000,0.000000,126.000000,121.000000,5.000000,2.000000,0.000000,0.000000:
0000
0000
0000
0000
,
0000
0000
0000
0000
,
1000
0000
0000
0000
,
0000
0000
0000
0000
,
0001
0000
0001
0000
,
1000
0000
1000
0000
,
0010
0000
0000
0000
,
0000
0000
0000
0000
,
0010
0000
0010
0000
,
0100
0000
0100
0000
,
0110
0000
0000
0000
,
1001
0000
0000
0000
,
0110
0000
0000
0000
,
1001
0000
0000
0000
,
0001
0000
0001
0000
,
1000
0000
1000
0000
,
0010
0000
0010
0000
,
0100
0000
0100
0000
,
0001
0000
1000
0000
,
0100
0100
0000
0000
,
1000
0000
0001
0000
,
0100
0100
0000
0000
,
0001
0000
1000
0000
,
0010
0010
0000
0000
,
1000
0000
0001
0000
,
0010
0010
0000
0000
,
0000
0001
0000
0001
,
0000
0001
0000
0001
,
0000
1000
0000
1000
,
0000
1000
0000
1000
,
0000
0010
0000
0010
,
0000
0010
0000
0010
,
0000
0100
0000
0100
,
0000
0100
0000
0100
,
0000
0000
0001
0000
,
1000
0000
0001
0000
,
0000
0000
1000
0000
,
0010
0000
0100
0000
,
0000
0000
0010
0000
,
0100
0000
0001
0000
,
0000
0000
0010
0000
,
0100
0000
1000
0000
,
0010
0000
0010
0000
,
0000
0000
1000
0000
,
1000
0000
0001
0000
,
0000
0000
0001
0000
,
0100
0000
0100
0000
,
0000
0000
0001
0000
,
1000
0000
0010
0000
,
0100
0000
0000
0000
,
0001
0000
0010
0000
,
0001
0000
1000
0000
,
0100
0000
1000
0000
,
0010
0000
0100
0000
,
0010
0000
0100
0000
,
0001
0001
0000
0000
,
0010
0000
0100
0000
,
1000
1000
0000
0000
,
0100
0000
0010
0000
,
0001
0001
0000
0000
,
0100
0000
0010
0000
,
1000
1000
0000
0000
,
0000
0010
0000
0010
,
0000
0010
0000
0010
,
0000
0100
0000
0100
,
0000
0100
0000
0100
,
0000
0001
0000
0001
,
0000
0001
0000
0001
,
0000
1000
0000
1000
,
0000
1000
0000
1000
,
0000
0001
0000
1000
,
0000
2002
0000
0000
,
0000
0000
0000
3003
;

//---------------dance-double - ----------------
#NOTES:
     dance-double:
     :
     Easy:
     7:
     0.310000,0.363750,0.210000,0.360000,0.000000,217.000000,196.000000,21.000000,36.000000,0.000000,0.000000,0.310000,0.363750,0.210000,0.360000,0.000000,217.000000,196.000000,21.000000,36.000000,0.000000,0.000000:
00000000
00000000
00000000
00000000
,
00000000
00000000
00000000
00000000
,
00000000
00000000
00000000
00000000
,
00000000
00000000
00000000
00000000
,
00000000
01000000
00000000
00000000
00001000
00000000
00000000
00010000
,
00000000
00000000
00000010
00000000
00000000
00001000
00000001
00000000
,
00000100
00000000
00000000
00002002
00000000
00000000
00000000
00000000
,
00000000
00000000
00000000
00000000
00000000
00000000
00000000
00003003
,
00000000
00001000
00000000
00000000
00000100
00000000
00000000
00010000
,
00000000
00000000
00001000
00000000
00000000
01000000
00100000
00000000
,
20200000
00000000
00000000
30300000
,
02020000
00000000
00000000
03030000
,
00220000
00000000
00000000
00330000
,
00022000
00000000
00000000
00033000
,
00002200
00003300
00000022
00000033
,
00002002
00003003
00000220
00000330
,
00000001
00000100
00000010
00001000
,
00000100
00010000
00001000
01000000
,
00100000
10000000
01000000
00100000
,
00010000
10000000
00200000
00300000
,
01000000
00001000
00010000
00000100
,
00001000
00000010
00000200
00000300
,
00000001
00001000
00000010
00000100
,
00000010
00010000
00002000
00003000
,
00100000
00010000
01000000
00100000
,
10000000
00010000
02000000
03000000
,
00100000
10000000
00010000
01000000
,
00000000
00001000
00000000
00010000
,
00000000
00000010
00000000
00001000
,
00000000
00000100
00000000
00000010
,
00000001
00001000
00000100
00010000
,
00000000
00001000
00000000
00100000
,
00000000
00010000
00000000
01000000
,
00000000
00001000
00000000
00010000
,
00001000
00000000
00000000
01000000
00000000
00000000
00100000
00000000
,
00000000
10000000
00000000
00000000
11000000
00000000
11000000
00000000
,
10000000
00000000
00000000
00100000
00000000
00000000
01000000
00000000
,
00000000
00010000
00000000
00000000
00110000
00000000
00110000
00000000
,
00100000
00000000
00000000
00001000
00000000
00000000
00010000
00000000
,
00000000
00000010
00000000
00000000
00000110
00000000
00000110
00000000
,
00000001
00000000
00000000
00001000
00000000
00000000
00000100
00000000
,
00000000
00010000
00000000
00000000
00011000
00000000
00000000
00000000
,
00010000
00000100
00001000
00000010
,
00000100
00000000
00000000
00000001
00000000
00001000
00000010
00000000
,
00010000
00001000
00100000
00010000
,
01000000
00000000
00000000
00100000
00000000
10000000
00010000
00000000
,
10000000
00100000
10000000
01000000
,
00100000
00000000
00000000
00001000
00000000
00010000
00000100
00000000
,
00001000
00000010
00000100
00000001
,
00000010
00000100
00010000
00001000
,
00022000
00033000
00202000
00303000
,
20020000
30030000
02200000
03300000
,
10000000
00010000
00100000
01000000
,
00100000
00001000
00010000
00000010
,
00001000
00000100
00001000
00000010
,
00010000
00000100
00002000
00003000
,
00000100
00010000
00001000
00100000
,
00010000
10000000
02000000
03000000
,
10000000
00010000
10000000
00100000
,
01000000
00010000
20000000
30000000
,
00010000
00100000
00001000
00010000
,
00000010
00001000
00000002
00000003
,
00001000
00000100
00000010
00000001
,
00000000
00000100
00000000
00000010
,
00000000
00010000
00000000
00001000
,
00000000
01000000
00000000
00010000
,
10000000
00010000
00100000
00001000
,
00000000
01000000
00000000
00100000
,
00000000
10000000
00000000
01000000
,
00000000
00010000
00000000
00001000
,
00000000
00100000
00000000
00001000
,
00000000
00020200
00000000
00000000
,
00000000
00000000
00000000
00030300
;

//---------------dance-double - ----------------
#NOTES:
     dance-double:
     :
     Hard:
     12:
     0.658571,0.654750,0.540000,0.380000,0.000000,461.000000,407.000000,54.000000,38.000000,0.000000,0.000000,0.658571,0.654750,0.540000,0.380000,0.000000,461.000000,407.000000,54.000000,38.000000,0.000000,0.000000:
00000000
00000000
00000000
00000000
,
00000000
00000000
00000000
00000000
,
00000000
00000000
00000000
00000000
,
00000000
00000000
00000000
00000000
,
00000000
00000000
00000000
00000000
,
00000000
00000000
00000000
00000000
,
10000000
00010000
00100000
00010000
01000000
00100000
10000000
00000000
,
00010000
01000000
00001000
00010000
00000010
00001000
00000100
00000000
,
00001000
00000010
00000100
00000000
00000001
00001000
00000000
00000100
,
00010000
00000000
00001000
00100000
00000000
00010000
10000000
00100000
,
01100000
00000000
10000000
00100000
10000000
01000000
00100000
00010000
,
01010000
00000000
01000000
00001000
00010000
00000100
00001000
00000010
,
00000110
00000000
00000100
00000001
00000010
00000001
00001000
00000100
,
00001100
00000000
00000100
00010000
00001000
01000000
00100000
10000000
,
11000000
00000000
10000000
00010000
00110000
00000000
00100000
00001000
,
00011000
00000000
00010000
00000010
00001010
00000000
00001000
00000001
,
00000010
00000001
00000100
00000010
00001000
00000100
00000010
00000001
,
00000100
00000010
00010000
00001000
00100000
00001000
01000000
00100000
,
10000000
01000000
00100000
00010000
01000000
00100000
10000000
00000000
,
00010000
10000000
00100000
02000000
00000000
00001000
03001000
00000000
,
01000000
00001000
00010000
00000100
00001000
00000010
00000100
00000000
,
00000001
00000010
00000100
00020000
00000000
00001000
00031000
00000000
,
00100000
00001000
01000000
00100000
10000000
00010000
01000000
00000000
,
00001000
00010000
00000100
00000020
00000000
00000001
00000031
00000000
,
00000010
00000001
00001000
00000010
00010000
00000100
00001000
00000000
,
00001100
01010000
10100000
00110000
,
10000000
00100000
01100000
00000000
00010000
01000000
01010000
00000000
,
01000000
00001000
00011000
00000000
00010000
00000010
00000110
00000000
,
00000100
00000001
00000011
00000000
00001000
00000010
00010010
00000000
,
00010000
00001000
01001000
00000000
01000000
00100000
10100000
00000000
,
10000000
01000000
11000000
00000000
00100000
00010000
10010000
00000000
,
01000000
00001000
00101000
00000000
00100000
00010000
01010000
00000000
,
01000000
00100000
01100000
00000000
00001000
00010000
00011000
00000000
,
00010000
00000100
00001000
00000010
00000100
00000001
00001000
00000000
,
00000001
00000020
00000000
00000032
00000000
00002003
00000000
00003200
,
00000000
00020300
00000000
00030100
00001000
00000010
00000100
00000002
,
00000000
00000023
00000000
00000032
00000000
00000203
00000000
00000320
,
00000000
00020030
00000000
00031000
00010000
00001000
01000000
00200000
,
00000000
20300000
00000000
32000000
00000000
03200000
00000000
00302000
,
00000000
00023000
00000000
00030100
00010000
00000010
00001000
00000002
,
00000000
00002003
00000000
00003200
00000000
00020300
00000000
00032000
,
00000000
01003000
01100000
00000000
20010000
00000000
30100000
00000000
,
10000000
00010000
00100000
00010000
01000000
00100000
10000000
00000000
,
00010000
10000000
00100000
02000000
00000000
00001000
03001000
00000000
,
00010000
00000010
00001000
00000100
00000010
00000001
00001000
00000000
,
00000010
00001000
00000001
00000200
00000000
00010000
00010300
00000000
,
00000100
00000001
00000010
00000100
00010000
00001000
01000000
00000000
,
00001000
00100000
00010000
20000000
00000000
01000000
31000000
00000000
,
10000000
00010000
00100000
00001000
01000000
00100000
10000000
00000000
,
00010000
00100000
00001000
00010000
00000100
00001000
00000001
00000000
,
00000012
00001000
00001003
00000000
00001200
00010000
00010300
00000000
,
00012000
00100000
00103000
00000000
02001000
00010000
03010000
00000000
,
01000000
00100000
10000000
00010000
00100000
01000000
00100000
00010000
,
01000000
00001000
00010000
00001000
00100000
00010000
01000000
00001000
,
00010000
00000010
00001000
00000001
00000010
00000100
00001000
00000000
,
00000010
00001000
00000100
00000020
00000000
00000001
00000031
00000000
,
00000001
00000100
00000010
00001000
00000100
00010000
00001000
00000000
,
01000000
00100000
10000000
00020000
00000000
00001000
00031000
00000000
,
00010000
10000000
00100000
01000000
00001000
00010000
00000100
00000000
,
00001000
00000010
00010000
00000200
00000000
00000001
00000301
00000000
,
00000100
00001000
00000010
00000100
00000001
00001000
00000100
00000000
,
00001100
01010000
10100000
00110000
,
00001000
00010000
00010100
00000000
00000010
00000100
00000110
00000000
,
00000001
00001000
00001010
00000000
00000010
00000100
00000101
00000000
,
00000001
00000010
00000110
00000000
00001000
00000100
00010100
00000000
,
00100000
00010000
10010000
00000000
01000000
00001000
00011000
00000000
,
00010000
00001000
00110000
00000000
01000000
00100000
10010000
00000000
,
10000000
01000000
00110000
00000000
00010000
00100000
01001000
00000000
,
00000100
00001000
00000011
00000000
00000001
00000010
00001100
00000000
,
00010000
00001000
01100000
00000000
01000000
00100000
01010000
00000000
,
10000000
01000000
10010000
00000000
00100000
00010000
00001100
00000000
,
00020000
00002000
00000000
00000000
,
00000000
00000000
00000000
00033000
;

//---------------dance-double - ----------------
#NOTES:
     dance-double:
     :
     Challenge:
     15:
     0.971429,1.054875,0.450000,0.170000,0.480000,680.000000,635.000000,45.000000,17.000000,0.000000,0.000000,0.971429,1.054875,0.450000,0.170000,0.480000,680.000000,635.000000,45.000000,17.000000,0.000000,0.000000:
// measure 0
00000000
00000000
00000000
00000000
,  // measure 1
00000000
00000000
00000000
00000000
,  // measure 2
00100000
10000000
01000000
00100000
00001000
01000000
00100000
10000000
,  // measure 3
00010000
00100000
00001000
00010000
00000010
00001000
00000100
00000010
,  // measure 4
00000001
00001000
00000010
00000100
00000001
00000010
00000001
00001000
,  // measure 5
00000100
00010000
00001000
00100000
00001000
01000000
00100000
10000000
,  // measure 6
01000000
00010000
00000100
00000010
00000001
00001000
00000010
00010000
,  // measure 7
00001000
01000000
00100000
10000000
01000000
00100000
00001000
00010000
,  // measure 8
00000010
00000100
00000001
00000010
00010000
00000010
00000100
00000001
,  // measure 9
00001000
00000100
00010000
00001000
01000000
00100000
10000000
00010000
,  // measure 10
10010000
10000000
00100000
01000000
00001000
00010000
00000010
00000100
,  // measure 11
00000101
00000001
00001000
00000100
01000000
00010000
10000000
00100000
,  // measure 12
01100000
01000000
00001000
00010000
00001000
00100000
00010000
01000000
,  // measure 13
01001000
00001000
00010000
00000010
00000100
00000001
00000010
00000100
,  // measure 14
00001100
00001000
00000010
00010000
00011000
00001000
01000000
00100000
,  // measure 15
10100000
10000000
00010000
00100000
00110000
00010000
01000000
00001000
,  // measure 16
00011000
00010000
00010010
00000010
00001010
00001000
00001100
00000100
,  // measure 17
00001000
00000010
00001000
00000010
00000100
00000001
00000100
00000001
00000010
00000001
00000010
00000001
00001000
00000100
00001000
00000100
,  // measure 18
00010000
00001000
00010000
00000000
00001000
00000000
01000000
00000000
00100000
00000000
10000000
00000000
01000000
00000000
00100000
00000000
,  // measure 19
00010000
00000000
01000000
00100000
10000000
00000000
21000000
00000000
00000000
00000000
00010000
00000000
30010000
00000000
10000000
00000000
,  // measure 20
00100000
01000000
00100000
00000000
10000000
00000000
00010000
00000000
00100000
00000000
00000010
00000000
00001000
00000000
00000100
00000000
,  // measure 21
00010000
00000000
00000010
00000100
00000001
00000000
00000012
00000000
00000000
00000000
00001000
00000000
00001003
00000000
00000000
00000000
,  // measure 22
00000100
00010000
00000100
00000000
01000000
00000000
00100000
00000000
10000000
00000000
00010000
00000000
00100000
00000000
00001000
00000000
,  // measure 23
00010000
00000000
00000010
00001000
00000100
00000000
00020100
00000000
00000000
00000000
00000010
00000000
00030010
00000000
00000000
00000000
,  // measure 24
00001000
00000001
00001000
00000000
00000010
00000000
00000100
00000000
00000001
00000000
00000010
00000000
00000100
00000000
00001000
00000000
,  // measure 25
00000100
00010000
00001000
00000000
01000000
00100000
10000000
00000000
00010000
00100000
00001000
00000000
01000000
00010000
00100000
00000000
,  // measure 26
00010000
00000000
01000000
00000000
00100000
00000000
10000000
00000000
01000000
00100000
00010000
00000000
01000000
00000000
10000000
00000000
,  // measure 27
01000000
00000000
00001000
00000000
00010000
00000000
00000010
00000000
00001000
00000100
00000010
00000000
00000001
00000000
00001000
00000000
,  // measure 28
00000100
00000000
00010000
00000000
00000010
00000000
00000100
00000000
00000010
00001000
00000100
00000000
01000000
00000000
00001000
00000000
,  // measure 29
00100000
00000000
00010000
00000000
01000000
00000000
00100000
00000000
10000000
00010000
00100000
00000000
00001000
00000000
00010000
00000000
,  // measure 30
00000010
00000000
00000100
00000000
00000001
00000000
00000010
00000000
00000001
00001000
00000100
00000000
00010000
00000000
00001000
00000000
,  // measure 31
01000000
00000000
00001000
00000000
00100000
00000000
01000000
00000000
10000000
00100000
01000000
00000000
00010000
00000000
00100000
00000000
,  // measure 32
00001000
00000000
00010000
00000000
00000010
00000000
00001000
00000000
00000001
00001000
00000100
00000000
00000010
00000000
00000001
00000000
,  // measure 33
00001000
00000100
00000010
00000000
00000001
00000100
00000010
00000000
00001000
00000100
00010000
00001000
01000000
00100000
10000000
00010000
,  // measure 34
00100000
00110000
00010000
01010000
01000000
01100000
00100000
10100000
,  // measure 35
10000000
10010000
00010000
00110000
00200000
00302000
00023000
00030020
,  // measure 36
00000130
00000110
00000010
00010010
00010000
00010100
00000100
00001100
,  // measure 37
00001000
00001001
00000001
00000011
00000002
00002003
00003200
00020300
,  // measure 38
00031000
00101000
00100000
00110000
00010000
10010000
10000000
11000000
,  // measure 39
01000000
01100000
00100000
00110000
00020000
02030000
03002000
00203000
,  // measure 40
00300010
00010010
00010000
00010100
00000100
00001100
00001000
00001001
,  // measure 41
00000001
00000000
00000011
00000000
00000011
00000000
00001000
00000000
00001100
00000000
00000001
00000000
00000100
00000010
00000100
00000010
,  // measure 42
00001000
00000000
00000100
00010000
00001000
00000000
00100000
00010000
01000000
00000000
00100000
00000000
10000000
00000000
00000000
00000000
,  // measure 43
00010000
00000000
00100000
00000000
00010000
00000000
01000000
00100000
10000000
00100000
01000000
00000000
00010000
00000000
00000000
00000000
,  // measure 44
00100000
00000000
00001000
01000000
00010000
00000000
00100000
00000010
00001000
00000000
00000001
00000000
00000100
00000000
00000000
00000000
,  // measure 45
00000001
00000000
00001000
00000000
00000100
00000000
00010000
00001000
00100000
00001000
01000000
00000000
00010000
00000000
00000000
00000000
,  // measure 46
01000000
00000000
00100000
10000000
01000000
00000000
00100000
00010000
10000000
00000000
00001000
00000000
01000000
00000000
00000000
00000000
,  // measure 47
00001000
00000000
00010000
00000000
00000010
00000000
00000100
00000001
00000010
00000100
00001000
00000000
00000010
00000000
00000000
00000000
,  // measure 48
00010000
00000000
00000100
00001000
00000010
00000000
00001000
00000001
00000100
00000000
00000010
00000000
00010000
00000000
00000000
00000000
,  // measure 49
00001000
00010000
00001000
00010000
00001000
01000000
00001000
01000000
00100000
01000000
00100000
01000000
00100000
00000000
00000000
00000000
,  // measure 50
01100000
00010000
10000000
01000000
11000000
00100000
10000000
00010000
,  // measure 51
01010000
10000000
00100000
01000000
01001000
00010000
00000100
00001000
,  // measure 52
00000010
00000100
00000010
00000000
00001000
00000001
00001000
00000000
00000100
00010000
00000100
00000000
00001000
00000010
00001000
00000000
,  // measure 53
00000001
00000010
00000001
00000010
00000001
00000100
00000001
00000100
00000010
00001000
00000010
00001000
00000100
00001000
00000100
00001000
,  // measure 54
00000010
00010000
00001000
00000000
01000000
00000000
00100000
00000000
10000000
00000000
01000000
00000000
00100000
00000000
00010000
00000000
,  // measure 55
10000000
00100000
01000000
00100000
10000000
00000000
00010000
00000000
00100000
00000000
01000000
00000000
10000000
00000000
00000000
00000000
,  // measure 56
00010000
00100000
00001000
00000000
00010000
00000000
00000010
00000000
00000100
00000000
00000001
00000000
00000010
00000000
00000100
00000000
,  // measure 57
00001000
00000001
00000010
00000001
00000100
00000000
00000010
00000000
00001000
00000000
00000100
00000000
00010000
00000000
00000000
00000000
,  // measure 58
00001000
00100000
01000000
00000000
10000000
00000000
00010000
00000000
01000000
00000000
00100000
00000000
10000000
00000000
01000000
00000000
,  // measure 59
00100000
00001000
00010000
00000010
00000100
00000000
00000001
00000000
00001000
00000000
00000100
00000000
00010000
00000000
00000000
00000000
,  // measure 60
00000010
00001000
00000001
00000000
00000010
00000000
00000100
00000000
00001000
00000000
00000010
00000000
00010000
00000000
00000100
00000000
,  // measure 61
01000000
00100000
10000000
00000000
00010000
00100000
00010000
00000000
10000000
00100000
01000000
00000000
00010000
01000000
00001000
00000000
,  // measure 62
01000000
00000000
00100000
00000000
10000000
00000000
00010000
00000000
00100000
00001000
00010000
00000000
00000010
00000000
00000100
00000000
,  // measure 63
00000001
00000000
00000010
00000000
00000001
00000000
00001000
00000000
00000100
00010000
00001000
00000000
01000000
00000000
00100000
00000000
,  // measure 64
01000000
00000000
00001000
00000000
00010000
00000000
00000010
00000000
00001000
00000100
00000010
00000000
00000001
00000000
00001000
00000000
,  // measure 65
00000010
00000000
00010000
00000000
00001000
00000000
01000000
00000000
00100000
10000000
00010000
00000000
01000000
00000000
00100000
00000000
,  // measure 66
01000000
00000000
00001000
00000000
00010000
00000000
00000100
00000000
00000010
00000001
00001000
00000000
00000010
00000000
00000100
00000000
,  // measure 67
00000001
00000000
00001000
00000000
00000100
00000000
00000010
00000000
00000001
00001000
00000100
00000000
01000000
00000000
00001000
00000000
,  // measure 68
00100000
00000000
00010000
00000000
01000000
00000000
00100000
00000000
10000000
00010000
00100000
00000000
00010000
00000000
01000000
00000000
,  // measure 69
00001000
00000000
00010000
00000000
00000010
00000000
00001000
00000000
00000100
00000010
00000001
00000000
00000100
00000000
00000010
00000000
,  // measure 70
00001000
00000100
00001000
00000100
00010000
00001000
00010000
00001000
00100000
01000000
00100000
01000000
00100000
00010000
00100000
00010000
,  // measure 71
01000000
00001000
02000200
00000000
00000000
00000000
00000000
00000000
,  // measure 72
00000000
00000000
00000000
03000300
;
