#VERSION:0.83;
#TITLE:SCORE;
#SUBTITLE:;
#ARTIST:DJ Remo-con;
#TITLETRANSLIT:;
#SUBTITLETRANSLIT:;
#ARTISTTRANSLIT:;
#GENRE:;
#ORIGIN:;
#CREDIT:;
#BANNER:SCORE-bn.png;
#BACKGROUND:SCORE-bg.png;
#PREVIEWVID:;
#JACKET:SCORE-jacket.png;
#CDIMAGE:;
#DISCIMAGE:;
#LYRICSPATH:;
#CDTITLE:;
#MUSIC:SCORE.ogg;
#OFFSET:0.000000;
#SAMPLESTART:27.431999;
#SAMPLELENGTH:20.000000;
#SELECTABLE:YES;
#DISPLAYBPM:140.000000;
#BPMS:0.000=139.980;
#STOPS:;
#DELAYS:;
#WARPS:;
#TIMESIGNATURES:0.000=4=4;
#TICKCOUNTS:0.000=4;
#COMBOS:0.000=1;
#SPEEDS:0.000=1.000=0.000=0;
#SCROLLS:0.000=1.000;
#FAKES:;
#LABELS:0.000=Song Start;
#BGCHANGES:;
#KEYSOUNDS:;
#ATTACKS:
;

//---------------dance-solo - ----------------
#NOTEDATA:;
#CHARTNAME:;
#STEPSTYPE:dance-solo;
#DESCRIPTION:;
#CHARTSTYLE:;
#DIFFICULTY:Beginner;
#METER:2;
#RADARVALUES:0.123388,0.171015,0.069097,0.000000,0.000000,100.000000,92.000000,8.000000,0.000000,0.000000,0.000000,0.000000,0.000000,0.000000,0.123388,0.171015,0.069097,0.000000,0.000000,100.000000,92.000000,8.000000,0.000000,0.000000,0.000000,0.000000,0.000000,0.000000;
#CREDIT:;
#DISPLAYBPM:140.000000;
#NOTES:
000000
000000
000000
000000
,
000000
000000
000000
000000
,
000000
000000
000000
000000
,
000000
000000
010000
000000
,
010010
000000
000000
000000
,
001000
000000
000000
000000
,
000010
000000
000000
000000
,
010000
000000
000000
000000
,
000010
000000
000010
000000
,
010000
000000
000000
000000
,
001000
000000
001000
000000
,
010000
000000
000010
000000
,
010010
000000
000000
000000
,
010000
000000
000010
000000
,
001000
000000
000000
000000
,
001000
000000
000010
000000
,
000000
010000
000000
010000
,
000000
000010
000000
000010
,
000000
001000
000000
001000
,
000000
000000
000010
000000
,
010010
000000
000000
000000
,
000000
010000
000000
010000
,
000000
000010
000000
000010
,
000000
000000
001000
000000
,
010010
000000
000000
000010
,
000000
000000
000000
010000
,
000000
000000
000000
001000
,
000000
000000
010000
000000
,
010010
000000
000000
001000
,
000000
000000
000000
010000
,
000000
000000
000000
000010
,
000000
000000
001000
000000
,
010010
000000
000000
000000
,
000010
000000
000000
000000
,
001000
000000
000000
000000
,
000010
000000
000000
000000
,
010000
000000
000000
000000
,
001000
000000
000000
000000
,
010000
000000
000000
000000
,
000010
000000
000000
000000
,
010000
000000
000000
000000
,
000000
000000
000000
000000
,
000000
000000
000000
000000
,
000000
000000
010000
000000
,
010010
000000
000000
000000
,
010000
000000
000010
000000
,
010000
000000
000010
000000
,
001000
000000
000000
000000
,
001000
000000
001000
000000
,
000010
000000
010000
000000
,
001000
000000
001000
000000
,
010000
000000
000010
000000
,
001000
000000
000010
000000
,
001000
000000
000010
000000
,
010000
000000
001000
000000
,
010000
000000
001000
000000
,
010000
000000
000010
000000
,
010000
000000
000010
000000
,
010000
000000
000010
000000
,
001000
000000
000010
000000
,
010000
000000
001000
000000
,
010000
000000
000010
000000
,
001000
000000
000010
000000
,
010000
000000
001000
000000
,
010000
000000
000000
000000
,
000000
000000
000010
000000
,
010010
000000
000000
000000
;

//---------------dance-solo - ----------------
#NOTEDATA:;
#CHARTNAME:;
#STEPSTYPE:dance-solo;
#DESCRIPTION:;
#CHARTSTYLE:;
#DIFFICULTY:Easy;
#METER:5;
#RADARVALUES:0.268985,0.342031,0.172743,0.017274,0.000000,218.000000,198.000000,20.000000,2.000000,0.000000,0.000000,0.000000,0.000000,0.000000,0.268985,0.342031,0.172743,0.017274,0.000000,218.000000,198.000000,20.000000,2.000000,0.000000,0.000000,0.000000,0.000000,0.000000;
#CREDIT:;
#DISPLAYBPM:140.000000;
#NOTES:
000000
000000
000000
000000
,
000000
000000
000000
000000
,
000000
000000
000000
000000
,
000000
000000
010000
000010
,
010010
000000
001000
000000
,
000001
000000
000100
000000
,
000010
000000
010000
000000
,
001000
000000
100000
000000
,
100001
000100
010000
001000
,
100000
000001
100000
000100
,
001000
000010
010000
001000
,
100000
000100
010000
000010
,
010010
000001
001000
000010
,
100000
000100
010000
001000
,
100000
000001
001000
000010
,
001000
000100
010000
000010
,
100000
101000
000100
001000
,
000001
000101
000100
000010
,
010000
010010
000010
001000
,
000100
001000
000010
010000
,
010010
000001
100000
001000
,
010000
001100
000010
100000
,
001000
100100
001000
000001
,
100000
000001
010000
000010
,
010010
001000
000000
100000
,
000000
000010
000000
010000
,
000000
000001
000000
000100
,
000000
000000
010000
000010
,
010010
100000
000000
000001
,
000000
000100
000000
000010
,
000000
010000
000000
001000
,
000000
000000
010000
000010
,
010010
000000
000001
000000
,
100000
000000
000100
000000
,
010000
000000
001000
000000
,
000100
000000
000010
000000
,
100000
000000
000001
000000
,
000100
000000
001000
000000
,
010000
000000
000010
000000
,
000100
000000
000001
000000
,
100001
000000
100000
001000
,
000000
000000
010000
000010
,
000000
000000
000100
000001
,
000000
000000
010000
000010
,
010010
001000
000001
100000
,
000000
000010
010000
001000
,
000000
100000
000100
001000
,
000000
000010
010000
000001
,
100000
000100
010000
001000
,
000100
000010
001000
000100
,
001000
000001
000100
001000
,
010000
001000
010000
000010
,
001000
000001
100000
000001
,
000100
001000
000100
000010
,
001000
000100
010000
000001
,
001000
000100
010000
000001
,
100000
100100
000100
001000
,
000010
010000
001000
000100
,
000001
001001
100000
001000
,
010000
000100
001000
000001
,
000100
000101
000001
001000
,
000010
010000
001000
100000
,
000100
001100
001000
000001
,
000100
000010
100000
001000
,
200002
000000
000000
000000
,
000000
300003
010000
000010
,
010010
000000
000000
000000
;

//---------------dance-solo - ----------------
#NOTEDATA:;
#CHARTNAME:;
#STEPSTYPE:dance-solo;
#DESCRIPTION:;
#CHARTSTYLE:;
#DIFFICULTY:Medium;
#METER:9;
#RADARVALUES:0.410881,0.456041,0.095009,0.017274,0.000000,333.000000,322.000000,11.000000,2.000000,0.000000,0.000000,0.000000,0.000000,0.000000,0.410881,0.456041,0.095009,0.017274,0.000000,333.000000,322.000000,11.000000,2.000000,0.000000,0.000000,0.000000,0.000000,0.000000;
#CREDIT:;
#DISPLAYBPM:140.000000;
#NOTES:
000000
000000
000000
000000
,
000000
000000
000000
000000
,
000000
000000
000000
000000
,
000000
000000
000000
000000
010000
001000
000010
000000
,
010010
000100
100000
000010
,
000100
001000
010000
000010
,
000100
000001
001000
000010
,
010000
001000
100000
000001
,
100001
000000
001000
000000
010000
000010
000100
000000
,
000001
000000
100000
000000
001000
000100
000010
000000
,
010000
000000
001000
000000
100000
000001
000100
000000
,
000001
000000
100000
000000
000010
001000
010000
000000
,
010010
000000
000100
001000
100000
000001
001000
000000
,
000010
000000
010000
000001
000100
001000
100000
000000
,
010000
000000
001000
100000
000100
010000
000010
000000
,
000100
000000
000001
001000
000100
001000
000010
000000
,
100000
001000
100000
000000
000100
001000
000001
000000
,
010000
000010
010000
000000
000100
100000
001000
000000
,
000001
010000
000001
000000
000100
000010
100000
000000
,
001000
000100
001000
000000
010000
001000
000010
000000
,
010010
000010
001000
000000
000100
100000
000001
000000
,
001000
000100
100000
000000
001000
010000
000010
000000
,
000100
001000
000100
000000
000010
001000
000010
000000
,
010000
000001
000100
000000
000010
001000
010000
000000
,
010010
001000
100000
000100
,
010000
001000
010000
000010
,
000100
000001
000010
001000
,
000100
000000
001000
000000
000010
001000
010000
000000
,
010010
000000
001000
000000
100000
000001
000100
000000
,
000010
000000
001000
000000
000100
010000
000100
000000
,
001000
000000
000001
000000
000100
000010
010000
000000
,
001000
000000
100000
000000
000010
001000
010000
000000
,
010010
000100
100000
000001
,
010000
001000
100000
000100
,
001000
000100
000001
100000
,
000010
000100
000001
001000
,
100000
000100
001000
000010
,
000100
000010
100000
001000
,
010000
000001
000100
001000
,
010000
000010
001000
000100
,
100001
000000
000000
000000
100000
001000
000001
000000
,
000000
000000
000000
000000
000100
010000
000010
000000
,
000000
000000
000000
000000
000001
100000
000100
000000
,
000000
000000
000000
000000
010000
001000
000010
000000
,
010010
000000
000100
000000
100000
000010
000100
000000
,
001000
000000
010000
000000
000100
001000
000001
000000
,
100000
000000
001000
000000
010000
000100
001000
000000
,
000010
000000
000100
000000
000001
100000
001000
000000
,
010000
000100
001000
000000
000001
000100
001000
000000
,
100000
000010
010000
000000
001000
100000
000001
000000
,
000100
000010
001000
000000
000100
010000
000001
000000
,
000100
001000
100000
000000
010000
000001
001000
000000
,
000010
000100
000001
000000
100000
001000
000100
000000
,
001000
010000
000100
000000
100000
000100
010000
000000
,
001000
000100
000010
000000
100000
000001
010000
000000
,
001000
000100
000010
000000
100000
001000
000001
000000
,
001000
000100
010000
000100
100000
000001
010000
000000
,
000010
001000
000100
001000
000010
100000
000001
000000
,
000100
000010
000100
001000
100000
000001
010000
000000
,
000010
000100
000010
001000
000100
100000
000001
000000
,
000100
000010
010000
000010
000100
001000
100000
000000
,
000001
010000
000100
001000
000100
100000
000010
000000
,
000100
001000
000100
000010
001000
000100
100000
000000
,
000001
100000
000100
001000
000010
010000
001000
000000
,
200002
000000
000000
000000
,
000000
000000
300003
000000
010000
001000
000010
000000
,
010010
000000
000000
000000
;

//---------------dance-solo - ----------------
#NOTEDATA:;
#CHARTNAME:;
#STEPSTYPE:dance-solo;
#DESCRIPTION:;
#CHARTSTYLE:;
#DIFFICULTY:Hard;
#METER:12;
#RADARVALUES:0.565116,0.627057,0.086371,0.000000,0.397309,458.000000,448.000000,10.000000,0.000000,0.000000,0.000000,0.000000,0.000000,0.000000,0.565116,0.627057,0.086371,0.000000,0.397309,458.000000,448.000000,10.000000,0.000000,0.000000,0.000000,0.000000,0.000000,0.000000;
#CREDIT:;
#DISPLAYBPM:140.000000;
#NOTES:
000000
000000
000000
000000
,
000000
000000
000000
000000
,
000000
000000
000000
000000
,
000000
000000
000000
000000
010000
001000
000010
000000
,
010010
000100
100000
000001
000100
001000
010000
000000
,
000100
001000
000100
010000
001000
000100
000001
000000
,
000100
000010
001000
000001
100000
000010
001000
000000
,
000100
001000
000100
010000
001000
100000
000001
000000
,
100001
000000
000000
000000
000100
100000
000000
100000
001000
000000
000100
000000
000001
000000
000000
000000
,
010000
000000
000000
000000
000010
001000
000000
001000
000100
000000
100000
000000
000001
000000
000000
000000
,
010000
000000
000000
000000
000010
000100
000000
000100
000001
000000
100000
000000
001000
000000
000000
000000
,
010000
000000
000000
000000
000001
100000
000000
100000
000010
000000
000100
000000
010000
000000
000000
000000
,
010010
000000
100000
000000
000100
001000
000000
001000
000010
000000
010000
000000
000001
000000
000000
000000
,
000100
000000
100000
000000
001000
010000
000000
010000
000010
000000
000100
000000
000001
000000
000000
000000
,
010000
000000
000010
000000
000100
001000
000000
001000
000100
000000
000001
000000
100000
000000
000000
000000
,
001000
000000
100000
000000
000010
010000
000000
010000
000100
000000
100000
000000
000001
000000
000000
000000
,
100000
000000
001000
000000
000100
000000
000000
000010
000000
000000
001000
000000
000001
000000
010000
000010
,
010000
000000
000100
000000
001000
000000
000000
000001
000000
000000
100000
000000
000001
000000
000100
001000
,
000100
000000
000010
000000
001000
000000
000000
000001
000000
000000
010000
000000
001000
000000
100000
000001
,
100000
000000
001000
000000
000100
000000
000000
000001
010000
000000
000100
000000
000010
000000
000000
000000
,
010010
000000
001000
000000
000010
000000
100000
000100
000000
100000
000100
000000
010000
000000
000001
000100
,
000001
000000
001000
000000
000010
000000
010000
000100
000000
010000
000100
000000
100000
000000
000001
001000
,
000001
000000
000100
000000
001000
000000
010000
000010
000000
010000
000010
000000
001000
000000
000001
100000
,
000001
000000
000100
000000
001000
000000
010000
000010
010000
000000
000100
000000
000010
000000
000000
000000
,
010010
000010
100000
001000
010000
000100
001000
000001
,
000100
000010
000100
000001
001000
000010
010000
001000
,
100000
000100
010000
001000
000100
000010
000100
001000
,
100000
000001
000100
000010
010000
001000
000010
000000
,
010010
010000
000001
000100
000010
001000
000100
100000
,
001000
010000
000100
100000
000010
000100
001000
010000
,
001000
000100
000001
100000
000010
001000
000001
010000
,
001000
100000
000001
000000
010000
000100
000010
000000
,
010010
000000
000100
000000
100000
000000
000000
001000
000000
000000
010000
000000
000010
000000
000000
000000
,
000100
000000
000001
000000
001000
000000
000000
000010
000000
000000
001000
000000
100000
000000
000000
000000
,
000001
000000
100000
000000
000100
000000
000000
010000
000000
000000
001000
000000
000100
000000
000000
000000
,
001000
000000
000100
000000
000010
000000
000000
010000
000000
000000
000001
000000
100000
000000
000000
000000
,
000100
000000
001000
000000
000010
000000
000000
000100
000000
000000
000001
000000
100000
000000
000000
000000
,
001000
000000
010000
000000
000100
000000
000000
100000
000000
000000
000100
000000
010000
000000
000000
000000
,
000010
000000
100000
000000
000001
000000
000000
000100
000000
000000
000010
000000
010000
000000
000000
000000
,
000100
000000
001000
000000
000010
000000
000000
100000
000000
000000
000001
000000
010000
000000
000000
000000
,
010000
000010
000000
000000
100000
000000
000000
000100
000000
000000
001000
000000
000001
000000
000000
000000
,
000000
000100
000000
000000
000010
000000
000000
001000
000000
000000
000001
000000
100000
000000
000000
000000
,
000000
001000
000000
000000
010000
000000
000000
000010
000000
000000
100000
000000
000100
000000
000000
000000
,
000000
001000
000000
000000
000001
000000
000000
000000
010000
000000
000100
000000
000010
000000
000000
000000
,
010010
000010
010000
000100
100000
001000
000001
000000
,
000100
000010
001000
000001
000100
001000
100000
000000
,
000010
010000
000010
000100
000001
100000
001000
000000
,
010000
000010
000100
001000
000100
000001
100000
000000
,
000010
010000
000010
000000
000100
000000
001000
100000
000000
001000
100000
000000
000001
000000
000000
000000
,
000100
000010
000100
000000
000001
000000
010000
001000
000000
010000
001000
000000
100000
000000
000000
000000
,
000010
100000
000010
000000
010000
000000
000001
000100
000000
000001
000100
000000
001000
000000
000000
000000
,
000100
001000
000100
000000
000001
000000
010000
000010
000000
010000
000010
000000
100000
000000
000000
000000
,
001000
100000
001000
000000
010000
000000
000010
000100
000000
000001
100000
000000
000010
000000
000000
000000
,
010000
000100
010000
000000
001000
000000
000100
000010
000000
000010
100000
000000
000001
000000
000000
000000
,
100000
000010
100000
000000
001000
000000
000100
000001
000000
000001
010000
000000
001000
000000
000000
000000
,
100000
000100
100000
000000
001000
000000
010000
000001
000000
010000
000010
000000
000100
000000
000000
000000
,
100000
000010
000000
000000
000100
000000
000000
000001
000000
000000
001000
000000
000000
000100
000000
000000
,
010000
000000
000000
001000
000000
000000
100000
000000
000000
000001
000000
000000
001000
000000
000100
000000
,
010000
001000
000000
000000
000100
000000
000000
000001
000000
000000
100000
000000
000000
000010
000000
000000
,
000100
000000
000000
001000
000000
000000
010000
000000
000000
000001
000000
000000
100000
000000
000100
000000
,
001000
000010
000000
000000
000100
000000
000000
000001
000000
000000
001000
000000
000000
000100
000000
000000
,
010000
000000
000000
001000
000000
000000
010000
000000
000000
000010
000000
000000
100000
000000
000001
000000
,
000100
000010
000000
000000
001000
000000
000000
000001
000000
000000
000100
000000
000000
001000
000000
000000
,
010000
000000
000000
000100
000000
000000
100000
000000
000000
000010
000000
000000
000100
000000
001000
000000
,
100001
001000
000010
010000
,
000001
000000
000100
000000
000010
001000
010000
000000
,
010010
000000
000000
000000
;

//---------------dance-single - ----------------
#NOTEDATA:;
#CHARTNAME:;
#STEPSTYPE:dance-single;
#DESCRIPTION:;
#CHARTSTYLE:;
#DIFFICULTY:Hard;
#METER:12;
#RADARVALUES:0.524398,0.513046,0.077734,0.000000,0.272070,425.000000,416.000000,9.000000,0.000000,0.000000,0.000000,0.000000,0.000000,0.000000,0.524398,0.513046,0.077734,0.000000,0.272070,425.000000,416.000000,9.000000,0.000000,0.000000,0.000000,0.000000,0.000000,0.000000;
#CREDIT:;
#DISPLAYBPM:140.000000;
#NOTES:
0000
0000
0000
0000
,
0000
0000
0000
0000
,
0000
0000
0000
0000
,
0000
0000
0000
0000
1000
0010
0001
0000
,
1001
0001
0100
0010
1000
0100
0001
0000
,
0010
0001
0100
0010
1000
0001
1000
0000
,
0100
0010
0100
1000
0010
0100
0001
0000
,
0010
0001
1000
0010
0100
0001
1000
0000
,
0100
0010
0100
0010
0001
1000
0100
0000
,
0010
0001
1000
0010
0100
0010
1000
0000
,
0100
1000
0001
0010
0100
0010
0001
0000
,
0100
0001
0010
0100
1000
0010
0001
0000
,
1001
0010
0100
0001
1000
0100
0010
0001
,
0100
0001
1000
0010
1000
0100
0010
0001
,
0010
0100
0010
0001
1000
0010
0100
0010
,
1000
0100
1000
0001
0010
0100
1000
0000
,
0001
0000
0100
0000
0010
0000
0000
1000
0000
0000
0100
0000
1000
0000
0010
0100
,
0010
0000
1000
0000
0100
0000
0000
0010
0000
0000
0001
0000
1000
0000
0010
0100
,
0010
0000
1000
0000
0001
0000
0000
0100
0000
0000
0010
0000
1000
0000
0100
0010
,
0100
1000
0010
0000
1000
0100
0001
0000
,
1001
0000
0100
0000
0001
0000
0000
0010
0000
0000
0100
0000
1000
0000
0010
0100
,
0010
0000
1000
0000
0001
0000
0000
0010
0000
0000
0001
0000
0100
0000
0010
1000
,
0010
0000
1000
0000
0100
0000
0000
1000
0000
0000
0010
0000
0100
0000
0001
1000
,
0001
0010
0100
0000
1000
0010
0001
0000
,
1001
1000
0010
1000
0100
0010
0001
0000
,
0010
0001
0100
0010
0100
0001
1000
0000
,
0001
0010
0100
0010
0100
1000
0010
0000
,
0100
0001
1000
0010
1000
0100
0001
0000
,
1001
0001
0100
0000
0001
1000
0100
0000
,
1000
0010
0100
0000
0010
1000
0001
0000
,
0010
0100
0010
0000
0001
0100
0001
0000
,
0010
0001
1000
0000
0001
0100
1000
0000
,
1001
0000
0100
0000
0010
0000
0000
1000
0000
0000
0001
0000
0100
0000
0001
0000
,
0010
0000
0001
0000
0100
0000
0000
0010
0000
0000
1000
0000
0001
0000
1000
0000
,
0100
0000
0010
0000
0100
0000
0000
1000
0000
0000
0010
0000
0100
0000
0001
0000
,
0010
0000
0001
0000
1000
0000
0000
0010
0000
0000
0100
0000
0001
0000
0000
0000
,
0010
0000
0001
0000
1000
0000
0000
0010
0000
0000
0100
0000
0001
0000
0000
0000
,
0100
0000
0001
0000
0010
0000
0000
0001
0000
0000
1000
0000
0100
0000
0000
0000
,
1000
0000
0001
0000
0010
0000
0000
0100
0000
0000
1000
0000
0010
0000
0000
0000
,
0100
0000
0010
0000
1000
0000
0000
0100
0000
0000
1000
0000
0001
0000
0000
0000
,
1000
0001
0000
0000
0010
0000
0000
0100
0000
0000
1000
0000
0001
0000
0000
0000
,
0000
0010
0000
0000
0001
0000
0000
1000
0000
0000
0010
0000
0100
0000
0000
0000
,
0000
0010
0000
0000
0100
0000
0000
0001
0000
0000
0010
0000
0100
0000
0000
0000
,
0000
1000
0000
0000
0010
0000
0000
0000
1000
0000
0100
0000
0001
0000
0000
0000
,
1001
0001
0100
0010
1000
0100
0001
0000
,
0010
0001
1000
0001
0100
0010
1000
0000
,
0100
0010
0100
0010
0001
0100
1000
0000
,
0010
0100
0001
1000
0010
1000
0100
0000
,
1000
0001
1000
0000
0010
0000
0000
0100
0000
0000
0001
0000
0010
0000
0000
0000
,
0100
1000
0100
0000
1000
0000
0000
0010
0000
0000
0100
0000
0001
0000
0000
0000
,
0010
0001
0010
0000
0100
0000
0000
1000
0000
0000
0010
0000
1000
0000
0000
0000
,
0001
0010
0001
0000
1000
0000
0000
0010
0000
0000
1000
0000
0100
0000
0000
0000
,
1000
0010
1000
0000
0100
0000
0000
0010
0000
0000
0001
0000
0100
0000
0000
0000
,
0001
0100
0001
0000
0010
0000
0000
0001
0000
0000
1000
0000
0010
0000
0000
0000
,
0100
0010
0100
0000
0001
0000
0000
1000
0000
0000
0100
0000
0010
0000
0000
0000
,
0001
1000
0001
0000
0010
0000
0000
0100
0000
0000
1000
0000
0010
0000
0000
0000
,
1000
0010
0000
0000
0100
0000
0000
0001
0000
0000
0010
0000
0000
0100
0000
0000
,
1000
0000
0000
0010
0000
0000
0100
0000
0000
0001
0000
0000
0010
0000
0100
0000
,
1000
0010
0000
0000
1000
0000
0000
0100
0000
0000
0010
0000
0000
0001
0000
0000
,
0100
0000
0000
0001
0000
0000
1000
0000
0000
0001
0000
0000
0010
0000
0100
0000
,
0010
0001
0000
0000
1000
0000
0000
0010
0000
0000
0100
0000
0000
0001
0000
0000
,
1000
0000
0000
0001
0000
0000
0010
0000
0000
0100
0000
0000
1000
0000
0001
0000
,
0100
0010
0000
0000
1000
0000
0000
0100
0000
0000
0010
0000
0000
0001
0000
0000
,
0100
0000
0000
0001
0000
0000
1000
0000
0000
0010
0000
0000
1000
0000
0001
0000
,
0110
0100
0001
0010
,
0100
0000
1000
0000
0001
0100
1000
0000
,
1001
0000
0000
0000
;

//---------------dance-single - ----------------
#NOTEDATA:;
#CHARTNAME:;
#STEPSTYPE:dance-single;
#DESCRIPTION:;
#CHARTSTYLE:;
#DIFFICULTY:Medium;
#METER:10;
#RADARVALUES:0.428156,0.456041,0.095009,0.017274,0.000000,347.000000,336.000000,11.000000,2.000000,0.000000,0.000000,0.000000,0.000000,0.000000,0.428156,0.456041,0.095009,0.017274,0.000000,347.000000,336.000000,11.000000,2.000000,0.000000,0.000000,0.000000,0.000000,0.000000;
#CREDIT:;
#DISPLAYBPM:140.000000;
#NOTES:
0000
0000
0000
0000
,
0000
0000
0000
0000
,
0000
0000
0000
0000
,
0000
0000
0000
0000
1000
0100
0001
0000
,
1001
1000
0010
0100
,
0001
0010
0001
0100
,
0001
1000
0100
0010
,
0100
1000
0010
0100
,
0110
0000
0010
1000
0001
0100
0001
0000
,
0010
0000
0001
1000
0001
0100
0010
0000
,
0100
0000
0010
1000
0010
1000
0100
0000
,
0010
0000
0001
0000
1000
0100
0001
0000
,
1001
0000
0001
0010
0001
0100
0010
0000
,
0100
0000
0001
0010
0001
1000
0100
0000
,
1000
0000
0001
0010
0100
0010
0100
0000
,
1000
0000
0001
1000
0010
1000
0100
0000
,
1000
0100
1000
0000
0001
0100
0010
0000
,
0100
0001
0100
0000
0001
0010
0100
0000
,
1000
0001
1000
0000
0010
0100
0001
0000
,
0010
0100
0010
0000
0001
0100
1000
0000
,
1001
0010
1000
0000
0100
0010
0001
0000
,
0100
0001
1000
0000
0001
0100
0010
0000
,
0100
0001
0010
0000
0100
1000
0001
0000
,
1000
0010
0100
0000
0001
0100
1000
0000
,
1001
0000
0100
0000
1000
0010
0001
0000
,
0100
0000
0010
0000
1000
0100
0001
0000
,
0010
0000
0001
0000
0100
0010
1000
0000
,
0100
0000
1000
0000
0001
0100
1000
0000
,
1001
0000
0010
0000
0100
0001
1000
0000
,
0100
0000
1000
0000
0001
0010
1000
0000
,
0001
0000
0100
0000
0010
1000
0001
0000
,
0100
0000
0001
0000
1000
0100
0001
0000
,
1001
0010
0100
0010
,
0001
0100
1000
0010
,
1000
0100
0010
0100
,
1000
0001
0010
0100
,
0010
0001
0100
0010
,
0100
0010
1000
0100
,
1000
0001
0010
0100
,
0010
0100
1000
0001
,
0110
0100
0001
1000
,
0010
0100
0010
1000
,
0100
0010
0100
1000
,
0010
0000
0100
0000
0001
0100
1000
0000
,
1001
0001
0010
0000
0001
1000
0100
0000
,
1000
0010
0100
0000
0010
1000
0001
0000
,
0100
0010
1000
0000
0010
1000
0001
0000
,
0010
0100
1000
0000
0010
1000
0001
0000
,
0010
1000
0100
0000
0010
0001
1000
0000
,
0001
0100
0001
0000
0010
0100
1000
0000
,
0010
1000
0100
0000
1000
0001
1000
0000
,
0010
1000
0001
0000
0010
0100
1000
0000
,
0010
1000
0001
0000
1000
0100
0010
0000
,
0100
1000
0010
0000
1000
0001
1000
0000
,
0001
0010
0001
0000
0100
0010
1000
0000
,
0100
0010
0100
0000
1000
0001
1000
0000
,
0001
0010
0001
0100
0010
1000
0001
0000
,
1000
0010
0100
0010
1000
0100
0010
0000
,
0001
0100
0001
1000
0010
1000
0100
0000
,
1000
0010
0100
0010
1000
0100
0010
0000
,
0001
0100
0010
0100
0010
1000
0001
0000
,
0010
0100
0010
0001
0100
0010
1000
0000
,
0001
1000
0001
0010
0001
0100
0010
0000
,
1000
0100
1000
0001
0010
0100
1000
0000
,
0220
0000
0000
0000
,
0000
0000
0330
0000
0001
0100
1000
0000
,
1001
0000
0000
0000
;

//---------------dance-single - ----------------
#NOTEDATA:;
#CHARTNAME:;
#STEPSTYPE:dance-single;
#DESCRIPTION:;
#CHARTSTYLE:;
#DIFFICULTY:Easy;
#METER:6;
#RADARVALUES:0.286260,0.342031,0.172743,0.017274,0.000000,232.000000,212.000000,20.000000,2.000000,0.000000,0.000000,0.000000,0.000000,0.000000,0.286260,0.342031,0.172743,0.017274,0.000000,232.000000,212.000000,20.000000,2.000000,0.000000,0.000000,0.000000,0.000000,0.000000;
#CREDIT:;
#DISPLAYBPM:140.000000;
#NOTES:
0000
0000
0000
0000
,
0000
0000
0000
0000
,
0000
0000
0000
0000
,
0000
0000
1000
0001
,
1001
0000
0010
0000
,
1000
0000
0100
0000
,
0010
0000
0001
0000
,
0100
0000
0010
0000
,
0110
1000
0010
0100
,
0010
1000
0100
0010
,
0001
0100
0001
0010
,
0100
1000
0001
1000
,
1001
0010
1000
0100
,
0010
0100
1000
0010
,
0100
0001
0010
0100
,
1000
0010
1000
0001
,
0010
0011
0001
0100
,
0010
1010
1000
0100
,
1000
1100
0010
0100
,
0001
0010
0001
1000
,
1001
0100
0010
1000
,
0100
1100
1000
0010
,
0100
0101
0001
1000
,
0010
0100
0001
1000
,
1001
0000
1000
0100
,
1000
0000
0010
0100
,
0010
0000
0100
0001
,
0100
0000
0001
1000
,
1001
0000
0100
0010
,
0100
0000
0001
0010
,
0001
0000
1000
0010
,
1000
0000
0001
1000
,
1001
0000
1000
0100
,
0000
0000
0010
0001
,
0000
0000
0100
0010
,
0000
0000
1000
0001
,
0000
0000
0010
0100
,
0000
0000
0010
0001
,
0000
0000
0100
0010
,
0000
0000
1000
0001
,
0110
0010
1000
0001
,
0000
0010
0100
1000
,
0000
0001
0100
0010
,
0000
0100
0001
1000
,
1001
0010
1000
0100
,
0010
0001
0100
0010
,
0100
0001
0010
0100
,
1000
0001
0100
0010
,
1000
0010
1000
0100
,
0010
0100
1000
0010
,
0100
0001
0010
0001
,
0100
0001
0010
0100
,
1000
0010
1000
0001
,
0100
0001
0010
0100
,
0010
0001
0100
0010
,
1000
0100
1000
0001
,
0010
0011
0001
0100
,
0010
1000
0100
0001
,
0100
0110
0010
1000
,
0001
1000
0100
0010
,
0100
1100
1000
0010
,
0100
0010
1000
0001
,
0010
0011
0001
0100
,
0001
0010
0100
1000
,
0220
0000
0000
0000
,
0000
0330
1000
0001
,
1001
0000
0000
0000
;

//---------------dance-single - ----------------
#NOTEDATA:;
#CHARTNAME:;
#STEPSTYPE:dance-single;
#DESCRIPTION:;
#CHARTSTYLE:;
#DIFFICULTY:Beginner;
#METER:2;
#RADARVALUES:0.128323,0.171015,0.069097,0.000000,0.000000,104.000000,96.000000,8.000000,0.000000,0.000000,0.000000,0.000000,0.000000,0.000000,0.128323,0.171015,0.069097,0.000000,0.000000,104.000000,96.000000,8.000000,0.000000,0.000000,0.000000,0.000000,0.000000,0.000000;
#CREDIT:;
#DISPLAYBPM:140.000000;
#NOTES:
// measure 0
0000
0000
0000
0000
,  // measure 1
0000
0000
0000
0000
,  // measure 2
0000
0000
0000
0000
,  // measure 3
0000
0000
1000
0000
,  // measure 4
1001
0000
0000
0000
,  // measure 5
0001
0000
0000
0000
,  // measure 6
0100
0000
0000
0000
,  // measure 7
0010
0000
0000
0000
,  // measure 8
1000
0000
0001
0000
,  // measure 9
0100
0000
0100
0000
,  // measure 10
0001
0000
1000
0000
,  // measure 11
0010
0000
1000
0000
,  // measure 12
1001
0000
0000
0000
,  // measure 13
0010
0000
0001
0000
,  // measure 14
0100
0000
0010
0000
,  // measure 15
1000
0000
0001
0000
,  // measure 16
0000
1000
0000
1000
,  // measure 17
0000
0010
0000
0010
,  // measure 18
0000
0100
0000
0010
,  // measure 19
0000
0000
1000
0000
,  // measure 20
1001
0000
0000
0000
,  // measure 21
0000
0001
0000
0010
,  // measure 22
0000
0001
0000
1000
,  // measure 23
0000
0000
1000
0000
,  // measure 24
1001
0000
0000
0001
,  // measure 25
0000
0000
0000
0010
,  // measure 26
0000
0000
0000
0100
,  // measure 27
0000
0000
1000
0000
,  // measure 28
1001
0000
0000
0001
,  // measure 29
0000
0000
0000
0100
,  // measure 30
0000
0000
0000
0010
,  // measure 31
0000
0000
1000
0000
,  // measure 32
1001
0000
0000
0000
,  // measure 33
0010
0000
0000
0000
,  // measure 34
0100
0000
0000
0000
,  // measure 35
0010
0000
0000
0000
,  // measure 36
1000
0000
0000
0000
,  // measure 37
0001
0000
0000
0000
,  // measure 38
1000
0000
0000
0000
,  // measure 39
0001
0000
0000
0000
,  // measure 40
0010
0000
0000
0000
,  // measure 41
0001
0000
0000
0000
,  // measure 42
1000
0000
0000
0000
,  // measure 43
0100
0000
1000
0000
,  // measure 44
1001
0000
0000
0001
,  // measure 45
0000
0000
0000
1000
,  // measure 46
0000
0000
0000
0010
,  // measure 47
0000
0000
0100
0000
,  // measure 48
0001
0000
0001
0000
,  // measure 49
1000
0000
1000
0000
,  // measure 50
0010
0000
0010
0000
,  // measure 51
0100
0000
0100
0000
,  // measure 52
0001
0000
0010
0000
,  // measure 53
0001
0000
0010
0000
,  // measure 54
0100
0000
1000
0000
,  // measure 55
0100
0000
1000
0000
,  // measure 56
0010
0000
0100
0000
,  // measure 57
0001
0000
0010
0000
,  // measure 58
0100
0000
1000
0000
,  // measure 59
0010
0000
0100
0000
,  // measure 60
0010
0000
0100
0000
,  // measure 61
0001
0000
0010
0000
,  // measure 62
0001
0000
1000
0000
,  // measure 63
0010
0000
1000
0000
,  // measure 64
0001
0000
0000
0000
,  // measure 65
0000
0000
1000
0000
,  // measure 66
1001
0000
0000
0000
;
