#TITLE:Robot Rock;
#SUBTITLE:;
#ARTIST:Daft Punk;
#TITLETRANSLIT:;
#SUBTITLETRANSLIT:;
#ARTISTTRANSLIT:;
#GENRE:;
#CREDIT:;
#BANNER:Robot Rock-bn.png;
#BACKGROUND:Robot Rock-bg.png;
#LYRICSPATH:;
#CDTITLE:;
#MUSIC:Robot Rock.ogg;
#OFFSET:0.000000;
#SAMPLESTART:18.966999;
#SAMPLELENGTH:20.000000;
#SELECTABLE:YES;
#DISPLAYBPM:110.000000:115.000000;
#BPMS:0.000000=115.000000
,16.000000=113.000000
,52.000000=111.000000
,64.000000=112.000000
,196.000000=110.000000
,200.000000=112.000000
,224.000000=113.000000
;
#STOPS:
;
#BGCHANGES:;
#KEYSOUNDS:;
#ATTACKS:;

//---------------dance-single - ----------------
#NOTES:
     dance-single:
     :
     Hard:
     12:
     0.527492,0.505494,0.612720,0.354733,0.507913,458.000000,382.000000,76.000000,44.000000,0.000000,0.000000,0.527492,0.505494,0.612720,0.354733,0.507913,458.000000,382.000000,76.000000,44.000000,0.000000,0.000000:
0000
0000
0000
0000
,
0000
0000
0000
0000
,
0000
0000
0000
0000
,
0000
0000
0000
0000
,
1001
1001
1001
1001
,
1001
0000
0000
0000
1001
0000
0000
0000
1001
0000
0000
0000
1000
0001
0000
0000
,
0110
0110
0110
0110
,
0110
0000
0000
0000
0110
0000
0000
0000
0110
0000
0000
0000
0200
0020
0000
0000
,
0000
0000
0000
0330
,
1001
0000
0000
0000
1000
0010
1000
0010
2000
0000
0100
0000
0000
3001
0000
0000
,
0101
0000
0000
0000
0001
0010
0001
0010
0100
1000
0002
0000
0010
0000
0003
0000
,
0011
0000
0000
0000
0001
0100
0001
0100
0002
0000
0010
0000
0000
1003
0000
0000
,
1010
0000
0000
0000
1000
0001
1000
0001
0100
0010
0200
0000
0001
0000
0300
0000
,
0110
0000
0000
0000
1000
0001
1000
0001
2000
0000
0010
0000
0000
3100
0000
0000
,
1100
0000
0000
0000
1000
0010
1000
0100
0010
0001
0200
0000
0010
0000
0300
0000
,
1010
0000
0000
0000
0010
0100
0010
0100
0020
0000
0001
0000
0000
1030
0000
0000
,
1010
0000
0000
0000
1000
0001
0010
0100
0010
0100
2000
0000
0001
0000
3000
0000
,
1100
0000
0000
0000
0010
1000
0100
1000
0020
0000
0001
0000
0000
0130
0000
0000
,
0110
0000
0000
0000
0010
1000
0100
0010
0001
1000
0002
0000
0100
0000
0003
0000
,
1001
0000
0000
0000
0001
1000
0100
1000
0002
0000
0010
0000
0000
0103
0000
0000
,
1010
0000
0000
0000
1000
0100
0001
1000
0100
0010
0002
0000
0010
0000
0003
0000
,
0011
0000
0000
0000
0010
0100
1000
0010
0200
0000
0001
0000
0000
0301
0000
0000
,
0101
0000
0000
0000
0001
0010
1000
0001
0010
0100
2000
0000
0100
0000
3000
0000
,
0110
0000
0000
0000
0010
0001
1000
0001
0020
0000
0100
0000
0000
0130
0000
0000
,
1100
0000
0000
0000
1000
0100
0010
0001
0010
0100
2000
0000
0001
0000
3000
0000
,
2001
0000
0000
0000
3100
0000
0000
0000
0000
0000
1100
0000
0000
0101
0000
0000
,
2100
0000
0000
0000
3100
0000
0000
0000
1000
0001
1000
0000
0010
0000
0010
0000
,
0120
0000
0000
0000
0130
0000
0000
0000
0000
0000
0101
0000
0000
1100
0000
0000
,
0102
0000
0000
0000
0103
0000
0000
0000
0001
0010
0001
0000
1000
0000
1000
0000
,
1020
0000
0000
0000
0130
0000
0000
0000
0000
0000
0110
0000
0000
0101
0000
0000
,
1020
0000
0000
0000
0130
0000
0000
0000
0010
1000
0001
0000
0001
0000
0010
0000
,
0012
0000
0000
0000
0103
0000
0000
0000
0000
0000
0101
0000
0000
1001
0000
0000
,
1020
0100
0100
0130
,
0110
0000
0000
0000
0010
0100
0001
1000
0200
0000
0010
0000
0000
1300
0000
0000
,
1100
0000
0000
0000
1000
0001
0010
0100
1000
0001
0200
0000
0010
0000
0300
0000
,
0101
0000
0000
0000
0001
1000
0100
0010
2000
0000
0010
0000
0000
3001
0000
0000
,
1001
0000
0000
0000
0100
0010
1000
0100
0001
1000
0002
0000
0010
0000
0003
0000
,
0101
0000
0000
0000
0100
0001
1000
0100
2000
0000
0010
0000
0000
3010
0000
0000
,
0101
0000
0000
0000
0001
1000
0100
0010
0001
0100
0020
0000
1000
0000
0030
0000
,
1100
0000
0000
0000
0010
0100
0010
0001
0020
0000
1000
0000
0000
1030
0000
0000
,
0110
0000
0000
0000
0001
0100
1000
0100
0010
1000
0002
0000
0010
0000
0003
0000
,
0001
0000
0000
0000
1000
0010
0100
0010
2000
0000
0001
0000
0000
0001
0000
0000
,
3001
0000
0000
0000
1000
0100
1000
0100
0010
0001
0020
0000
0001
0000
0030
0000
,
0010
0000
0000
0000
0001
0100
0001
1000
0200
0000
0010
0000
0000
0010
0000
0000
,
0310
0000
0000
0000
0100
1000
0100
1000
0001
0100
0020
0000
1000
0000
0000
0000
,
1030
0000
0000
0000
0100
0010
0001
0100
0002
0000
1000
0000
0000
1000
0000
0000
,
1003
0000
0000
0000
0100
1000
0001
0100
0010
1000
0020
0000
0001
0000
0000
0000
,
0130
0000
0000
0000
0010
1000
0001
1000
0020
0000
0100
0000
0000
0100
0000
0000
,
0130
0000
0000
0000
0001
1000
0100
1000
0010
0100
0002
0000
0010
0000
0003
0000
,
1001
0000
0000
0010
1000
0000
0000
0001
0100
0000
0000
0101
0000
0000
1010
0000
,
0110
0000
0000
0010
0100
0000
0000
0001
1000
0000
0000
1100
0000
0000
0011
0000
,
0101
0000
0000
1000
0100
0000
0000
0010
0001
0000
0000
1001
0000
0000
1010
0000
,
0101
0000
0000
0100
0010
0000
0000
1000
0001
0000
0000
1010
0000
0000
0011
0000
,
1001
0000
0000
1000
0100
0000
0000
0010
0001
0000
0000
0110
0000
0000
1001
0000
,
1100
0000
0000
1000
0001
0000
0000
0010
0100
0000
0000
1100
0000
0000
0101
0000
,
0110
0000
0000
0010
1000
0000
0000
0001
0100
0000
0000
0110
0000
0000
1002
0000
,
2000
0000
0000
3003
,
1001
0000
0000
0000
;

//---------------dance-single - ----------------
#NOTES:
     dance-single:
     :
     Beginner:
     2:
     0.138208,0.229770,0.257988,0.000000,0.000000,120.000000,88.000000,32.000000,0.000000,0.000000,0.000000,0.138208,0.229770,0.257988,0.000000,0.000000,120.000000,88.000000,32.000000,0.000000,0.000000,0.000000:
0000
0000
0000
0000
,
0000
0000
0000
0000
,
0000
0000
0000
0000
,
0000
0000
0000
0000
,
1001
0000
1001
0000
,
1001
0000
1001
0000
,
0110
0000
0110
0000
,
0110
0000
0110
0000
,
0000
0000
0000
0000
,
1001
0000
0000
0000
,
0010
0000
0100
0000
,
0110
0000
0000
0000
,
0001
0000
1000
0000
,
1001
0000
0000
0000
,
1000
0000
0100
0000
,
1001
0000
0000
0000
,
0010
0000
0001
0000
,
0110
0000
0000
0000
,
0010
0000
1000
0000
,
0110
0000
0000
0000
,
0100
0000
0001
0000
,
1001
0000
0000
0000
,
0100
0000
0010
0000
,
1001
0000
0000
0000
,
1000
0000
0001
0000
,
1001
0000
0000
0000
,
0100
0000
0000
0000
,
0110
0000
0000
0000
,
0010
0000
0000
0000
,
0110
0000
0000
0000
,
1000
0000
0000
0000
,
0110
0000
0000
0000
,
0001
0000
0000
0000
,
0001
0000
0001
0000
,
1000
0000
1000
0000
,
0010
0000
0010
0000
,
0100
0000
0100
0000
,
0010
0000
0010
0000
,
1000
0000
1000
0000
,
0001
0000
0001
0000
,
0100
0000
0100
0000
,
0010
0000
1000
0000
,
0100
0000
0001
0000
,
1000
0000
0100
0000
,
0010
0000
0001
0000
,
0100
0000
0010
0000
,
0001
0000
1000
0000
,
0001
0000
0100
0000
,
0010
0000
1000
0000
,
0110
0000
0100
0000
,
1001
0000
0010
0000
,
0110
0000
1000
0000
,
0110
0000
0001
0000
,
1001
0000
1001
0000
,
0110
0000
0110
0000
,
0110
0000
1001
0000
,
1001
0000
0000
0000
,
1001
0000
0000
0000
;

//---------------dance-single - ----------------
#NOTES:
     dance-single:
     :
     Medium:
     9:
     0.357036,0.413586,0.451478,0.524037,0.108838,310.000000,254.000000,56.000000,65.000000,0.000000,0.000000,0.357036,0.413586,0.451478,0.524037,0.108838,310.000000,254.000000,56.000000,65.000000,0.000000,0.000000:
0000
0000
0000
0000
,
0000
0000
0000
0000
,
0000
0000
0000
0000
,
0000
0000
0000
0000
,
1001
1001
1001
1001
,
1001
1001
1001
1001
,
0110
0110
0110
0110
,
0110
0110
0110
0220
,
0000
0000
0000
0330
,
1001
0000
1000
0001
0200
0010
0010
0000
,
0301
0000
0000
0000
0100
0000
0010
0000
1000
0001
2000
0000
0000
0000
3000
0000
,
1010
0000
0010
1000
0002
0100
0100
0000
,
1003
0000
0000
0000
0010
0000
0100
0000
0001
1000
0002
0000
0000
0000
0003
0000
,
0011
0000
0001
1000
0002
0100
0100
0000
,
1003
0000
0000
0000
0001
0000
0100
0000
0010
0100
0020
0000
0000
0000
0030
0000
,
1010
0000
0100
0010
2000
0001
0001
0000
,
3010
0000
0000
0000
1000
0000
0001
0000
0100
0010
0200
0000
0000
0000
0300
0000
,
0110
0000
0001
0100
2000
0001
0001
0000
,
3010
0000
0000
0000
1000
0000
0010
0000
0001
0100
0002
0000
0000
0000
0003
0000
,
0101
0000
0010
0001
0200
1000
1000
0000
,
0301
0000
0000
0000
1000
0000
0100
0000
0010
0001
0020
0000
0000
0000
0030
0000
,
0011
0000
0001
0100
0020
0100
0100
0000
,
1030
0000
0000
0000
0010
0000
1000
0000
0100
0010
0200
0000
0000
0000
0300
0000
,
1100
0000
1000
0100
0002
0010
0010
0000
,
0103
0000
0000
0000
0001
0000
0010
0000
1000
0100
2000
0000
0000
0000
3000
0000
,
2002
0000
0000
0000
3000
0000
0000
0000
0000
0000
0100
0000
0000
0103
0000
0000
,
0220
0000
0300
0000
1000
1000
1030
0000
,
2002
0000
0000
0000
0003
0000
0000
0000
0000
0000
0100
0000
0000
3100
0000
0000
,
0220
0000
0030
0000
1000
1000
1300
0000
,
2200
0000
0000
0000
0300
0000
0000
0000
0000
0000
0001
0000
0000
3001
0000
0000
,
0022
0000
0003
0000
0100
0100
0130
0000
,
0022
0000
0000
0000
0030
0000
0000
0000
0000
0000
1000
0000
0000
1003
0000
0000
,
2002
0000
0000
3003
,
0101
0000
0010
0100
0020
1000
1030
0000
,
1010
0000
0000
0000
0100
0000
1000
0000
0001
0100
0002
0000
0000
0000
0003
0000
,
1001
0000
0010
1000
0200
0010
0310
0000
,
0110
0000
0000
0000
0001
0000
0100
0000
1000
0010
2000
0000
0000
0000
3000
0000
,
1100
0000
1000
0100
2000
0010
3010
0000
,
0101
0000
0000
0000
1000
0000
0001
0000
0010
0001
0020
0000
0000
0000
0030
0000
,
0101
0000
0001
1000
0200
1000
1300
0000
,
1100
0000
0000
0000
0010
0000
1000
0000
0001
0010
0002
0000
0000
0000
0003
0000
,
1001
0000
0100
0010
2000
0000
3000
0000
,
1001
0000
0000
0000
0010
0000
0100
0000
0001
1000
0002
0000
0000
0000
0003
0000
,
0011
0000
0001
0100
0020
0000
0030
0000
,
0110
0000
0000
0000
0010
0000
1000
0000
0100
1000
0200
0000
0000
0000
0300
0000
,
1100
0000
0001
1000
0020
0000
0030
0000
,
1010
0000
0000
0000
1000
0000
0001
0000
1000
0100
2000
0000
0000
0000
3000
0000
,
0011
0000
1000
0010
0002
0000
0003
0000
,
0110
0000
0000
0000
0001
0000
0010
0000
0100
1000
0200
0000
0000
0000
0300
0000
,
2200
0000
0000
0000
0300
0000
0000
0000
0001
0000
0000
0001
0000
0000
3001
0000
,
2002
0000
0000
0000
0003
0000
0000
0000
0010
0000
0000
0010
0000
0000
3010
0000
,
0220
0000
0000
0000
0300
0000
0000
0000
0100
0000
0000
0100
0000
0000
0130
0000
,
2020
0000
0000
0000
3000
0000
0000
0000
1000
0000
0000
1000
0000
0000
1030
0000
,
0202
0000
0000
0000
0300
0000
0000
0000
0100
0000
0000
0100
0000
0000
0103
0000
,
0220
0000
0000
0000
0030
0000
0000
0000
0010
0000
0000
0010
0000
0000
0310
0000
,
2002
0000
0000
0000
0003
0000
0000
0000
0001
0000
0000
0001
0000
0000
0002
0000
,
0000
0000
0000
3003
,
1001
0000
0000
0000
;

//---------------dance-single - ----------------
#NOTES:
     dance-single:
     :
     Easy:
     5:
     0.244167,0.367632,0.403106,0.419230,0.000000,212.000000,162.000000,50.000000,52.000000,0.000000,0.000000,0.244167,0.367632,0.403106,0.419230,0.000000,212.000000,162.000000,50.000000,52.000000,0.000000,0.000000:
// measure 0
0000
0000
0000
0000
,  // measure 1
0000
0000
0000
0000
,  // measure 2
0000
0000
0000
0000
,  // measure 3
0000
0000
0000
0000
,  // measure 4
1001
1001
1001
1001
,  // measure 5
1001
1001
1001
0000
,  // measure 6
0110
0110
0110
0110
,  // measure 7
0110
0110
0110
0000
,  // measure 8
0000
0000
0000
0000
,  // measure 9
1001
0010
2000
0000
,  // measure 10
3000
0000
1001
0000
0001
0200
0000
0300
,  // measure 11
1001
1000
0002
0000
,  // measure 12
0003
0000
0110
0000
0100
0020
0000
0030
,  // measure 13
0110
1000
0200
0000
,  // measure 14
0300
0000
0110
0000
0001
0020
0000
0030
,  // measure 15
1001
0100
2000
0000
,  // measure 16
3000
0000
1001
0000
0010
0002
0000
0003
,  // measure 17
0110
0001
2000
0000
,  // measure 18
3000
0000
0110
0000
0010
0200
0000
0300
,  // measure 19
1001
0100
0002
0000
,  // measure 20
0003
0000
1001
0000
1000
0020
0000
0030
,  // measure 21
0110
1000
0200
0000
,  // measure 22
0300
0000
0110
0000
0001
0020
0000
0030
,  // measure 23
1001
0100
2000
0000
,  // measure 24
3000
0000
1001
0000
0010
0002
0000
0003
,  // measure 25
0020
0000
0000
0000
0000
0130
0000
0000
,  // measure 26
0001
0000
0001
1000
,  // measure 27
0002
0000
0000
0000
0000
1003
0000
0000
,  // measure 28
0010
0000
0010
0100
,  // measure 29
2000
0000
0000
0000
0000
3010
0000
0000
,  // measure 30
1000
0000
0100
1000
,  // measure 31
0200
0000
0000
0000
0000
0301
0000
0000
,  // measure 32
1000
1000
0001
0001
,  // measure 33
0011
0020
0002
0000
,  // measure 34
0033
0000
1100
0000
2000
0200
0000
3300
,  // measure 35
1010
2000
0020
0000
,  // measure 36
3030
0000
0101
0000
0200
0002
0000
0303
,  // measure 37
1100
2000
0002
0000
,  // measure 38
3003
0000
1010
0000
0020
0200
0000
0330
,  // measure 39
0101
0020
2000
0000
,  // measure 40
3030
0000
1100
0000
0002
0200
0000
0303
,  // measure 41
1001
0100
0010
1000
,  // measure 42
0001
0010
0100
1000
,  // measure 43
0110
0010
0100
0001
,  // measure 44
1000
0100
0010
0001
,  // measure 45
0110
0001
0100
1000
,  // measure 46
0010
0100
1000
0001
,  // measure 47
1001
0010
0001
1000
,  // measure 48
0100
0010
1000
0001
,  // measure 49
2200
0300
0001
3100
,  // measure 50
0022
0030
1000
0013
,  // measure 51
2020
0030
0100
3010
,  // measure 52
0202
0003
1000
0301
,  // measure 53
0220
0300
1000
0130
,  // measure 54
2002
0003
0010
3001
,  // measure 55
0202
0300
1000
2003
,  // measure 56
0020
0000
0000
3030
,  // measure 57
1001
0000
0000
0000
;
