#VERSION:0.83;
#TITLE:Ride on the Light;
#SUBTITLE:;
#ARTIST:Mr. T;
#TITLETRANSLIT:;
#SUBTITLETRANSLIT:;
#ARTISTTRANSLIT:;
#GENRE:;
#ORIGIN:;
#CREDIT:;
#BANNER:Ride on the Light-bn.png;
#BACKGROUND:Ride on the Light-bg.png;
#PREVIEWVID:;
#JACKET:Ride on the Light-jacket.png;
#CDIMAGE:;
#DISCIMAGE:;
#LYRICSPATH:;
#CDTITLE:;
#MUSIC:Ride on the Light.ogg;
#OFFSET:0.000000;
#SAMPLESTART:15.150000;
#SAMPLELENGTH:20.000000;
#SELECTABLE:YES;
#DISPLAYBPM:160.000000;
#BPMS:0.000=160.000;
#STOPS:;
#DELAYS:;
#WARPS:;
#TIMESIGNATURES:0.000=4=4;
#TICKCOUNTS:0.000=4;
#COMBOS:0.000=1;
#SPEEDS:0.000=1.000=0.000=0;
#SCROLLS:0.000=1.000;
#FAKES:;
#LABELS:0.000=Song Start;
#BGCHANGES:0.000=Ride on the Light.avi=1.000=0=0=0=StretchNoLoop====,
99999=-nosongbg-=1.000=0=0=0 // don't automatically add -songbackground-
;
#KEYSOUNDS:;
#ATTACKS:
;

//---------------dance-single - ----------------
#NOTEDATA:;
#CHARTNAME:;
#STEPSTYPE:dance-single;
#DESCRIPTION:;
#CHARTSTYLE:;
#DIFFICULTY:Hard;
#METER:13;
#RADARVALUES:0.617122,0.653264,0.342366,0.422922,0.050348,429.000000,395.000000,34.000000,42.000000,0.000000,0.000000,0.000000,0.000000,0.000000,0.617122,0.653264,0.342366,0.422922,0.050348,429.000000,395.000000,34.000000,42.000000,0.000000,0.000000,0.000000,0.000000,0.000000;
#CREDIT:;
#NOTES:
0000
0000
0000
0000
,
0000
0000
0000
0000
,
0000
0000
0000
0000
,
0000
0000
0000
0000
,
0000
0000
0000
0000
,
0000
0010
0010
0001
1000
1000
0001
0200
,
0000
0310
0100
0001
0000
1001
0000
0001
,
1000
1000
0010
0010
0100
0001
1000
1200
,
0000
1000
0001
1300
,
0010
0100
0001
1000
1010
1010
0000
1001
,
0000
0010
1000
0001
1000
0010
0100
0001
,
0010
0001
1000
0020
0000
1030
0001
0000
,
0010
0001
0100
0010
1000
0100
1000
0002
,
0000
0023
0000
0230
0000
1300
0010
1000
,
0002
0000
0013
0001
0000
1000
0010
2000
,
0100
0000
3001
1000
0000
0010
0100
0010
,
1000
0100
0001
0100
0010
0100
0001
0100
,
0010
0100
1000
0100
0010
0100
0001
0100
,
0000
1000
0110
0100
0001
1000
0100
0020
,
0000
0031
1000
0002
0000
0013
0200
0000
,
1300
0010
1000
0001
0010
0100
1000
0002
,
0000
2003
0000
3020
0000
0130
0001
0010
,
0200
0000
1300
0010
1000
0100
0010
0002
,
0100
0000
0013
0100
1000
0010
1000
0001
,
0000
0000
0100
0000
0101
0000
0000
0001
1000
0001
1000
0000
0010
0000
0100
0010
,
0100
0101
0000
0011
0000
0110
0000
2200
,
0000
0000
0300
0000
3001
1000
0010
0200
,
1000
0000
0301
0000
1001
0010
0100
2000
,
0002
0000
0003
0000
3010
0100
0001
2000
,
0010
0000
3100
0000
0110
0001
1000
0001
,
0021
0000
0031
1000
0200
0000
1300
0001
,
0020
0000
0031
0100
0010
1000
0001
2000
,
0100
0000
0010
0000
0100
0000
3001
1000
,
0010
1010
0000
1100
0000
0110
0000
0012
,
0200
0000
0003
0000
0301
1000
0100
0020
,
1000
0000
0130
0000
1001
0010
1000
0002
,
0020
0000
0030
0000
1003
0010
1000
0200
,
0001
0000
0310
0000
0110
0100
1000
0010
,
0200
0000
0301
0010
0200
0000
1300
0001
,
2000
0000
3010
0200
0000
0301
0010
0100
,
1000
0010
0100
0010
0001
0010
1000
0010
,
0100
0000
0110
0000
0000
0000
1010
0000
0000
0000
1001
0000
0000
0000
0001
1000
,
0001
0010
1000
0010
0100
0010
0001
0010
,
1000
0010
0100
0010
1000
0010
0001
0010
,
0100
1000
0010
0100
0001
0010
0001
1000
,
0010
0100
0001
0010
0100
1000
0001
1000
,
0010
1000
0001
0100
0001
0010
0100
1000
,
0010
0001
0010
1000
0100
0001
0100
1000
,
0010
0100
0001
1000
0100
1000
0010
0001
,
0010
0000
0000
0000
0110
0000
0100
0000
0010
1000
0010
0000
0100
0000
0001
1000
,
0001
0100
0010
0001
0010
1000
0010
0100
,
0010
0001
0010
1000
0100
0001
0100
0010
,
0100
1000
0010
0100
0010
0001
0010
1000
,
0001
1000
0100
0010
0001
0100
0010
1000
,
0001
0010
0100
1000
0000
1100
0000
0101
,
0000
0010
1000
0001
0000
0011
0000
1010
,
0000
1000
0100
0010
0000
0110
0000
1001
,
0000
0010
1000
0002
0000
1003
0100
0020
,
0001
0001
0001
0001
0001
0001
0031
0000
,
2001
0000
3010
0000
1020
1000
1030
0001
,
0000
0010
0010
0001
1000
0010
1000
0200
,
0000
1300
0010
0100
0000
1001
0000
0010
,
1000
1000
0001
0001
0100
0010
1000
0002
,
0000
0000
0000
1003
0001
0000
0000
0001
0100
0000
0000
0100
0010
0000
0000
0010
,
1000
0001
0001
0100
0010
1000
0000
1100
;

//---------------dance-single - ----------------
#NOTEDATA:;
#CHARTNAME:;
#STEPSTYPE:dance-single;
#DESCRIPTION:;
#CHARTSTYLE:;
#DIFFICULTY:Medium;
#METER:10;
#RADARVALUES:0.432992,0.489948,0.281948,0.523618,0.000000,301.000000,273.000000,28.000000,52.000000,0.000000,0.000000,0.000000,0.000000,0.000000,0.432992,0.489948,0.281948,0.523618,0.000000,301.000000,273.000000,28.000000,52.000000,0.000000,0.000000,0.000000,0.000000,0.000000;
#CREDIT:;
#DISPLAYBPM:160.000000;
#NOTES:
0000
0000
0000
0000
,
0000
0000
0000
0000
,
0000
0000
0000
0000
,
0000
0000
0000
0000
,
0000
0000
0000
0000
,
0000
0010
0001
0100
0001
0010
0100
1000
,
0000
0010
1000
0001
0000
1001
0000
0010
,
1000
0001
0010
0100
1000
0010
0100
0002
,
0000
0000
0000
0000
,
1003
0001
0100
0000
0110
0110
0000
1001
,
0000
0000
0000
0010
1000
0001
1000
0100
,
0000
1000
0010
0200
0000
0000
0301
0000
,
0010
0000
0001
2000
0000
0010
0000
0100
,
0000
0001
0000
3100
0000
1000
0010
0200
,
0000
0000
0001
0301
0000
0010
0100
2000
,
0000
0000
0001
3001
0000
1000
0010
0200
,
0000
0001
1000
0301
,
0101
0000
1100
0000
0101
0000
1000
0001
,
0000
0000
1001
0000
0010
1000
0001
0100
,
0000
0001
1000
0020
0000
0000
0130
0000
,
0001
1000
0010
0200
0000
0010
0000
1000
,
0000
0010
0000
0301
0000
0100
0010
2000
,
0000
0000
0100
3100
0000
1000
0001
0020
,
0000
0000
0100
0130
0000
0010
0001
2000
,
0000
0010
0001
3100
,
1100
1100
0000
0110
0000
0011
0000
2002
,
0000
0000
0003
0000
0010
0000
0001
0002
,
0000
0000
3000
0000
0000
0103
0001
2000
,
0000
0000
0000
0000
0100
0000
0010
0020
,
0000
0000
3000
0000
0000
1030
0001
0200
,
0000
0000
0001
0301
0000
0000
1000
1000
,
0000
0000
0010
0100
0000
0110
0000
2001
,
0000
0100
0100
3100
,
1010
1010
0000
1001
0000
0110
0000
0202
,
0000
0000
0300
0000
1000
0000
0010
0020
,
0000
0000
0003
0000
0000
0031
1000
0200
,
0000
0000
0000
0000
0001
0000
1000
2000
,
0000
0000
0300
0000
0000
3010
0100
0002
,
0000
0000
2003
0010
0000
0100
0000
3001
,
0000
0000
0002
0010
0000
0100
0000
1003
,
0000
0001
1000
0100
1000
0001
0010
0100
,
0000
1100
0000
1010
0000
1001
0000
0000
,
0001
1000
0001
0010
0100
1000
0010
0200
,
0000
0000
0000
0000
0301
0100
0010
2000
,
0000
0000
3200
1000
0000
0001
0000
0020
,
0300
0000
0000
0000
0031
1000
0001
2000
,
0000
0000
0010
3010
0000
0000
0100
0100
,
0000
0000
0001
0001
0000
1000
0001
0020
,
0000
0000
0032
0100
0000
0010
0000
2000
,
0003
0000
0000
3010
1000
0001
0010
0100
,
1000
0010
1000
0001
0100
0010
0100
0002
,
0000
0000
0000
0000
0013
0001
1000
0200
,
0000
0000
2300
0001
0000
0100
0000
3020
,
0000
0000
0000
0130
0001
1000
0001
0010
,
0002
0000
1000
2003
0000
0100
0000
3020
,
0000
0000
0100
0230
0000
1000
0000
0320
,
0000
0000
1000
2030
0000
0100
0000
3002
,
0000
0000
0013
0002
0000
0000
1000
1003
,
0001
0100
0001
0100
0001
0100
0001
0000
,
2020
0000
3030
0000
0202
0000
0303
1001
,
0000
0001
1000
0010
1000
0001
0000
0200
,
0000
0310
1000
0001
0000
0011
0000
0001
,
1000
0010
1000
0001
0010
0100
1000
0002
,
0000
0100
0100
0100
,
0000
1003
0001
0010
0100
1000
0000
1100
;

//---------------dance-single - ----------------
#NOTEDATA:;
#CHARTNAME:;
#STEPSTYPE:dance-single;
#DESCRIPTION:;
#CHARTSTYLE:;
#DIFFICULTY:Easy;
#METER:7;
#RADARVALUES:0.329419,0.425440,0.281948,0.201392,0.000000,229.000000,201.000000,28.000000,20.000000,0.000000,0.000000,0.000000,0.000000,0.000000,0.329419,0.425440,0.281948,0.201392,0.000000,229.000000,201.000000,28.000000,20.000000,0.000000,0.000000,0.000000,0.000000,0.000000;
#CREDIT:;
#DISPLAYBPM:160.000000;
#NOTES:
0000
0000
0000
0000
,
0000
0000
0000
0000
,
0000
0000
0000
0000
,
0000
0000
0000
0000
,
0000
0000
0000
0000
,
0001
0001
1000
0001
,
0010
0100
1000
1001
,
0001
0100
0010
2000
,
0002
0000
0000
0000
,
0000
0000
0003
0000
3001
1000
0000
1001
,
0000
0000
0010
0001
,
1000
0010
1000
0001
,
0100
0100
0010
1000
,
0100
0010
0001
0100
,
0001
0011
1000
1010
,
0001
0101
1000
1100
,
0010
0100
0010
0100
,
0001
1000
0001
1000
,
0000
0110
0010
1000
,
0100
0010
0100
1000
,
0001
1000
0010
1000
,
0100
0010
0001
0100
,
0001
0101
1000
1100
,
0001
0011
1000
1010
,
0100
0010
0100
0010
,
0000
1100
0000
0011
0000
1100
0000
0000
,
0002
0000
1000
0000
,
0010
0100
0013
0000
,
2000
0000
0001
0000
,
0010
0100
3010
0000
,
0200
0300
0020
0030
,
2000
3000
0010
1000
,
0002
0000
0000
0003
,
0000
0101
0000
1010
0000
0101
0000
0000
,
0200
0000
0010
0000
,
0001
1000
0301
0000
,
0020
0000
0100
0000
,
0001
1000
0031
0000
,
2000
3000
0020
0030
,
0200
0300
0002
0003
,
0010
0010
0010
0010
,
0000
1001
0000
0110
0000
1001
0000
0000
,
0001
1000
0010
1000
,
0100
0010
0100
0010
,
0001
0100
0001
1000
,
0010
1000
0100
0010
,
0001
0100
0001
1000
,
0010
1000
0100
0010
,
0001
0100
0001
1000
,
0010
1000
1100
0101
,
0001
1000
0010
1000
,
0100
0010
0001
1000
,
0010
0100
0010
0100
,
0001
1000
0010
0100
,
0001
0100
1000
1001
,
0001
0010
0100
1001
,
0001
1000
0010
1001
,
0001
0010
0100
1000
,
2002
0000
0000
3000
,
0200
0000
0300
0000
0023
0000
0000
0031
,
0000
1000
0001
0010
,
0100
1000
0010
1001
,
0001
0010
0100
2000
,
0002
0000
0000
0003
,
3001
0010
0100
1000
,
1001
0000
0000
0000
;

//---------------dance-single - ----------------
#NOTEDATA:;
#CHARTNAME:;
#STEPSTYPE:dance-single;
#DESCRIPTION:;
#CHARTSTYLE:;
#DIFFICULTY:Beginner;
#METER:4;
#RADARVALUES:0.172621,0.229083,0.060417,0.110765,0.000000,120.000000,114.000000,6.000000,11.000000,0.000000,0.000000,0.000000,0.000000,0.000000,0.172621,0.229083,0.060417,0.110765,0.000000,120.000000,114.000000,6.000000,11.000000,0.000000,0.000000,0.000000,0.000000,0.000000;
#CREDIT:;
#DISPLAYBPM:160.000000;
#NOTES:
// measure 0
0000
0000
0000
0000
,  // measure 1
0000
0000
0000
0000
,  // measure 2
0000
0000
0000
0000
,  // measure 3
0000
0000
0000
0000
,  // measure 4
0000
0000
0000
0000
,  // measure 5
0001
0001
0001
0000
,  // measure 6
1000
1000
1000
0000
,  // measure 7
0010
0010
0010
0000
,  // measure 8
0200
0000
0000
0000
,  // measure 9
0300
0000
0110
0000
,  // measure 10
1001
0000
0001
0000
,  // measure 11
1000
0000
0001
0000
,  // measure 12
0100
0200
0000
0000
,  // measure 13
0000
0000
0300
0000
,  // measure 14
0001
0000
1000
0000
,  // measure 15
0001
0000
1000
0000
,  // measure 16
0020
0000
0000
0000
,  // measure 17
0000
0000
0030
0000
,  // measure 18
0000
0110
0000
0000
,  // measure 19
1000
0000
0100
0000
,  // measure 20
1000
2000
0000
0000
,  // measure 21
0000
0000
3000
0000
,  // measure 22
0010
0000
0100
0000
,  // measure 23
0010
0000
0100
0000
,  // measure 24
0002
0000
0003
0000
,  // measure 25
0100
0100
0100
0000
,  // measure 26
0001
0000
1000
0000
,  // measure 27
0020
0000
0030
0000
,  // measure 28
1000
0000
0001
0000
,  // measure 29
0200
0000
0300
0000
,  // measure 30
0010
0000
0010
0000
,  // measure 31
0100
0000
0100
0000
,  // measure 32
0002
0000
0003
0000
,  // measure 33
1000
0000
0001
0000
,  // measure 34
0100
0000
0010
0000
,  // measure 35
0200
0000
0300
0000
,  // measure 36
0001
0000
1000
0000
,  // measure 37
0002
0000
0003
0000
,  // measure 38
0010
0000
0001
0000
,  // measure 39
0100
0000
0001
0000
,  // measure 40
1000
1000
1000
1000
,  // measure 41
0000
0000
0000
0000
,  // measure 42
0010
0010
0010
0010
,  // measure 43
0000
0000
0100
0000
,  // measure 44
0001
0000
1000
1000
,  // measure 45
1000
0000
0010
0000
,  // measure 46
0100
0000
0100
0000
,  // measure 47
0001
0000
0001
0000
,  // measure 48
1000
0000
0001
0000
,  // measure 49
0010
0000
0001
0001
,  // measure 50
0001
0001
0001
0001
,  // measure 51
0000
0000
1000
0000
,  // measure 52
0100
0000
0010
0010
,  // measure 53
0010
0000
0001
0000
,  // measure 54
1000
0000
1000
0000
,  // measure 55
0100
0000
0100
0000
,  // measure 56
0010
0000
0010
0000
,  // measure 57
0001
0000
0001
0000
,  // measure 58
1001
0000
0000
0000
,  // measure 59
0100
0000
0100
0000
,  // measure 60
0100
0100
0100
0000
,  // measure 61
0010
0010
0010
0000
,  // measure 62
1000
1000
1000
0000
,  // measure 63
0002
0000
0000
0003
,  // measure 64
0000
0000
0110
0000
,  // measure 65
1001
0000
0000
0000
;
