#VERSION:0.83;
#TITLE:Remember You;
#SUBTITLE:;
#ARTIST:NM feat Julie;
#TITLETRANSLIT:;
#SUBTITLETRANSLIT:;
#ARTISTTRANSLIT:;
#GENRE:;
#ORIGIN:;
#CREDIT:;
#BANNER:Remember You-bn.png;
#BACKGROUND:Remember You-bg.png;
#PREVIEWVID:;
#JACKET:Remember You-jacket.png;
#CDIMAGE:;
#DISCIMAGE:;
#LYRICSPATH:;
#CDTITLE:;
#MUSIC:Remember You.ogg;
#OFFSET:0.000000;
#SAMPLESTART:66.278999;
#SAMPLELENGTH:20.000000;
#SELECTABLE:YES;
#DISPLAYBPM:45.000000:105.000000;
#BPMS:0.000=104.700,
4.000=105.000,
156.000=104.600,
157.000=101.100,
158.000=98.900,
159.000=96.000,
160.000=94.700,
161.000=85.000,
162.000=75.000,
163.000=51.500,
164.000=45.000;
#STOPS:;
#DELAYS:;
#WARPS:;
#TIMESIGNATURES:0.000=4=4;
#TICKCOUNTS:0.000=4;
#COMBOS:0.000=1;
#SPEEDS:0.000=1.000=0.000=0;
#SCROLLS:0.000=1.000;
#FAKES:;
#LABELS:0.000=Song Start;
#BGCHANGES:;
#KEYSOUNDS:;
#ATTACKS:
;

//---------------dance-single - ----------------
#NOTEDATA:;
#CHARTNAME:;
#STEPSTYPE:dance-single;
#DESCRIPTION:;
#CHARTSTYLE:;
#DIFFICULTY:Beginner;
#METER:1;
#RADARVALUES:0.057424,0.080393,0.000000,0.000000,0.000000,41.000000,41.000000,0.000000,0.000000,0.000000,0.000000,0.000000,0.000000,0.000000,0.057424,0.080393,0.000000,0.000000,0.000000,41.000000,41.000000,0.000000,0.000000,0.000000,0.000000,0.000000,0.000000,0.000000;
#CREDIT:;
#DISPLAYBPM:45.000000:105.000000;
#NOTES:
0000
0000
0000
0000
,
0000
0000
0000
0000
,
0000
0000
0000
0000
,
0001
0000
0000
0000
,
1000
0000
0000
0000
,
0010
0000
0000
0000
,
0010
0000
0000
0000
,
1000
0000
0000
0000
,
0001
0000
0000
0000
,
0100
0000
0000
0000
,
0010
0000
0000
0000
,
1000
0000
0000
0000
,
1000
0000
0000
0000
,
0100
0000
0000
0000
,
0010
0000
0000
0000
,
0001
0000
0000
0000
,
0001
0000
0000
0000
,
0100
0000
0000
0000
,
0100
0000
0000
0000
,
0010
0000
0000
0000
,
1000
0000
1000
0000
,
0001
0000
0000
0000
,
0010
0000
0010
0000
,
0100
0000
0000
0000
,
0001
0000
0000
0000
,
0001
0000
0000
0000
,
1000
0000
0000
0000
,
1000
0000
0000
0000
,
0000
0100
0000
0000
,
0010
0000
0000
0000
,
0001
0000
0000
0000
,
1000
0000
0000
0000
,
0100
0000
0000
0000
,
0010
0000
0000
0000
,
0001
0000
0000
0000
,
1000
0000
0000
0000
,
0100
0000
0000
0000
,
0010
0000
0000
0000
,
0100
0000
0000
0000
,
0010
0000
0000
0000
,
0100
0000
0000
0000
,
0010
0000
0000
0000
,
0000
0000
0000
0000
;

//---------------dance-single - ----------------
#NOTEDATA:;
#CHARTNAME:;
#STEPSTYPE:dance-single;
#DESCRIPTION:;
#CHARTSTYLE:;
#DIFFICULTY:Easy;
#METER:2;
#RADARVALUES:0.119049,0.140688,0.000000,0.000000,0.000000,85.000000,85.000000,0.000000,0.000000,0.000000,0.000000,0.000000,0.000000,0.000000,0.119049,0.140688,0.000000,0.000000,0.000000,85.000000,85.000000,0.000000,0.000000,0.000000,0.000000,0.000000,0.000000,0.000000;
#CREDIT:;
#DISPLAYBPM:45.000000:105.000000;
#NOTES:
0000
0000
0000
0000
,
0000
0000
0000
0000
,
0000
0000
0000
0000
,
0001
0000
0000
0000
,
1000
0000
0010
0000
,
0100
0000
0000
0000
,
1000
0000
0100
0000
,
0010
0000
0000
0000
,
1000
1000
0100
0000
,
0001
0000
0000
0000
,
0100
0100
0010
0000
,
0001
1000
0100
0000
,
0010
0001
1000
0000
,
0010
0000
0001
0000
,
0010
0000
1000
0000
,
0001
0001
0010
0000
,
1000
1000
0100
0000
,
0010
0000
0000
0000
,
0010
1000
0100
0001
,
0010
0000
0000
0000
,
0001
0000
0001
0000
,
1000
0100
0010
0000
,
1000
0000
1000
0000
,
0010
0100
1000
0000
,
0001
0000
0010
0000
,
1000
0000
0010
0000
,
0001
0001
1000
0000
,
0100
0010
0001
0000
,
0000
0100
0000
0000
,
0001
0000
1000
0000
,
1000
1000
0001
0000
,
0010
0000
0100
0000
,
0001
0001
0010
0000
,
1000
0001
0100
0000
,
0001
1000
0100
0000
,
1000
0000
0000
0000
,
0100
0010
1000
0001
,
0010
0000
0000
0000
,
0010
0000
1000
0000
,
0100
0000
0000
0000
,
0001
0000
0100
0000
,
1000
0000
0000
0000
;

//---------------dance-single - ----------------
#NOTEDATA:;
#CHARTNAME:;
#STEPSTYPE:dance-single;
#DESCRIPTION:;
#CHARTSTYLE:;
#DIFFICULTY:Medium;
#METER:5;
#RADARVALUES:0.182075,0.221081,0.000000,0.000000,0.000000,130.000000,130.000000,0.000000,0.000000,0.000000,0.000000,0.000000,0.000000,0.000000,0.182075,0.221081,0.000000,0.000000,0.000000,130.000000,130.000000,0.000000,0.000000,0.000000,0.000000,0.000000,0.000000,0.000000;
#CREDIT:;
#DISPLAYBPM:45.000000:105.000000;
#NOTES:
0000
0000
0000
0000
,
0000
0000
0000
0000
,
0000
0000
0000
0000
,
0001
0000
0000
0000
,
1000
0100
0010
0001
,
0100
0000
0010
0000
,
1000
0001
0100
0000
,
0010
0000
0000
0000
,
1000
0001
0100
0010
,
1000
1000
0001
0001
,
0100
0010
0100
0000
,
0001
0000
0000
1000
0100
0000
0000
0000
,
0010
0000
0000
0001
1000
0000
0000
0000
,
0010
0000
0000
0100
0001
0000
0000
0000
,
0010
0000
0000
0100
1000
0000
0000
0000
,
0001
0000
0000
0100
0010
0000
0000
0000
,
1000
0000
0000
0001
0100
0000
0000
0000
,
0010
0000
0000
1000
0100
0000
0000
0000
,
0010
0000
0001
0000
,
0100
0000
0000
0000
,
0010
0000
1000
0000
0001
0010
0001
0000
,
1000
0000
0100
0000
0010
0001
0010
0000
,
0100
0000
1000
0000
0001
0100
0001
0000
,
0010
0000
0100
0000
1000
0010
1000
0000
,
0001
0100
0010
0000
,
1000
0100
0010
0000
,
0001
0001
1000
1000
,
0100
0010
0001
0100
,
0000
0010
0100
0010
0000
0000
0000
0000
,
0001
0001
1000
0100
,
1000
1000
0001
0100
,
0010
0010
0100
0100
,
0001
0001
0010
0100
,
1000
0001
0100
1000
,
0001
1000
0100
0001
,
1000
0100
0010
0001
,
0100
0010
1000
0001
,
0010
0100
0010
0000
0001
0000
0100
0000
,
0010
0010
1000
1000
,
0100
0000
0010
0000
,
0001
0000
0100
0010
,
1000
0000
0000
0000
;

//---------------dance-single - ----------------
#NOTEDATA:;
#CHARTNAME:;
#STEPSTYPE:dance-single;
#DESCRIPTION:;
#CHARTSTYLE:;
#DIFFICULTY:Hard;
#METER:8;
#RADARVALUES:0.275913,0.281375,0.000000,0.000000,0.000000,197.000000,197.000000,0.000000,0.000000,0.000000,0.000000,0.000000,0.000000,0.000000,0.275913,0.281375,0.000000,0.000000,0.000000,197.000000,197.000000,0.000000,0.000000,0.000000,0.000000,0.000000,0.000000,0.000000;
#CREDIT:;
#DISPLAYBPM:45.000000:105.000000;
#NOTES:
0000
0000
0000
0000
,
0000
0000
0000
0000
,
0000
0000
0000
0000
,
1000
0100
0010
0001
0000
1000
0100
0000
,
0010
0000
0001
1000
0000
0100
0010
0000
,
0001
1000
0010
0100
,
0001
0010
0100
1000
0000
0001
0100
0010
,
1000
0100
0010
0001
0000
1000
0100
0000
,
0010
0001
1000
0010
,
0100
0001
0010
0000
0100
1000
0001
0100
,
0010
0000
1000
0000
0100
0010
0100
0000
,
1000
0000
1000
0000
0001
0100
0001
0000
,
1000
0100
0010
0001
1000
1000
0100
0000
,
0010
0000
0001
0000
0100
0010
0100
0000
,
0001
1000
0100
0000
0001
1000
0100
0000
,
0010
0000
0001
0000
1000
0010
0100
0000
,
0001
0000
1000
0000
0100
0010
0001
0000
,
1000
0010
0100
0001
,
1000
0100
0010
0001
,
1000
0000
0000
0000
0010
0000
0100
0001
,
0010
0000
0100
1000
0001
0100
0001
0000
,
1000
0000
0100
0010
0100
1000
0001
0000
,
0100
0000
0010
1000
0010
0100
0001
0000
,
1000
0000
0100
0010
0001
0100
0010
0000
,
1000
0100
1000
0100
0000
0001
0100
0000
,
0010
1000
0010
1000
0000
0001
0100
0000
,
0010
1000
0100
0010
,
0001
1000
0100
0010
0000
0000
0000
0000
,
0000
0001
1000
0100
0000
0000
0000
0000
,
0010
0001
0100
0001
0000
0000
1000
0000
,
0100
0010
0001
0010
0000
0000
0100
0000
,
1000
0001
0100
0000
1000
0001
0100
0000
,
0010
0000
1000
0000
0100
0010
0001
0000
,
1000
0000
1000
0000
0010
0100
0001
0000
,
1000
0000
1000
0100
0000
0010
0001
0000
,
0100
0010
0100
0000
0001
0010
0001
0000
,
1000
0100
1000
0100
0000
0010
0001
0100
,
0010
1000
0000
0000
0001
0000
0001
0000
,
0010
0100
1000
0100
0000
0000
0010
0000
,
0001
0000
0000
0000
1000
0000
0100
0010
,
0001
0000
1000
0010
,
0100
0000
0000
0000
;

//---------------dance-double - ----------------
#NOTEDATA:;
#CHARTNAME:;
#STEPSTYPE:dance-double;
#DESCRIPTION:;
#CHARTSTYLE:;
#DIFFICULTY:Easy;
#METER:1;
#RADARVALUES:0.065827,0.100491,0.000000,0.000000,0.000000,47.000000,47.000000,0.000000,0.000000,0.000000,0.000000,0.000000,0.000000,0.000000,0.065827,0.100491,0.000000,0.000000,0.000000,47.000000,47.000000,0.000000,0.000000,0.000000,0.000000,0.000000,0.000000,0.000000;
#CREDIT:;
#DISPLAYBPM:45.000000:105.000000;
#NOTES:
00000000
00000000
00000000
00000000
,
00000000
00000000
00000000
00000000
,
00000000
00000000
00000000
00000000
,
10000000
00000000
00000000
00000000
,
01000000
00000000
00000000
00000000
,
00100000
00000000
00000000
00000000
,
00001000
00000000
00000000
00000000
,
00010000
00000000
00000000
00000000
,
00000010
00000000
00000000
00000000
,
00001000
00000000
00000000
00000000
,
00000100
00000000
00000000
00000000
,
00010000
00000000
00000000
00000000
,
00001000
00000000
00000000
00000000
,
00100000
00000000
00000000
00000000
,
00010000
00000000
00000000
00000000
,
10000000
00000000
00000000
00000000
,
01000000
00000000
00000000
00000000
,
00100000
00000000
00000000
00000000
,
00001000
00000000
00000000
00000000
,
00010000
00000000
00000000
00000000
,
00001000
00000000
00001000
00000000
,
00100000
00000000
00100000
00000000
,
00010000
00000000
00010000
00000000
,
10000000
00000000
10000000
00000000
,
01000000
00000000
00000000
00000000
,
00100000
00000000
00000000
00000000
,
00001000
00000000
00000000
00000000
,
00010000
00000000
00000000
00000000
,
00000000
00001000
00000000
00000000
,
00100000
00000000
00000000
00000000
,
01000000
00000000
00000000
00000000
,
10000000
00000000
00010000
00000000
,
01000000
00000000
00001000
00000000
,
00010000
00000000
00000000
00000000
,
00000010
00000000
00000000
00000000
,
00001000
00000000
00000000
00000000
,
00000100
00000000
00000100
00000000
,
00000010
00000000
00000000
00000000
,
00000100
00000000
00010000
00000000
,
00001000
00000000
00000000
00000000
,
00100000
00000000
00000000
00000000
,
01000000
00000000
00000000
00000000
,
00000000
00000000
00000000
00000000
;

//---------------dance-double - ----------------
#NOTEDATA:;
#CHARTNAME:;
#STEPSTYPE:dance-double;
#DESCRIPTION:;
#CHARTSTYLE:;
#DIFFICULTY:Medium;
#METER:5;
#RADARVALUES:0.189077,0.221081,0.000000,0.000000,0.000000,135.000000,135.000000,0.000000,0.000000,0.000000,0.000000,0.000000,0.000000,0.000000,0.189077,0.221081,0.000000,0.000000,0.000000,135.000000,135.000000,0.000000,0.000000,0.000000,0.000000,0.000000,0.000000,0.000000;
#CREDIT:;
#DISPLAYBPM:45.000000:105.000000;
#NOTES:
00000000
00000000
00000000
00000000
,
00000000
00000000
00000000
00000000
,
00000000
00000000
00000000
00000000
,
10000000
00010000
01000000
00001000
,
00010000
01000000
00100000
00001000
,
00010000
00000100
00000010
00001000
,
00010000
00100000
10000000
00010000
,
00100000
01000000
00010000
00001000
,
00000100
00000001
00001000
00000100
,
00010000
00001000
00100000
00010000
,
10000000
01000000
00100000
00000000
,
00001000
00000000
00001000
00000000
00001000
00001000
00000000
00000000
,
00010000
00000000
00001000
00001000
00000000
00000000
00000000
00000000
,
00100000
00000000
00010000
00000000
10000000
10000000
00000000
00000000
,
01000000
00000000
00100000
00100000
00000000
00000000
00000000
00000000
,
00001000
00000000
00001000
00000000
00010000
00010000
00000000
00000000
,
00000010
00000000
00001000
00001000
00000000
00000000
00000000
00000000
,
00000001
00000010
00000100
00000000
,
00010000
00000000
00001000
00000000
01000000
00000000
00000000
00100000
,
00000000
00000000
10000000
00010000
,
01000000
00000000
00000000
00100000
01000000
00000000
00001000
00000000
,
00010000
00000000
00000000
00000100
00000010
00000000
00000000
00000000
,
00000001
00000000
00000000
00001000
00000100
00000000
00010000
00000000
,
00001000
00000000
00000000
00100000
01000000
00000000
00000000
00000000
,
10000000
00010000
01000000
00000000
,
00100000
10000000
01000000
00000000
,
00010000
00000000
00001000
00000000
,
00000010
00000001
00000100
00000000
,
00000000
00000010
00001000
00000100
00000000
00000000
00000000
00000000
,
00010000
00010000
00000010
00000100
,
00001000
00010000
01000000
00000000
,
10000000
00010000
01000000
00100000
,
10000000
00010000
01000000
00001000
,
00010000
00010000
00001000
00001000
,
00100000
01000000
10000000
00000000
,
00010000
00010000
01000000
00001000
,
00010000
00000000
00000010
00000000
00000100
00000000
00000001
00000010
,
00000100
00000000
00001000
00000000
00000100
00000100
00010000
00000000
,
00001000
00100000
00010000
01000000
,
00100000
00000000
10000000
00000000
,
01000000
00000000
00100000
00001000
,
00010000
00000000
00000000
00000000
,
00000000
00000000
00000000
00000000
;

//---------------dance-double - ----------------
#NOTEDATA:;
#CHARTNAME:;
#STEPSTYPE:dance-double;
#DESCRIPTION:;
#CHARTSTYLE:;
#DIFFICULTY:Hard;
#METER:8;
#RADARVALUES:0.277314,0.281375,0.000000,0.000000,0.000000,198.000000,198.000000,0.000000,0.000000,0.000000,0.000000,0.000000,0.000000,0.000000,0.277314,0.281375,0.000000,0.000000,0.000000,198.000000,198.000000,0.000000,0.000000,0.000000,0.000000,0.000000,0.000000,0.000000;
#CREDIT:;
#DISPLAYBPM:45.000000:105.000000;
#NOTES:
00000000
00000000
00000000
00000000
,
00000000
00000000
00000000
00000000
,
00000000
00000000
00000000
00000000
,
10000000
00000000
10000000
01000000
00010000
00001000
00000100
00000001
,
00000010
00000000
00000100
00000100
,
00010000
00001000
00100000
01000000
00000000
10000000
00010000
01000000
,
00100000
10000000
01000000
00010000
00000000
00000000
00001000
00000000
,
00000100
00000001
00001000
00000100
00000000
00000000
00010000
00000000
,
00001000
00100000
00010000
10000000
00000000
00000000
01000000
00000000
,
00100000
00010000
01000000
00001000
00000000
00000000
00010000
00000000
,
00000010
00000100
00000001
00000010
00000000
00000100
00001000
00000100
,
00010000
00000000
00001000
00000000
00100000
00010000
00100000
00000000
,
01000000
10000000
00100000
01000000
00000000
00010000
00010000
00000000
,
00100000
00001000
00010000
00000000
00000100
00010000
00001000
00000000
,
00100000
00000000
01000000
00000000
00001000
00010000
00001000
00000000
,
00000100
00000000
00000001
00000000
00001000
00000100
00000100
00000000
,
00010000
00000000
00001000
00000000
00100000
00010000
00010000
00000000
,
10000000
01000000
00100000
00010000
,
01000000
00000000
00001000
00000000
,
00010000
00000000
00000010
00000100
,
00000001
00001000
00000100
00000000
00010000
00001000
00100000
00010000
,
00000000
10000000
00100000
01000000
00010000
00100000
00100000
00000000
,
00001000
00000000
00010000
00000100
00000000
00000010
00000010
00000000
,
00000001
00000100
00000010
00001000
00000000
00000100
00000000
00000100
,
00010000
00001000
00100000
00010000
00000000
10000000
00100000
01000000
,
00010000
00000000
10000000
01000000
00100000
00001000
00010000
00000000
,
00000010
00000010
00000100
00000100
,
00000001
00001000
00000100
00010000
00000000
00000000
00000000
00000000
,
00000000
00000010
00001000
00000100
00000000
00000000
00000000
00000000
,
00010000
00001000
00100000
00010000
00000000
01000000
01000000
00000000
,
00001000
00010000
00000010
00001000
00000000
00000001
00000001
00000000
,
00000010
00000000
00000100
00000000
00001000
00000010
00001000
00000000
,
00000001
00000010
00000100
00000000
00010000
00001000
00010000
00000000
,
00100000
00000000
10000000
00010000
00000000
10000000
01000000
00000000
,
00100000
00010000
01000000
00100000
00000000
10000000
00000000
01000000
,
00100000
00001000
00010000
00000100
00000000
00000010
00000000
00000010
,
00000001
00001000
00000010
00000100
00000000
00000010
00000000
00000010
,
00001000
00000100
00000000
00000000
00000000
00010000
00001000
00010000
,
00000000
00010000
00001000
00100000
00000000
01000000
01000000
00000000
,
10000000
00000000
00000000
00010000
01000000
00000000
00001000
00010000
,
01000000
00000000
00100000
00001000
,
00010000
00000000
00000000
00000000
;

//---------------dance-single - ----------------
#NOTEDATA:;
#CHARTNAME:;
#STEPSTYPE:dance-single;
#DESCRIPTION:;
#CHARTSTYLE:;
#DIFFICULTY:Challenge;
#METER:10;
#RADARVALUES:0.431377,0.444857,0.372553,0.235296,0.009804,308.000000,270.000000,38.000000,24.000000,0.000000,0.000000,0.000000,0.000000,0.000000,0.431377,0.444857,0.372553,0.235296,0.009804,308.000000,270.000000,38.000000,24.000000,0.000000,0.000000,0.000000,0.000000,0.000000;
#CREDIT:;
#DISPLAYBPM:45.000000:105.000000;
#NOTES:
0000
0000
0000
0000
,
0000
0000
0000
0000
,
0000
0000
0000
0000
,
1001
0100
0010
2000
0000
3001
1000
0100
,
0110
1000
0001
0200
0000
0310
0100
0001
,
0011
1000
0010
0200
0000
0301
0100
0010
,
1000
0001
1000
0010
0000
1010
1100
0011
,
0010
0001
0100
0010
1000
0100
0010
0001
,
1000
0001
0010
0001
0100
0010
1000
0100
,
0010
0100
0010
0001
0100
0010
1000
0100
,
0010
0001
1000
0010
0000
1010
1001
0110
,
0001
0100
0010
2000
0000
0100
3100
1000
,
0001
1000
0010
0200
0000
0001
0301
1001
,
0010
1000
1000
1000
0100
0010
0001
0001
,
0100
0010
1000
0010
1000
0100
0010
0001
,
0100
0010
0101
0000
0001
0010
0100
1000
,
1010
0110
0001
0012
0000
0100
0103
0010
,
1000
0100
1000
0001
0010
0001
0100
0010
,
1000
0100
1000
0010
0100
0001
0010
0001
,
0100
0110
0110
0010
2000
0001
3100
0000
,
1001
0000
0010
1000
0100
0010
0001
0200
,
0310
1000
0001
0000
0100
0010
1000
0000
,
1100
0000
0001
1000
0100
0010
0001
0200
,
0010
0310
1000
0002
0103
0000
0110
0010
,
1001
1100
0010
0001
0100
0000
0101
0001
,
0011
0101
0001
1000
0100
0010
0001
0000
,
0010
1000
0010
0100
0001
0010
0001
1000
,
0100
0010
0001
1000
0010
0100
0001
1000
,
0000
1100
0011
0102
0000
1003
0110
0000
,
1001
0010
0100
1000
0010
0100
0001
0010
,
0001
1000
0100
0010
0001
0100
0010
1020
,
0000
2030
0000
3002
0000
0103
0010
2000
,
0001
3001
1000
0100
2010
0001
3100
0000
,
0011
0000
0100
0000
1000
0000
0000
0000
0001
1000
0001
0000
0100
0000
0010
0000
,
0110
1001
1000
1100
0001
1000
0100
0000
,
0010
0001
0010
0100
1000
0010
1000
0001
,
0100
0000
0010
0000
1000
0000
0001
0000
0000
0000
0101
0000
1000
0100
0000
0000
,
1001
0010
0001
0000
0100
0010
1000
0002
,
0000
0023
0000
0230
0000
1300
0001
0000
,
0012
0000
0103
0010
2000
0000
3100
0010
,
0002
0000
1003
0001
0200
0000
0310
1000
,
0002
0003
0000
0000
;

//---------------dance-solo - DDRPC Solo Basic LV1----------------
#NOTEDATA:;
#CHARTNAME:DDRPC Solo Basic LV1;
#STEPSTYPE:dance-solo;
#DESCRIPTION:DDRPC Solo Basic LV1;
#CHARTSTYLE:;
#DIFFICULTY:Easy;
#METER:2;
#RADARVALUES:0.072830,0.100491,0.049020,0.000000,0.000000,52.000000,47.000000,5.000000,0.000000,0.000000,0.000000,0.000000,0.000000,0.000000,0.072830,0.100491,0.049020,0.000000,0.000000,52.000000,47.000000,5.000000,0.000000,0.000000,0.000000,0.000000,0.000000,0.000000;
#CREDIT:DDRPC Solo Basic LV1;
#DISPLAYBPM:45.000000:105.000000;
#NOTES:
000000
000000
000000
000000
,
000000
000000
000000
000000
,
000000
000000
000000
000000
,
000010
000000
000000
000000
,
100000
000000
000000
000000
,
000100
000000
000000
000000
,
000100
000000
000000
000000
,
110000
000000
000000
000000
,
001000
000000
000000
000000
,
000001
000000
000000
000000
,
000010
000000
000000
000000
,
100000
000000
000000
000000
,
100000
000000
000000
000000
,
000001
000000
000000
000000
,
000100
000000
000000
000000
,
001000
000000
000010
000000
,
001000
000000
000010
000000
,
000001
000000
010000
000000
,
000001
000000
010000
000000
,
000100
000000
000000
000000
,
100000
000000
100000
000000
,
001000
000000
000000
000000
,
000010
000000
010000
000000
,
000001
000000
000000
000000
,
001000
000000
000000
000000
,
001000
000000
000000
000000
,
100000
000000
000000
000000
,
100000
000000
000000
000000
,
000000
000010
000000
000000
,
000100
000000
000000
000000
,
001000
000000
000000
000000
,
100000
000000
000000
000000
,
000011
000000
000000
000000
,
000100
000000
000000
000000
,
001010
000000
000000
000000
,
110000
000000
000000
000000
,
000001
000000
000000
000000
,
100100
000000
000000
000000
,
000001
000000
000000
000000
,
000100
000000
000010
000000
,
000001
000000
010000
000000
,
000100
000000
000000
000000
;

//---------------dance-solo - DDRPC Solo Trick LV3----------------
#NOTEDATA:;
#CHARTNAME:DDRPC Solo Trick LV3;
#STEPSTYPE:dance-solo;
#DESCRIPTION:DDRPC Solo Trick LV3;
#CHARTSTYLE:;
#DIFFICULTY:Medium;
#METER:5;
#RADARVALUES:0.184876,0.221081,0.019608,0.000000,0.000000,132.000000,130.000000,2.000000,0.000000,0.000000,0.000000,0.000000,0.000000,0.000000,0.184876,0.221081,0.019608,0.000000,0.000000,132.000000,130.000000,2.000000,0.000000,0.000000,0.000000,0.000000,0.000000,0.000000;
#CREDIT:DDRPC Solo Trick LV3;
#DISPLAYBPM:45.000000:105.000000;
#NOTES:
000000
000000
000000
000000
,
000000
000000
000000
000000
,
000000
000000
000000
000000
,
001000
000000
000000
000000
,
010000
000001
000100
001000
,
010000
000000
000100
000000
,
100000
000010
000001
000000
,
000100
000000
000000
000000
,
100000
001000
000001
000100
,
010000
010000
000010
000010
,
000001
000100
000001
000000
,
001000
000000
000000
100000
010000
000000
000000
000000
,
000001
000000
000000
001000
100000
000000
000000
000000
,
000010
000000
000000
000001
001000
000000
000000
000000
,
000010
000000
000000
000001
100000
000000
000000
000000
,
001000
000000
000000
000001
000100
000000
000000
000000
,
010000
000000
000000
001000
000001
000000
000000
000000
,
010000
000000
000000
100000
000001
000000
000000
000000
,
000100
000000
000010
000000
,
000001
000000
000000
000000
,
000100
000000
010000
000000
001000
000100
001000
000000
,
010000
000000
000001
000000
000100
001000
000100
000000
,
000001
000000
100000
000000
000010
000001
000010
000000
,
000100
000000
000001
000000
010000
000100
010000
000000
,
001000
010000
000010
000000
,
100000
000001
000100
000000
,
001000
001000
100000
100000
,
010000
000010
001000
000010
,
000100
000000
000001
000100
000000
000000
000000
000000
,
001000
001000
100000
000010
,
100000
100000
001000
000011
,
000100
000100
000001
000001
,
001000
001000
000100
000001
,
100000
000010
000001
100000
,
000010
100000
000001
000010
,
100000
000001
000100
001000
,
000001
000100
100000
001000
,
000100
000001
000100
000000
001000
000000
000001
000000
,
000100
000100
100000
100000
,
010000
000000
000010
000000
,
001000
000000
010000
000010
,
010010
000000
000000
000000
;

//---------------dance-solo - DDRPC Solo Maniac LV5----------------
#NOTEDATA:;
#CHARTNAME:DDRPC Solo Maniac LV5;
#STEPSTYPE:dance-solo;
#DESCRIPTION:DDRPC Solo Maniac LV5;
#CHARTSTYLE:;
#DIFFICULTY:Hard;
#METER:8;
#RADARVALUES:0.277314,0.301474,0.019608,0.000000,0.000000,198.000000,196.000000,2.000000,0.000000,0.000000,0.000000,0.000000,0.000000,0.000000,0.277314,0.301474,0.019608,0.000000,0.000000,198.000000,196.000000,2.000000,0.000000,0.000000,0.000000,0.000000,0.000000,0.000000;
#CREDIT:DDRPC Solo Maniac LV5;
#DISPLAYBPM:45.000000:105.000000;
#NOTES:
000000
000000
000000
000000
,
000000
000000
000000
000000
,
000000
000000
000000
000000
,
100000
010000
000100
000010
000000
010000
000001
000000
,
000100
000000
001000
100000
000001
000000
000010
000000
,
001000
100000
000010
010000
,
001000
000100
000001
010000
000000
000010
000001
000100
,
100000
000001
000010
001000
000000
100000
010000
000000
,
000100
001000
100000
000010
,
010000
001000
000100
000000
000001
100000
001000
010000
,
000100
000000
100000
000000
000001
000100
000001
000000
,
100000
000000
100000
000000
001010
000001
001000
000000
,
110000
000001
000100
001000
100000
100000
000001
000000
,
000100
000000
000010
000000
000001
000100
000001
000000
,
001000
100000
010000
000000
001000
100000
010000
000000
,
000100
000000
000010
000000
100000
000100
000001
000000
,
000010
000000
100000
000000
000001
000100
000010
000000
,
100000
000100
000001
001000
,
010000
000001
000100
001000
,
010000
000000
000000
000000
000100
000000
000001
001000
,
000100
000000
000001
100000
001000
000001
001000
000000
,
100000
000000
000001
000100
000001
100000
001000
000000
,
000001
000000
000010
100000
000010
000001
001000
000000
,
100000
000000
010000
000100
001000
000001
000100
000000
,
100000
010000
100000
010000
000000
001000
000001
000000
,
000100
100000
000100
100000
000000
000010
000001
000000
,
000100
100000
000001
000100
,
001000
010000
000001
000100
000000
000000
000000
000000
,
000000
000010
100000
000001
000000
000000
000000
000000
,
000010
001000
010000
001000
000000
000000
000000
000000
,
000001
000100
000010
000100
000000
000000
000001
000000
,
010000
001000
000001
000000
010000
001000
000001
000000
,
000100
000000
100000
000000
000001
000100
000010
000000
,
100000
000000
100000
000000
000100
000001
000010
000000
,
100000
000000
100000
000001
000000
000100
001000
000000
,
010000
000100
010000
000000
001000
000100
001000
000000
,
100000
000001
100000
000001
000000
000100
000010
000001
,
000010
100000
000000
000000
001000
000000
001000
000000
,
000010
000001
100000
000001
000000
000000
000010
000000
,
001000
000000
000000
000000
010000
000000
000001
000100
,
001000
000000
010000
000100
,
000001
000000
000000
000000
;

//---------------dance-solo - ----------------
#NOTEDATA:;
#CHARTNAME:;
#STEPSTYPE:dance-solo;
#DESCRIPTION:;
#CHARTSTYLE:;
#DIFFICULTY:Beginner;
#METER:1;
#RADARVALUES:0.051821,0.060295,0.000000,0.000000,0.000000,37.000000,37.000000,0.000000,0.000000,0.000000,0.000000,0.000000,0.000000,0.000000,0.051821,0.060295,0.000000,0.000000,0.000000,37.000000,37.000000,0.000000,0.000000,0.000000,0.000000,0.000000,0.000000,0.000000;
#CREDIT:;
#DISPLAYBPM:45.000000:105.000000;
#NOTES:
000000
000000
000000
000000
,
000000
000000
000000
000000
,
000000
000000
000000
000000
,
000010
000000
000000
000000
,
000000
000000
000000
000000
,
010000
000000
000000
000000
,
000000
000000
000000
000000
,
000010
000000
000000
000000
,
001000
000000
000000
000000
,
000010
000000
000000
000000
,
010000
000000
000000
000000
,
001000
000000
000000
000000
,
010000
000000
000000
000000
,
000010
000000
000000
000000
,
010000
000000
000000
000000
,
001000
000000
000000
000000
,
001000
000000
000000
000000
,
010000
000000
000000
000000
,
000010
000000
000000
000000
,
010000
000000
000000
000000
,
000010
000000
000000
000000
,
000010
000000
000000
000000
,
010000
000000
000000
000000
,
010000
000000
000000
000000
,
001000
000000
000000
000000
,
001000
000000
000000
000000
,
010000
000000
000000
000000
,
000010
000000
000000
000000
,
001000
000000
000000
000000
,
000010
000000
000000
000000
,
010000
000000
000000
000000
,
000010
000000
000000
000000
,
010000
000000
000000
000000
,
001000
000000
000000
000000
,
010000
000000
000000
000000
,
000010
000000
000000
000000
,
001000
000000
000000
000000
,
000010
000000
000000
000000
,
000010
000000
000000
000000
,
010000
000000
000000
000000
,
000010
000000
000000
000000
,
001000
000000
000000
000000
;

//---------------dance-solo - ----------------
#NOTEDATA:;
#CHARTNAME:;
#STEPSTYPE:dance-solo;
#DESCRIPTION:;
#CHARTSTYLE:;
#DIFFICULTY:Challenge;
#METER:10;
#RADARVALUES:0.432777,0.422063,0.313729,0.078432,0.004902,309.000000,277.000000,32.000000,8.000000,0.000000,0.000000,0.000000,0.000000,0.000000,0.432777,0.422063,0.313729,0.078432,0.004902,309.000000,277.000000,32.000000,8.000000,0.000000,0.000000,0.000000,0.000000,0.000000;
#CREDIT:;
#DISPLAYBPM:45.000000:105.000000;
#NOTES:
// measure 0
000000
000000
000000
000000
,  // measure 1
000000
000000
000000
000000
,  // measure 2
000000
000000
000000
000000
,  // measure 3
000100
010000
001000
100000
000000
000010
010000
001000
,  // measure 4
010000
000100
001000
000010
000000
100000
101000
000000
,  // measure 5
000001
001000
000010
010000
000000
001000
100000
000010
,  // measure 6
001000
000100
100000
000010
001000
000010
010000
000010
,  // measure 7
000100
000001
001000
000100
010000
001000
100000
000010
,  // measure 8
001000
000100
010000
000010
000100
000001
100000
001000
,  // measure 9
100000
000100
001100
000000
001000
000010
010000
000100
,  // measure 10
100000
000010
000101
000000
000010
010000
001000
010000
,  // measure 11
000100
001000
000010
000100
000001
010000
000100
010000
,  // measure 12
001000
100000
000010
001010
000000
001000
000100
100100
,  // measure 13
000001
001000
001000
001000
000100
010000
010000
000010
,  // measure 14
000100
000010
010000
001000
100000
000010
000100
000001
,  // measure 15
001000
000100
100001
000000
001000
000010
010000
001000
,  // measure 16
100000
000100
001000
010010
000000
000001
000100
001000
,  // measure 17
010000
000100
010000
000010
000000
000100
000001
010000
,  // measure 18
001000
010000
000010
000100
000001
100000
001000
010000
,  // measure 19
000100
001000
001000
001000
000010
010000
010000
001000
,  // measure 20
102000
100000
103000
000100
001000
000010
100000
010002
,  // measure 21
000000
001000
001003
000100
010000
001000
010000
000010
,  // measure 22
020010
001000
031000
010000
010100
000100
001000
000001
,  // measure 23
000100
000010
000100
000001
000000
001000
001010
010000
,  // measure 24
100100
100100
100000
000001
000000
000100
000010
001000
,  // measure 25
001100
001100
000100
010000
000000
001000
100010
000000
,  // measure 26
000100
000010
010000
001000
010000
000100
001000
000001
,  // measure 27
000010
000001
001000
000100
010000
001000
100000
000010
,  // measure 28
000000
101000
001100
000102
000000
010000
010003
000000
,  // measure 29
100001
000001
000100
000010
001000
000100
010000
001000
,  // measure 30
100000
000010
010000
001000
010000
000100
001000
000010
,  // measure 31
000100
000001
100000
000010
010000
001000
010000
000100
,  // measure 32
001000
000010
100000
001000
101000
001002
100003
000000
,  // measure 33
012000
100000
103000
000000
000010
000100
000001
001000
,  // measure 34
000100
000100
010000
000020
000000
100000
100030
010000
,  // measure 35
100000
000100
001000
000001
000100
000010
001000
000001
,  // measure 36
010000
000000
001000
000000
010000
000000
000010
000000
000000
000000
000101
000000
000000
101000
000000
000000
,  // measure 37
100001
010000
001000
100000
000100
001000
000001
000100
,  // measure 38
000010
001000
000100
200000
001000
001000
301000
000000
,  // measure 39
100100
000000
100000
000001
000101
000000
000001
001000
,  // measure 40
001010
000000
000010
010000
011000
000000
001000
100000
,  // measure 41
100001
000000
000000
000000
;
