#TITLE:Reach The Sky, Without you;
#SUBTITLE:;
#ARTIST:nc ft. NRG Factory;
#TITLETRANSLIT:;
#SUBTITLETRANSLIT:;
#ARTISTTRANSLIT:;
#GENRE:;
#CREDIT:;
#BANNER:Reach The Sky, Without you-bn.png;
#BACKGROUND:Reach The Sky, Without you-bg.png;
#LYRICSPATH:;
#CDTITLE:;
#MUSIC:Reach The Sky, Without you.ogg;
#OFFSET:0.000000;
#SAMPLESTART:1.207000;
#SAMPLELENGTH:20.000000;
#SELECTABLE:YES;
#DISPLAYBPM:48.000000:190.000000;
#BPMS:0.000000=190.000000
,133.000000=95.000000
,168.000000=47.500000
,168.500000=95.000000
,171.500000=47.500000
,172.000000=95.000000
,179.500000=190.000000
,236.000000=95.000000
,237.000000=190.000000
;
#STOPS:68.000000=1.895000,
118.000000=0.158000,
118.500000=0.158000,
179.500000=0.158000,
181.500000=0.158000,
185.000000=0.158000,
188.500000=0.158000,
196.000000=0.158000,
199.500000=0.158000,
203.000000=0.158000,
206.500000=0.474000,
207.000000=0.158000,
207.500000=0.158000
;
#BGCHANGES:;
#KEYSOUNDS:;
#ATTACKS:;

//---------------dance-single - ----------------
#NOTES:
     dance-single:
     :
     Beginner:
     7:
     0.287860,0.362299,0.152926,0.125939,0.000000,224.000000,207.000000,17.000000,14.000000,0.000000,0.000000,0.287860,0.362299,0.152926,0.125939,0.000000,224.000000,207.000000,17.000000,14.000000,0.000000,0.000000:
0000
0000
0000
0000
,
0000
0000
0000
0000
,
0000
0000
0000
0000
,
0000
0000
0000
0000
,
0000
0000
0000
0000
,
0010
0010
0010
0000
,
0001
0001
1000
1000
,
0010
0000
0010
0000
,
1000
1000
0001
0001
,
0010
0010
0100
0000
,
1000
0010
0100
0000
,
0001
0100
0010
0000
,
1000
0100
0010
0000
,
0001
0001
1000
1000
,
0010
0010
0100
0100
,
0001
0010
0100
1000
,
0010
0100
0001
0010
,
0100
0000
0001
0001
,
0010
0000
0100
0100
,
1000
0000
0010
0010
,
0100
0000
0001
0001
,
1000
1000
0001
0001
,
0100
0000
0010
0010
,
1000
0000
0100
0100
,
0010
0000
0001
1000
,
0001
1000
0000
0110
,
0000
0110
0000
1001
,
0000
1001
0000
0110
,
0000
1001
0000
0110
,
0002
0000
2000
0000
0000
3003
0000
0000
,
0110
0000
1001
0000
,
0110
0000
1001
0000
,
0110
1000
0001
0200
,
0000
0000
0300
0000
0100
0000
0100
0100
,
0100
0000
0100
0000
1000
0000
1000
1000
,
1000
0000
1000
0000
0010
0000
0010
0010
,
0010
0000
0010
0000
0001
0000
0001
0001
,
0001
0002
1003
0001
,
0100
0200
0310
0100
,
1001
2000
3002
2003
,
3002
0000
0023
0000
0000
0000
0100
0100
,
0130
0010
0001
0100
,
0110
0100
0000
0001
0000
0010
0000
0110
,
0000
1001
0001
1000
,
0010
0000
0100
0000
0020
0000
0000
0130
,
0100
0000
0100
0000
0000
0001
0000
0001
,
0000
0001
0000
0000
1000
0000
1000
0000
,
1000
0000
0000
0100
0000
0100
0000
0200
,
0000
0000
0000
0000
0300
0100
0000
0000
,
0100
0010
0010
0010
,
0000
0001
0000
0001
0000
0001
0000
0000
,
1000
1000
1000
0000
,
0000
1000
0000
0000
0000
1000
0000
0000
,
0000
1000
0000
0000
0000
0001
0000
0000
,
0000
0001
0000
0000
0000
0001
0000
0000
,
0000
0001
0000
0000
0000
0010
0000
0010
,
0000
0010
0000
0010
0000
0100
0000
0100
,
0000
0100
0000
0100
0000
0001
0000
0001
,
0000
1000
0000
1000
0000
0002
0000
2000
,
0000
0000
0000
3003
0000
0000
0001
0000
0000
0000
0001
0000
0000
0000
0010
0000
,
0000
0010
0000
0100
0000
0100
0000
1000
,
0000
0000
0000
1000
0000
1000
0000
0010
,
0000
0010
0000
0100
0000
0100
0000
0001
,
0000
0000
0000
0010
0000
0010
0000
0100
,
0000
0100
0000
0010
0000
0010
0000
0100
,
0000
0000
0000
0001
0000
0010
0000
0001
,
0000
0010
0000
0100
0000
1000
0000
0100
,
0000
0110
0000
0000
0000
0000
0000
0000
,
0000
0000
0000
0000
;

//---------------dance-single - ----------------
#NOTES:
     dance-single:
     :
     Easy:
     10:
     0.466488,0.664215,0.359825,0.197904,0.035983,363.000000,323.000000,40.000000,22.000000,0.000000,0.000000,0.466488,0.664215,0.359825,0.197904,0.035983,363.000000,323.000000,40.000000,22.000000,0.000000,0.000000:
0000
0000
0000
0000
,
0000
0000
0000
0000
,
0000
0000
0000
0000
,
0000
0000
0000
0000
,
0000
0000
0000
0000
,
0010
0000
0001
0000
1000
0000
0000
0010
,
0000
1000
0000
0001
0010
0001
0010
0001
,
1000
0100
1000
0001
,
0100
0010
2002
3003
,
0020
1000
0100
0031
,
0200
1000
0010
0301
,
0020
0001
0100
1030
,
0200
0001
0010
1300
,
0002
0010
2003
0100
,
3002
0100
2003
0010
,
3001
1000
0001
0100
,
0010
1000
0001
0000
0100
0001
1000
0000
,
1001
0000
0110
0000
1000
0100
1000
0000
,
0010
0000
0100
0000
0001
0100
0001
0000
,
0010
0000
0100
0000
1000
0001
1000
0000
,
0010
0000
0100
0000
0001
1000
0001
0000
,
0110
0000
1001
0000
0010
0100
0010
0000
,
1000
0000
0001
0000
0100
0010
0100
0000
,
0001
0000
1000
0000
0010
0100
0010
0000
,
1000
0001
1000
0000
2002
0000
0000
0000
,
3003
0000
0110
0000
0010
1000
0010
0000
,
0100
0000
0100
0000
0001
0010
0001
0000
,
0100
0000
0100
0000
0001
0010
0100
0000
,
0010
0000
0010
0000
0100
1000
0001
0000
,
0010
0000
0000
0000
0000
0000
0000
0000
0100
0000
0000
0000
0000
0000
0000
0000
0010
0000
0000
0000
0000
0000
0000
0000
0100
0000
0000
0000
0000
0000
0000
0000
0020
0030
0000
0000
0000
0000
0000
0000
0200
0300
0000
0000
0000
0000
0000
0000
1010
0000
0000
0000
0000
0000
0000
0000
0000
0000
0000
0000
0000
0000
0000
0000
,
0101
1010
0101
0011
,
1100
0011
1100
0110
,
1001
0000
0010
0100
0010
1000
0002
0000
,
0000
0000
1003
0000
1001
0000
0001
1000
,
1100
0000
0100
0000
0110
0000
1000
0001
,
0101
1000
0001
0000
1001
0000
0100
0010
,
1010
0100
0001
0000
1001
0000
0010
0100
,
0101
0000
1000
0000
0001
0000
0010
0000
0100
0000
1000
0000
0100
0010
0100
0000
,
0010
0100
0010
0000
0001
0000
0100
0000
0010
0000
1000
0000
0100
0010
0100
0000
,
0010
0100
0010
0000
0001
0000
0001
0000
1000
0000
1000
0000
0001
1000
0001
0000
,
1000
0001
1000
0000
0001
0000
0100
0000
0010
0000
1000
0000
0010
0100
0010
0000
,
2002
3003
0100
0000
1000
0010
0100
0001
,
0020
0130
0000
1000
0100
0010
0001
0200
,
0300
1001
0100
0010
0001
0100
0010
1000
,
0100
0001
0100
1000
0100
0010
0001
0110
,
0010
0000
0100
0000
0000
0100
0000
0010
,
0000
1000
0000
0000
0010
0000
1000
0000
,
0100
0000
0000
0010
0000
0001
0000
0100
,
0000
0002
0000
0000
0000
1003
0000
0000
,
0100
0010
0001
0100
,
0000
0010
0000
1000
0000
0100
0000
0000
,
0010
0100
0010
0000
,
0000
0001
0000
1000
0000
0100
0010
0001
,
0000
0110
0000
1001
0000
0100
0000
1000
,
0100
1000
0000
0001
0010
0001
0000
0100
,
0000
1100
0000
0101
0000
0010
0000
1000
,
0001
1000
0000
0001
1000
0001
0000
0100
,
0000
1001
0000
0110
0000
0001
0000
0001
,
0010
0001
0000
0001
0010
0001
0000
0100
,
0000
2002
0000
3003
0000
0000
0001
0000
0010
0000
0001
0000
0000
0000
0100
0000
,
0010
1000
0000
0001
0100
0010
0000
1010
,
0000
0011
0000
1000
0100
0010
0000
0100
,
0010
0001
0000
0001
0100
0010
0000
0011
,
0000
1010
0000
0001
1000
0100
0000
1000
,
0001
0100
0000
0010
1000
0100
0000
0010
,
0001
0100
0000
0010
1000
1000
0000
0100
,
0010
0010
0000
0001
0100
0010
1000
0001
,
0000
1001
0000
0000
0000
0000
0000
0000
;

//---------------dance-single - ----------------
#NOTES:
     dance-single:
     :
     Medium:
     14:
     0.693949,0.909122,0.710655,0.224891,0.269869,540.000000,461.000000,79.000000,25.000000,0.000000,0.000000,0.693949,0.909122,0.710655,0.224891,0.269869,540.000000,461.000000,79.000000,25.000000,0.000000,0.000000:
0000
0000
0000
0000
,
0000
0000
0000
0000
,
0000
0000
0000
0000
,
0000
0000
0000
0000
,
0000
0000
0000
0000
,
0001
0010
1000
0010
0001
0100
0000
0010
,
0000
0100
0000
0010
1000
0001
0100
0000
,
0001
1000
0100
0100
0001
0010
0010
0100
,
0002
0203
0320
2030
,
3001
0010
1000
0010
0001
0000
1001
0000
,
1000
0100
0001
0100
1000
0000
0110
0000
,
1000
0010
0001
0100
1000
0000
0110
0000
,
0001
0010
1000
0100
0001
0000
1001
0000
,
1000
0100
0010
0000
0001
0100
0010
0000
,
1000
0010
0100
0000
0001
0010
0100
0000
,
1000
0010
0001
0010
1000
0001
1000
0100
,
0001
0000
0100
0000
1000
0000
0010
0000
0100
0000
0001
0000
0100
0010
0100
0010
,
0200
0300
0000
0000
0000
0000
0000
0000
0000
0000
0000
0000
0000
0000
0000
0000
1001
0000
0000
0000
0000
0000
0000
0000
0000
0000
0000
0000
0000
0000
0000
0000
1000
0000
0000
0000
0000
0000
0000
0000
0100
0000
0000
0000
0000
0000
0000
0000
1100
0000
0000
0000
0000
0000
0000
0000
0000
0000
0000
0000
0000
0000
0000
0000
,
0001
0100
0101
0000
1000
0010
1010
0000
,
0001
0010
0011
0000
1000
0010
1010
0000
,
0001
0010
0011
0000
1000
0100
1100
0000
,
0001
0010
0100
1000
0001
0100
1001
0000
,
0001
0010
1001
0000
1000
0001
0110
0000
,
0001
1000
0110
0000
1000
0100
1001
0000
,
0010
0100
0110
0000
1000
0010
0001
0010
,
1000
0100
0110
0000
1000
0100
1100
1000
,
0001
0100
0101
0001
1000
0010
0110
0100
,
0001
0010
0011
0000
0100
0010
1010
1000
,
0010
0100
0110
0010
1000
0001
1001
1000
,
0010
0000
0000
0000
0000
0000
0000
0000
0100
0000
0000
0000
0000
0000
0000
0000
0001
0000
0000
0000
0000
0000
0000
0000
0100
0000
0000
0000
0000
0000
0000
0000
0020
0030
0000
0000
0000
0000
0000
0000
0200
0300
0000
0000
0000
0000
0000
0000
0001
0000
0000
0000
0000
0000
0000
0000
0010
0000
0000
0000
0000
0000
0000
0000
,
0010
1000
0010
0001
0001
0010
0001
0100
,
0100
1000
0001
0010
0010
1000
0001
0010
,
0100
0010
0100
0010
0001
0000
1000
0000
0001
0000
1000
0000
0020
0000
0000
0000
,
0000
0000
0000
0000
0130
0000
1001
0000
0001
0010
0100
0000
1000
0100
1000
0100
,
0010
0000
0010
0001
0100
0000
1001
0000
0100
0001
0010
0000
0001
0100
0001
0100
,
0010
0000
0000
0000
1000
0001
1000
0001
1000
0000
0000
0000
0110
0000
0000
0000
1000
0000
0100
0000
0010
0000
0000
0000
0001
0000
0010
0000
0100
0000
0010
0000
,
0001
0000
1000
0010
0100
0000
0110
0000
1000
0010
0001
0000
0001
0010
1000
0100
,
0001
0000
0001
0100
2000
0000
3001
0100
0010
1000
0100
0000
1000
0100
0010
0100
,
1000
0000
0000
0000
0000
0000
0000
0000
0000
0000
0000
0000
0000
0000
0000
0000
0000
0000
0000
0000
0000
0000
0000
0000
1010
0000
0000
0000
0000
0000
0000
0000
0000
0000
0000
0000
0000
0000
0000
0000
0000
0000
0000
0000
0000
0000
0000
0000
0002
0000
0000
0000
0000
0000
0000
0000
0000
0000
0000
0000
0000
0000
0000
0000
0000
0000
0000
0000
0000
0000
0000
0003
1000
0000
0000
0000
0000
0000
0000
0000
0000
0000
0000
0000
0010
0000
0000
0000
0000
0000
0000
0000
0000
0000
0000
0000
0100
0000
0000
0000
0000
0000
0000
0000
0000
0000
0000
0000
0001
0000
0000
0000
0000
0000
0000
0000
0000
0000
0000
0000
0010
0000
0000
0000
0000
0000
0000
0000
0000
0000
0000
0000
0000
0000
0000
0000
0000
0000
0000
0000
0000
0000
0000
0000
0200
0000
0000
0000
0000
0000
0000
0000
0000
0000
0000
0000
0000
0000
0000
0000
0000
0000
0000
0000
0000
0000
0000
0000
1300
0000
0000
0000
0000
0000
0000
0000
0000
0000
0000
0000
0001
0000
0000
0000
0000
0000
0000
0000
0000
0000
0000
0000
,
0020
0000
0230
0000
1300
0000
1000
0010
0100
0000
0100
0001
0010
0000
0010
0100
,
1000
0000
1000
0010
0001
0010
1000
0100
0001
0100
1000
0001
0010
1000
0010
0100
,
0002
0000
0103
1000
0010
0100
1010
0101
,
2002
3003
0001
0000
0010
0000
0100
0000
1000
0000
0011
0000
1001
0000
2200
3300
,
0010
0000
1001
0000
1000
0010
0100
0000
0001
0010
1000
0000
0010
0001
0100
0000
,
1000
0010
0001
0010
1000
0100
0001
1000
0010
0001
1000
0010
0100
0001
0110
0000
,
1001
0000
1100
0000
0000
0101
0000
0011
,
0000
1010
0000
0000
1100
0000
0110
0000
,
0011
0000
0000
0011
0000
0110
0000
1100
,
0000
2002
0000
0000
3003
1001
0000
0000
,
0110
1001
1100
0011
,
0000
1001
0000
0011
0000
1100
0000
0000
,
0011
1100
0110
0000
,
0000
0010
0000
0010
0001
0100
0000
0010
,
1000
1100
0000
0101
0000
0010
0000
1000
,
0001
0100
0000
0001
1000
0100
0000
0010
,
0100
0110
0000
1001
0000
0010
0000
1000
,
0010
0001
0000
1000
0100
0001
0000
1000
,
0010
0110
0000
1001
0000
2000
0000
3001
,
0010
0000
2000
0000
0000
0000
3001
0000
0100
0000
1000
0000
0001
0000
0100
0010
,
0100
0010
0200
0000
0000
0000
0300
0000
0000
0000
0000
0000
0110
0000
0000
0000
1000
0000
0000
0000
0100
0000
0000
0000
0010
0000
0000
0000
0011
0000
0000
0000
,
0001
0100
0010
1010
1000
0100
0010
0110
,
0000
1001
0000
0110
0001
0010
0100
1100
,
1000
0010
0100
0101
0001
0010
0100
0110
,
0000
0000
1001
0000
0000
0000
0010
0000
0100
0000
1000
0100
1000
0000
0010
0000
,
0100
0000
0001
0100
0001
0000
0010
0000
0100
0000
1000
0100
1000
0000
0010
1000
,
0001
0000
0010
0001
1000
0000
0001
0000
0001
0000
0010
0000
0010
0000
0100
0000
,
0100
0000
1000
0000
1000
0000
0010
0000
1000
0001
0100
0001
1000
0000
0010
0100
,
0001
2002
0000
3003
0000
0000
0000
0000
,
0000
0000
0000
0000
;

//---------------dance-single - ----------------
#NOTES:
     dance-single:
     :
     Hard:
     17:
     0.859726,1.244771,0.557729,0.287860,0.778123,669.000000,607.000000,62.000000,32.000000,0.000000,0.000000,0.859726,1.244771,0.557729,0.287860,0.778123,669.000000,607.000000,62.000000,32.000000,0.000000,0.000000:
0000
0000
0000
0000
,
0000
0000
0000
0000
,
0000
0000
0000
0000
,
0000
0000
0000
0000
,
0000
0000
0000
0000
,
0010
0100
0001
1000
0010
0100
0000
0001
,
0010
0100
0000
1000
0010
0100
1001
0000
,
0010
1000
0010
0000
0100
0000
0010
0001
0010
0000
0100
0000
0010
0000
0010
0000
,
0002
0000
0000
0000
0023
0000
0000
0000
0130
1000
0100
1000
0001
0100
0001
0100
,
0010
1000
0100
1000
1010
0000
1001
0000
,
0010
0001
0100
0001
0011
0000
1001
0000
,
1000
0001
0100
0001
1100
0000
1001
0000
,
0001
1000
0010
1000
0011
0000
1001
0000
,
1000
0100
1000
1000
0001
0100
0001
0001
,
1000
0010
1000
0000
0100
0000
0010
0000
0001
0010
0001
0000
0100
0000
0010
0000
,
1000
0010
0100
0000
0001
0010
0100
0000
1000
0001
0100
0000
0001
1000
0100
0000
,
1000
0100
1000
0100
0010
0001
0010
0001
0010
0100
0010
0100
1000
0010
0100
0001
,
0200
0300
0000
0000
0000
0000
0000
0000
0000
0000
0000
0000
0000
0000
0000
0000
1001
0000
0000
0000
0000
0000
0000
0000
0000
0000
0000
0000
0000
0000
0000
0000
1000
0000
0000
0000
0000
0000
0000
0000
0100
0000
0000
0000
0000
0000
0000
0000
1100
0000
0000
0000
0000
0000
0000
0000
0010
0000
0000
0000
0000
0000
0000
0000
,
0001
0100
0101
0010
1000
0010
1010
0100
,
0001
0010
0011
0100
1000
0010
1010
0100
,
0001
0010
0011
0100
1000
0100
1100
0010
,
0001
0100
0010
0000
1000
0010
0100
0000
0001
0000
0100
0001
0100
0000
0010
0000
,
1010
0000
0100
0010
0100
0000
0001
0000
1001
0000
0100
1000
0100
0000
0010
0000
,
0011
0000
1000
0001
1000
0000
0001
0000
0101
0000
0010
1000
0001
0000
0010
0000
,
0110
0000
0100
1000
0001
0000
1000
0000
0001
0000
0001
0000
1000
0000
1000
0000
,
0001
0010
0100
1000
0002
0000
0000
0000
0013
0000
0100
0010
0001
0000
1000
0000
,
0010
0000
0001
0010
0100
0000
0001
0000
0010
0000
1000
0010
0100
0000
1000
0000
,
0010
0000
0001
0010
0100
0000
0001
0000
0010
0000
1000
0001
0100
0000
1000
0000
,
0010
0000
0001
1000
0100
0000
0001
0000
0010
0000
1000
0001
0100
0000
1000
0000
,
0010
0001
1000
0100
0101
1010
0001
1001
,
0100
0010
0100
0000
0010
0000
0110
0000
0001
0010
0001
0000
0100
0000
0110
0000
,
1000
0010
1000
0000
0100
0000
0110
0000
0010
0001
0010
0000
0110
0000
1001
0000
,
1000
0100
0010
0001
0100
0000
0010
0000
0100
0000
0010
0000
1000
0000
0001
0000
,
0010
0000
0100
0000
1001
0000
1100
0000
0001
1000
0100
0000
0100
0100
0100
0100
,
0020
0000
0000
0000
0031
0100
0001
0100
0010
0000
0000
0000
0101
0000
0000
0000
1000
0000
0001
0000
0010
0000
0000
0000
0100
0000
0100
0000
0100
0000
0100
0000
,
0020
0000
0000
0000
0031
1000
0100
1000
0001
0000
0000
0000
0110
0000
0000
0000
0001
0000
0010
0000
0100
0000
0000
0000
0010
0000
0001
0000
1000
0000
0010
0000
,
0200
0000
0000
0000
0310
1000
0100
1000
0010
0000
0000
0000
0110
0000
0000
0000
1000
0000
0010
0000
0100
0000
0000
0000
0010
0000
1000
0000
0001
0000
0010
0000
,
0100
0000
1001
0000
0020
0000
1030
0100
0001
0100
2000
0000
3010
0001
0010
0100
,
0110
0000
1001
0000
0020
0000
0031
0100
1000
0100
0002
0000
1003
0010
0001
0010
,
0110
0000
0000
0000
1001
0000
0000
0000
2000
0000
0000
0000
3001
0100
0010
0100
0002
0000
0000
0000
1003
0010
0100
0010
2000
0000
0000
0000
3001
0100
0010
1000
,
0002
0000
0000
0000
0013
0100
0010
0100
1000
0000
1000
0000
0001
0000
0001
0000
0010
0000
0010
0000
0100
0000
0100
0000
1000
0100
0010
0001
0010
0100
1000
0010
,
0200
0000
0000
0000
0000
0000
0000
0000
0301
0000
0000
0000
0000
0000
0000
0000
0001
0000
0000
0000
0010
0000
0000
0000
0100
0010
0000
0000
0010
0100
0000
0000
,
2002
0000
3003
0000
1000
0000
0000
0000
0010
0000
0000
0000
0100
0000
0000
0000
0001
0000
0000
0000
1000
0100
0010
0000
0001
0100
0010
0000
2002
0000
3003
0000
,
1010
0000
0101
0000
2002
0000
3003
0000
0001
0100
0010
0000
1000
0100
0010
0000
,
0001
0000
0100
0000
0010
0000
1000
0000
0100
0000
0010
0000
0001
0000
0100
0000
0010
1000
0100
0010
0001
0100
0010
1000
0001
0000
0000
0000
1001
0000
0000
0000
,
1000
0000
0000
0000
0000
0000
0000
0000
0000
0000
0000
0000
0000
0000
0000
0000
0000
0000
0000
0000
0000
0000
0000
0000
0100
0000
0000
0000
0000
0000
0010
0000
0000
0000
0000
0000
0200
0300
0000
0000
0000
0000
0000
0000
0000
0000
0000
0000
0000
0000
0000
0000
0000
0000
0000
0000
0000
0000
0000
0000
1000
0000
0000
0000
0000
0000
0010
0000
0000
0000
0000
0000
0000
0000
0000
0000
0000
0000
0000
0000
0000
0000
0000
0000
0010
0000
0000
0000
0000
0000
0100
0000
0000
0000
0000
0000
,
0000
0000
0000
0000
0000
0000
0000
0000
0000
0000
0000
0000
0100
0000
0000
0000
0000
0000
0001
0000
0000
0000
0000
0000
0200
0300
0000
0000
0000
0000
0000
0000
0000
0000
0000
0000
0000
0000
0000
0000
0000
0000
0000
0000
0000
0000
0000
0000
0011
0000
0000
0000
0000
0000
0000
0000
0000
0000
0000
0000
0000
0000
0000
0000
0000
0000
0000
0000
0000
0000
0000
0000
0001
0000
0000
0000
0000
0000
0010
0000
0000
0000
0000
0000
0000
0000
0000
0000
0000
0000
0000
0000
0000
0000
0000
0000
,
0100
0000
0000
0000
0000
0000
1000
0000
0000
0000
0000
0000
0200
0300
0000
0000
0000
0000
0000
0000
0000
0000
0000
0000
0000
0000
0000
0000
0000
0000
0000
0000
0000
0000
0000
0000
1010
0000
0000
0000
0000
0000
0000
0000
0000
0000
0000
0000
0000
0000
0000
0000
0000
0000
0000
0000
0000
0000
0000
0000
0100
0000
0000
0000
0000
0000
0001
0000
0000
0000
0000
0000
0000
0000
0000
0000
0000
0000
0000
0000
0000
0000
0000
0000
1000
0000
0000
0000
0000
0000
0010
0000
0000
0000
0000
0000
,
0000
0000
0220
0000
0000
0000
0000
0330
0000
0000
0011
0000
0000
0000
0000
0000
,
0101
0000
0000
0000
0000
0000
0000
0000
0000
0000
0000
0000
0000
0000
0000
0000
0000
0000
0000
0000
0000
0000
0000
0000
0110
0000
0000
0000
0000
0000
0000
0000
0000
0000
0000
0000
0000
0000
0000
0000
0000
0000
0000
0000
0000
0000
0000
0000
1000
0000
0000
0000
0000
0000
0100
0000
0000
0000
0000
0000
0000
0000
0000
0000
0000
0000
0000
0000
0000
0000
0000
0000
0001
0000
0000
0000
0000
0000
0100
0000
0000
0000
0000
0000
0002
0003
0000
0000
0000
0000
0000
0000
0000
0000
0000
0000
,
0000
0000
0000
0000
0000
0000
0000
0000
0000
0000
0000
0000
0110
0000
0000
0000
0000
0000
0000
0000
0000
0000
0000
0000
0000
0000
0000
0000
0000
0000
0000
0000
0000
0000
0000
0000
1001
0000
0000
0000
0000
0000
0000
0000
0000
0000
0000
0000
0000
0000
0000
0000
0000
0000
0000
0000
0000
0000
0000
0000
0001
0000
0000
0000
0000
0000
0100
0000
0000
0000
0000
0000
0002
0003
0000
0000
0000
0000
0000
0000
0000
0000
0000
0000
0000
0000
0000
0000
0000
0000
0000
0000
0000
0000
0000
0000
,
1001
0000
0000
0000
0000
0000
0000
0000
0000
0000
0000
0000
0000
0000
0000
0000
0000
0000
0000
0000
0000
0000
0000
0000
0010
0000
0000
0000
0000
0000
0100
0000
0000
0000
0000
0000
0000
0000
0000
0000
0000
0000
0000
0000
0000
0000
0000
0000
0100
0000
0000
0000
0000
0000
0010
0000
0000
0000
0000
0000
0200
0300
0000
0000
0000
0000
0000
0000
0000
0000
0000
0000
0000
0000
0000
0000
0000
0000
0000
0000
0000
0000
0000
0000
0000
0000
0000
0000
0000
0000
0000
0000
0000
0000
0000
0000
,
0000
0000
0001
0100
0000
0010
1000
0000
0001
1000
0001
0000
0010
0000
0001
0000
,
1000
0000
1100
0000
0000
0000
0101
0000
0000
0000
0010
0001
0000
1000
0100
0000
,
0010
0100
0010
0000
0001
0000
1000
0000
0010
0000
0001
0000
0000
0001
0010
0000
,
0100
0000
1100
0000
0000
0000
0101
0000
0000
0000
0100
0001
0000
1000
0010
0000
,
0100
0010
0100
0000
0000
0001
0010
0000
0100
0000
0010
0001
0000
1000
0100
0000
,
0010
0000
0110
0000
0000
0000
1001
0000
0000
0000
0100
0010
0000
1000
0001
0000
,
0010
0100
0010
0000
0000
0001
1000
0000
1000
0000
0001
1000
0100
0010
0001
0100
,
0010
1000
0200
0000
0000
0000
0300
0000
0000
0000
0000
0000
1000
0000
0000
0000
0010
0000
0000
0000
0100
0000
0001
0000
0010
0000
0000
0000
0001
0000
0000
0000
,
0100
0000
0001
0100
0010
0000
0100
0000
0010
0000
1000
0100
0010
0000
0100
1000
,
0010
0000
0100
0001
0010
0000
0100
0000
1000
0000
0001
1000
0100
0000
1000
0000
,
0100
0000
1000
0001
0100
0000
0010
0000
0100
0000
0010
1000
0100
0000
0001
0000
,
0100
0000
1001
0000
0000
0000
0001
1000
0100
0010
0001
0000
0001
0000
1000
0010
,
0100
0001
0010
0000
0010
0000
0001
0010
0100
1000
0010
0000
0010
0000
0100
0001
,
0100
0010
1000
0000
1000
0000
0010
1000
0001
0010
0100
0000
0100
0000
0010
0001
,
0100
0010
1000
0000
1000
0000
0001
0010
0100
1000
0001
0100
0010
0100
0001
1000
,
0100
0010
0002
0000
0000
0000
0000
0000
0003
0000
0000
0000
0000
0000
0000
0000
,
0000
0000
0000
0000
;

//---------------dance-double - ----------------
#NOTES:
     dance-double:
     :
     Easy:
     10:
     0.434361,0.603832,0.206900,0.152926,0.026987,338.000000,315.000000,23.000000,17.000000,0.000000,0.000000,0.434361,0.603832,0.206900,0.152926,0.026987,338.000000,315.000000,23.000000,17.000000,0.000000,0.000000:
00000000
00000000
00000000
00000000
,
00000000
00000000
00000000
00000000
,
00000000
00000000
00000000
00000000
,
00000000
00000000
00000000
00000000
,
00000000
00000000
00000000
00000000
,
00001000
00010000
00001000
00010000
,
00001000
00000000
00000100
00000000
00000001
00000100
00000001
00000000
,
00000100
00000010
00001000
00000100
,
00010000
00001000
00022000
00033000
,
00002000
00010000
00100000
01003000
,
00020000
00001000
00000010
00030100
,
00002000
01000000
00010000
00103000
,
00020000
00000100
00001000
00030010
,
00001000
00000010
00010000
00100000
,
00010000
00000100
00001000
01000000
,
00001000
00010000
00001000
00010000
,
00001000
00000100
00001000
00000000
00010000
00100000
00010000
00000000
,
00011000
00000000
10010000
00000000
10000000
01000000
10000000
00000000
,
00100000
00000000
01000000
00000000
00001000
00010000
00001000
00000000
,
00100000
00000000
00010000
00000000
00100000
00001000
00010000
00000000
,
00001000
00000000
00010000
00000000
00000100
00000010
00000100
00000000
,
00000010
00000000
00001001
00000000
00000001
00000010
00000001
00000000
,
00000100
00000000
00000010
00000000
00010000
00001000
00010000
00000000
,
00000100
00000000
00001000
00000000
00000100
00010000
00001000
00000000
,
00010000
00001000
00200000
00000000
,
00000000
00000000
01300000
00000000
00100000
00010000
00100000
00000000
,
00001000
00000000
00010000
00000000
00000010
00010000
00001000
00000000
,
00010000
00000000
00001000
00000000
00010000
00000100
00000010
00000000
,
00000100
00000000
00000010
00000000
00000001
00001000
00000100
00000000
,
00000100
00000000
00000000
00000000
00000000
00000000
00000000
00000000
00000000
00000000
00000000
00000000
00010000
00000000
00000000
00000000
00000000
00000000
00000000
00000000
00000000
00000000
00000000
00000000
00001000
00000000
00000000
00000000
00000000
00000000
00000000
00000000
00000000
00000000
00000000
00000000
00000000
00000000
00000000
00000000
00000000
00000000
00000000
00000000
00000000
00000000
00000000
00000000
00200000
00300000
00000000
00000000
00000000
00000000
00000000
00000000
00000000
00000000
00000000
00000000
02000000
03000000
00000000
00000000
00000000
00000000
00000000
00000000
00000000
00000000
00000000
00000000
10000000
00000000
00000000
00000000
00000000
00000000
00000000
00000000
00000000
00000000
00000000
00000000
00000000
00000000
00000000
00000000
00000000
00000000
00000000
00000000
00000000
00000000
00000000
00000000
,
11000000
00100000
01000000
00010000
,
00011000
00001000
00000100
00000010
,
00001100
00000000
00000001
00000100
00000010
00001000
00000200
00000000
,
00000000
00000000
00010300
00000000
00000110
00000000
00000001
00000001
,
00001000
00000000
00000100
00000000
00001000
00000000
00010000
00010000
,
10000000
00100000
10000000
00000000
00010000
00000000
10000000
10000000
,
00010000
00000000
01000000
00000000
00010000
00000000
00001000
00001000
,
00000001
00000000
00000000
00000000
00000001
00000000
00000100
00000000
00000010
00000000
00001000
00000000
00000010
00010000
00001000
00010000
,
00001000
00000000
00000000
00000000
00100000
00000000
01000000
00000000
10000000
00000000
01000000
00000000
00010000
00001000
00010000
00000000
,
00010000
00001000
00000010
00000000
00000001
00000000
00000001
00000000
00000100
00000000
00000100
00000000
00001000
00000000
00001000
00000000
,
00010000
00000000
00010000
00000000
00100000
00000000
10000000
00000000
01000000
00000000
00100000
00000000
00010000
01000000
00100000
00000000
,
20020000
30030000
01000000
00000000
00010000
00001000
00000100
00000010
,
00000200
00000310
00000000
00001000
00000100
00010000
00001000
00200000
,
00300000
00011000
01000000
00100000
00010000
00001000
00000100
00000010
,
00001000
00000100
00010000
00001000
00010000
00000100
00000010
00000110
,
00000001
00000000
00000100
00000000
00000000
00000010
00000000
00001000
,
00000000
00000100
00000000
00000000
00010000
00000000
00001000
00000000
,
01000000
00000000
00000000
00010000
00000000
10000000
00000000
01000000
,
00000000
20000000
00000000
00000000
00000000
30010000
00000000
00000000
,
00100000
00001000
00010000
00000100
,
00000000
00000010
00000000
00001000
00000000
00010000
00000000
00000000
,
00100000
00010000
00001000
00000000
,
00000000
00010000
00000000
00001000
00000000
00000100
00000010
00000100
,
00000000
00000110
00000000
00001001
00000000
00000100
00000000
00000010
,
00001000
00000100
00000000
00010000
00001000
00100000
00000000
00010000
,
00000000
00011000
00000000
01010000
00000000
00100000
00000000
10000000
,
01000000
00010000
00000000
00010000
00001000
00000100
00000000
00000010
,
00000000
00001001
00000000
00000110
00000000
00000001
00000000
00000001
,
00000010
00000100
00000000
00000010
00000100
00001000
00000000
00000100
,
00000000
00022000
00000000
00033000
00000000
00000000
00010000
00000000
00100000
00000000
00010000
00000000
00000000
00000000
00001000
00000000
,
00000010
00001000
00000000
00000010
00000001
00000100
00000000
00001100
,
00000000
00011000
00000000
00001000
00000010
00001000
00000000
00010000
,
00100000
00010000
00000000
00100000
10000000
01000000
00000000
01010000
,
00000000
00011000
00000000
00010000
01000000
10000000
00000000
10000000
,
01000000
00010000
00000000
00001000
00000100
00000001
00000000
00000001
,
00000100
00001000
00000000
00000100
00001000
00001000
00000000
00010000
,
00100000
00100000
00000000
01000000
00010000
00100000
00001000
00010000
,
00000000
00011000
00000000
00000000
00000000
00000000
00000000
00000000
,
00000000
00000000
00000000
00000000
;

//---------------dance-double - ----------------
#NOTES:
     dance-double:
     :
     Medium:
     14:
     0.606563,0.905748,0.269869,0.287860,0.175415,472.000000,442.000000,30.000000,32.000000,0.000000,0.000000,0.606563,0.905748,0.269869,0.287860,0.175415,472.000000,442.000000,30.000000,32.000000,0.000000,0.000000:
00000000
00000000
00000000
00000000
,
00000000
00000000
00000000
00000000
,
00000000
00000000
00000000
00000000
,
00000000
00000000
00000000
00000000
,
00000000
00000000
00000000
00000000
,
00000001
00000010
00001000
00010000
00000010
00010000
00000000
00001000
,
00000000
00010000
00000000
00001000
00010000
00100000
10000000
00000000
,
10000000
00000000
00010000
01000000
00000000
10000000
00100000
00000000
,
01100000
01010000
00022000
00033000
,
00001000
00000100
00000001
00000010
00000200
00000000
00000310
00000000
,
00000100
00001000
00000010
00010000
02000000
00000000
03100000
00000000
,
00010000
01000000
10000000
00010000
00200000
00000000
01300000
00000000
,
10000000
01000000
00010000
00100000
02000000
00000000
03100000
00000000
,
00010000
01000000
00001000
00000000
00000010
00000001
00000100
00000000
,
00000001
00000100
00001000
00000000
00010000
00001000
01000000
00000000
,
01000000
00100000
10000000
01000000
00100000
00010000
00001000
00000100
,
00000001
00000100
00001000
00010000
00100000
10000000
00010000
01000000
,
20000000
30000000
00000000
00000000
00000000
00000000
00000000
00000000
00000000
00000000
00000000
00000000
00000000
00000000
00000000
00000000
10010000
00000000
00000000
00000000
00000000
00000000
00000000
00000000
00000000
00000000
00000000
00000000
00000000
00000000
00000000
00000000
00100000
00000000
00000000
00000000
00000000
00000000
00000000
00000000
10000000
00000000
00000000
00000000
00000000
00000000
00000000
00000000
00100000
00000000
00000000
00000000
00000000
00000000
00000000
00000000
10000000
00000000
00000000
00000000
00000000
00000000
00000000
00000000
,
00010000
01000000
00001000
01000000
00010000
00100000
01000000
00010000
,
00001000
00010000
00001000
00000000
00000100
00000010
00000100
00000010
,
00001000
00000001
00000010
00000100
00001000
00000100
00010000
00000100
,
00010000
00001000
00100000
01000000
10000000
01000000
00010000
01000000
,
10000000
01000000
00100000
00010000
01000000
00100000
10000000
00100000
,
01000000
00010000
00100000
00000000
01000000
00010000
00001000
00010000
,
01000000
00010000
00001000
00010000
00002000
00000000
00000000
00000000
,
00000000
00000000
00013000
00000000
00001000
00100000
00010000
01000000
,
00010000
00100000
00001000
00000100
00000010
00001000
00000100
00010000
,
01000000
00100000
00001000
00000100
00000010
00001000
00010000
01000000
,
00100000
00010000
00001000
00000100
00000010
00001000
00000100
00010000
,
01000000
00100000
00001000
00010000
00011000
00011000
00001000
00100000
,
00001000
00000100
00000010
00000001
00000010
00000100
00001000
00000100
,
00001000
00010000
00000100
00010000
00001000
00100000
00001000
00000100
,
00001000
00100000
10000000
10000000
00100000
00100000
00010000
00002000
,
00000000
00000000
00000000
00000000
00013000
00000000
00011000
00000000
00100000
00001000
00100000
00000000
00010000
01000000
10000000
01000000
,
00010000
00000000
01001000
00000000
00010000
00000000
00010010
00000000
00000010
00001000
00000010
00000000
00001000
00000100
00000001
00000100
,
00001000
00000000
00000000
00000000
00000100
00010000
00001000
00010000
00001000
00000000
00000000
00000000
00011000
00000000
00000000
00000000
00010000
00000000
01000000
00000000
10000000
00000000
00000000
00000000
00010000
00000000
01000000
00000000
00100000
00000000
00010000
00000000
,
00001000
00000000
00101000
00000000
00010000
00000000
00010100
00000000
00001000
00000100
00000001
00000000
00001000
00000100
00000010
00001000
,
00010000
00000000
00011000
00000000
00002000
00000000
00013000
00010000
00001000
00001000
00200000
00000000
00320000
00000000
01030000
00100000
,
01100000
00000000
10010000
00000000
00200000
00000000
00310000
00010000
00100000
00100000
00002000
00000000
00023000
00000000
00030100
00000010
,
00000110
00000000
00001001
00000000
00000002
00000000
00000103
00000100
00000200
00000000
00001300
00001000
00002000
00000000
00013000
00010000
,
00020000
00000000
01030000
01000000
01000000
00000000
00010000
01000000
00000000
10000000
01000000
00000000
00100000
00000000
00010000
00000000
,
20020000
00000000
00000000
00000000
00000000
30030000
00000000
00000000
10020000
00000000
00000000
00000000
00100000
00000000
00000000
00000000
00032000
00000000
00000000
00000000
00000100
00000000
00000000
00000000
00000001
00000000
00000000
00000000
00003010
00000000
00000000
00000000
,
00022000
00033000
00002001
00000000
00000010
00000000
00023000
00000000
01000000
00000000
10000000
00000000
00130000
00000000
00022000
00033000
,
00000000
00000000
10010000
00000000
01000000
00010000
00100000
00000000
00001000
00100000
00010000
00000000
00100000
00001000
00010000
00000000
,
00000100
00001000
00000010
00000000
00000100
00000001
00000010
00000000
00000001
00000010
00001000
00010000
00001000
00010000
00021000
00000000
,
00000010
00000000
00000100
00000000
00000000
00000100
00000000
00000010
,
00000000
00001000
00000000
00000000
00100000
00000000
10000000
00000000
,
00100000
00000000
00000000
10000000
00000000
00100000
00000000
00001000
,
00000000
00032000
00000000
00000000
00000000
00000010
00000000
00000000
,
00000001
00000010
00010000
00100000
,
00000000
00000010
00000000
00010000
00000000
01000000
00000000
00000000
,
00000010
00000000
00010000
00000000
00100000
00003000
00000000
00000000
,
00000000
00001000
00000000
00001000
00000100
00000001
00000000
00000001
,
00000100
00001000
00000000
00011000
00000000
00010000
00000000
00010000
,
01000000
10000000
00000000
10000000
01000000
00010000
00000000
01000000
,
00100000
01000000
00000000
00011000
00000000
00001000
00000000
00001000
,
00000100
00000010
00000000
00001000
00000100
00000010
00000000
00000001
,
00000010
00001000
00000000
00000110
00000000
00000010
00000000
00000010
,
00000010
00000001
00000000
00000100
00000100
00001000
00010000
01000000
,
10000000
00020000
00000000
00030000
00000000
00000000
10000000
00000000
01000000
00000000
10000000
00000000
01000000
00000000
00100000
00000000
,
00010000
00100000
00010000
00100000
00001000
00010000
00000100
00000010
,
00000000
00000011
00000000
00000001
00000100
00000001
00000100
00000010
,
00001000
00000010
00001000
00000010
00010000
00001000
01000000
00100000
,
00000000
10100000
00000000
10000000
01000000
00010000
00001000
00000010
,
00000001
00000100
00001000
00010000
00100000
00010000
00001000
00100000
,
00010000
00000000
10000000
00000000
00100000
00000000
01000000
00000000
00001000
00000000
00010000
00001000
00010000
00000000
00000010
00000000
,
00000100
00000000
00001000
00000000
00100000
00000000
00001000
00010000
00001000
00000000
01000000
00100000
01000000
00000000
00010000
00000000
,
10000000
10010000
00000000
00000000
00000000
00000000
00000000
00000000
,
00000000
00000000
00000000
00000000
;

//---------------dance-double - ----------------
#NOTES:
     dance-double:
     :
     Hard:
     17:
     0.818603,1.243619,0.449782,0.269869,0.688166,637.000000,587.000000,50.000000,30.000000,0.000000,0.000000,0.818603,1.243619,0.449782,0.269869,0.688166,637.000000,587.000000,50.000000,30.000000,0.000000,0.000000:
00000000
00000000
00000000
00000000
,
00000000
00000000
00000000
00000000
,
00000000
00000000
00000000
00000000
,
00000000
00000000
00000000
00000000
,
00000000
00000000
00000000
00000000
,
00010000
00001000
00000100
00000001
00000010
00001000
00000000
00010000
,
00001000
00010000
01000000
00010000
00001000
00000100
00000001
00000010
,
00000011
00000000
00000101
00001001
00000000
00001100
00010100
00000000
,
00020000
00000000
00000000
00000000
00032000
00000000
00000000
00000000
00013000
00001000
00010000
00001000
00100000
00010000
00100000
01000000
,
10000000
00100000
01000000
00010000
00200000
00000000
00301000
00000000
,
00010000
00000100
00000001
00001000
00000020
00000000
00000031
00000000
,
00000100
00010000
01000000
00001000
00200000
00000000
00310000
00000000
,
00100000
00001000
00000100
00001000
00020000
00000000
00030100
00000000
,
00010000
00001000
01000000
00010000
00100000
00001000
00010000
00000100
,
00000010
00000100
00000010
00000000
00000001
00000000
00000010
00000000
00000001
00000100
00000010
00000000
00001000
00000000
00000100
00000000
,
00010000
00001000
00100000
00000000
00010000
00100000
01000000
00000000
10000000
00010000
00100000
00000000
01000000
00100000
00010000
00000000
,
00001000
00000100
00000010
00000100
00000010
00000001
00001000
00000001
00001000
00000010
00001000
00000100
00010000
00001000
00100000
00010000
,
02000000
03000000
00000000
00000000
00000000
00000000
00000000
00000000
00000000
00000000
00000000
00000000
00000000
00000000
00000000
00000000
00000000
00000000
00000000
00000000
00000000
00000000
00000000
00000000
10010000
00000000
00000000
00000000
00000000
00000000
00000000
00000000
00000000
00000000
00000000
00000000
00000000
00000000
00000000
00000000
00000000
00000000
00000000
00000000
00000000
00000000
00000000
00000000
00100000
00000000
00000000
00000000
00000000
00000000
00000000
00000000
00000000
00000000
00000000
00000000
10000000
00000000
00000000
00000000
00000000
00000000
00000000
00000000
00000000
00000000
00000000
00000000
10100000
00000000
00000000
00000000
00000000
00000000
00000000
00000000
00000000
00000000
00000000
00000000
10000000
00000000
00000000
00000000
00000000
00000000
00000000
00000000
00000000
00000000
00000000
00000000
,
00010000
01000000
01010000
00010000
00100000
00001000
00101000
00001000
,
00010000
00000100
00010100
00010000
00000010
00001000
00001010
00001000
,
00000001
00000100
00000101
00000001
00000100
00000010
00000110
00000010
,
00000100
00001000
00010000
00100000
10000000
11000000
10010000
01000000
,
00010000
00001000
00000100
00001000
00010000
00011000
00010100
00001000
,
00000100
00000001
00000100
00001000
00010000
00011000
00101000
00010000
,
00100000
10000000
00100000
00010000
00001000
00000100
00000001
00001000
,
00000001
00000010
00001000
00000010
00000200
00000000
00000000
00000000
00010300
00000000
00000100
00000000
00001000
00000100
00000010
00000000
,
00000001
00000000
00000100
00000000
00000001
00000100
00000001
00000000
00000010
00000000
00000001
00000000
00000100
00000010
00000100
00000000
,
00001000
00000000
00010000
00000000
00001000
00010000
00001000
00000000
00100000
00000000
00010000
00000000
00100000
01000000
00100000
00000000
,
01000000
00000000
10000000
00000000
01000000
00100000
00010000
00000000
01000000
00000000
00100000
00000000
10000000
00010000
01000000
00000000
,
00010000
00100000
00001000
00010000
00011000
00001100
00000010
00000110
,
00001000
00000010
00001000
00000000
00000100
00000000
00010000
00000000
01000000
00000000
10000000
00000000
01000000
00000000
01100000
00000000
,
00010000
00100000
00010000
00000000
00100000
00000000
00001000
00000000
00000010
00000000
00000001
00000000
00001000
00000000
00000100
00000000
,
00010000
00001000
00000100
00000010
00000001
00000000
00000010
00000000
00000100
00000000
00000010
00000000
00001000
00000000
00010000
00000000
,
01000000
00000000
00100000
00000000
10000000
00000000
11000000
00000000
00010000
00001000
00000100
00000000
00000001
00000001
00001000
00001000
,
00020000
00000000
00000000
00000000
00031000
00000010
00001000
00000010
00000100
00000000
00000000
00000000
00000101
00000000
00000000
00000000
00001000
00000000
00010000
00000000
01000000
00000000
00000000
00000000
10000000
00000000
10000000
00000000
00010000
00000000
00010000
00000000
,
00002000
00000000
00000000
00000000
00013000
00100000
01000000
10000000
00010000
00000000
00000000
00000000
10100000
00000000
00000000
00000000
00010000
00000000
00001000
00000000
00000100
00000000
00000000
00000000
00000001
00000000
00001000
00000000
00000001
00000000
00001000
00000000
,
00020000
00000000
00000000
00000000
00031000
00000010
00000100
00000001
00000010
00000000
00000000
00000000
00000011
00000000
00000000
00000000
00001000
00000000
00010000
00000000
01000000
00000000
00000000
00000000
01000000
00000000
10000000
00000000
00100000
00000000
00010000
00000000
,
00002000
00000000
00013000
00000000
02010000
00000000
03010000
00100000
00001000
00000100
00000010
00000000
00000010
00001000
00000100
00000010
,
00000110
00000000
00000011
00000000
00001002
00000000
00000103
00001000
00010000
01000000
20000000
00000000
30010000
00100000
01000000
00100000
,
01100000
00000000
00000000
00000000
10010000
00000000
00000000
00000000
20000000
00000000
00000000
00000000
30010000
01000000
00100000
01000000
00020000
00000000
00000000
00000000
00130000
00001000
00010000
00001000
00200000
00000000
00000000
00000000
00301000
00010000
00001000
00000100
,
00000020
00000000
00000000
00000000
00000130
00000010
00001000
00000010
00000100
00000000
00000001
00000000
00000010
00000000
00001000
00000000
00010000
00000000
00001000
00000000
00010000
00000000
01000000
00000000
10000000
00010000
10000000
00010000
01000000
00100000
01000000
00100000
,
00020000
00000000
00000000
00000000
00000000
00000000
00000000
00000000
00031000
00000000
00000000
00000000
00000000
00000000
00000000
00000000
00000001
00000000
00000000
00000000
00000010
00000000
00000000
00000000
00000100
00001000
00000000
00000000
00010000
00100000
00000000
00000000
,
00022000
00033000
01000000
00000000
10000000
00000000
01000000
00000000
00010000
00000000
00001000
00001000
00010000
00010000
00022000
00033000
,
00000100
00000000
00000000
00000000
00001001
00000000
00000000
00000000
00000010
00000100
00000000
00000000
00001000
00000000
00000000
00000000
00010000
00000000
01000000
00000000
10000000
00000000
00000000
00000000
00100000
00000000
00010000
00000000
00001000
00000000
00000000
00000000
,
00000010
00000000
00000100
00000000
00001000
00000000
00000001
00000000
00000100
00000000
00000010
00000000
00010000
00000000
00001000
00000000
01000000
00010000
00100000
00001000
01000000
00010000
10000000
00100000
02000000
00000000
00000000
00000000
03100000
00000000
00000000
00000000
,
01000000
00000000
00000000
00000000
01000000
00100000
01000000
00000000
00000000
00000000
00000010
00000100
00000000
00000000
00000010
00000001
,
00000000
00000000
00000010
00000100
00000010
00000000
00000000
00000000
00100000
01000000
00000000
00000000
00100000
10000000
00000000
00000000
,
00100000
00010000
00100000
00000000
00000000
00000000
00001001
00000000
00000000
00000000
00000001
00001000
00000000
00000000
00001000
00000001
,
00000000
00000000
00002002
00000000
00000000
00000000
00000000
00003003
00000000
00000000
00000110
00000000
00000000
00000000
00000000
00000000
,
00011000
00000000
00000000
00000000
01100000
00000000
00000000
00000000
01000000
00010000
00000000
00000000
00010000
00100000
00010000
00000000
,
00000000
00000000
00000011
00000000
00000000
00000000
00000110
00000000
00000000
00000000
00000001
00000100
00000001
00000000
00000000
00000000
,
10010000
00000000
00000000
00000000
00100000
01000000
00000000
00000000
01000000
00100000
01000000
00000000
00000000
00000000
00000000
00000000
,
00000000
00000000
00011000
00000000
00000000
00001000
00000100
00000000
00000001
00000000
00000010
00000000
00001000
00000000
00010000
00000000
,
01000000
00000000
10000000
01000000
00000000
00000000
00010000
01000000
00000000
00000000
10010000
00000000
00000000
10000000
00100000
00000000
,
00010000
00000000
00001000
00000000
00000010
00000000
00000001
00000000
00000100
00000000
00000001
00000100
00000000
00000010
00000100
00000000
,
00000010
00000000
00000110
00000000
00000000
00000000
00001001
00000000
00000000
00000000
00000110
00000000
00000000
00000001
00000010
00000000
,
00001000
00000000
00010000
00000000
00000000
00100000
10000000
00000000
01000000
00000000
00010000
00000000
00000000
00001000
00000010
00000000
,
00000001
00000000
00000100
00001000
00000000
00010000
00100000
00000000
00000000
00000000
01100000
00000000
00000000
10000000
00100000
00000000
,
00010000
00000000
00001000
00000000
00000000
00000100
00000001
00000000
00000010
00000000
00000001
00000100
00000010
00001000
00000001
00000010
,
00000100
00001000
00000002
00000000
00000000
00000000
00000003
00000000
00000000
00000000
00000000
00000000
00001000
00000000
00000000
00000000
00000010
00000000
00000000
00000000
00000100
00000000
00000001
00000000
00000010
00000000
00000000
00000000
00000100
00000000
00000000
00000000
,
00001000
00000000
00000100
00010000
00001000
00000000
00100000
00000000
00001000
00000000
00100000
00010000
01000000
00000000
00010000
10000000
,
00100000
00000000
10000000
01000000
00010000
00000000
01000000
00000000
00010000
00000000
00001000
00010000
00001000
00000000
00000100
00000000
,
00000010
00000000
00000100
00000001
00000010
00000000
00000001
00000000
00001000
00000000
00000010
00010000
00000100
00000000
00010000
00000000
,
00001000
00000000
00200000
00000000
00000000
00000000
00310000
10000000
01000000
00000000
00100000
00000000
01000000
00000000
00010000
00001000
,
00000100
00000000
00000010
00000000
00000100
00000000
00001000
00010000
00100000
00000000
01000000
00000000
00010000
00000000
00100000
00010000
,
00001000
00000000
00000100
00000000
00000010
00000000
00000001
00000010
00000100
00000010
00000001
00000000
00001000
00000000
00000001
00000100
,
00000010
00010000
00001000
00000000
00010000
00000000
00000100
00010000
00001000
00100000
00010000
01000000
00010000
00100000
00010000
00001000
,
00000100
00000001
00000200
00000000
00000000
00000000
00000000
00000300
00000000
00000000
00000000
00000000
00000000
00000000
00000000
00000000
,
00000000
00000000
00000000
00000000
;

//---------------dance-single - ----------------
#NOTES:
     dance-single:
     :
     Challenge:
     18:
     1.116744,1.487653,0.647686,0.107948,1.502271,869.000000,797.000000,72.000000,12.000000,0.000000,0.000000,1.116744,1.487653,0.647686,0.107948,1.502271,869.000000,797.000000,72.000000,12.000000,0.000000,0.000000:
// measure 0
0000
0000
0000
0000
,  // measure 1
0000
0000
0000
0000
,  // measure 2
0000
0000
0000
0000
,  // measure 3
0000
0000
0000
0000
,  // measure 4
0000
0000
0000
0000
,  // measure 5
0001
0100
0001
0100
0001
0000
1000
0000
0010
0000
0100
0000
0001
0000
0010
0000
,  // measure 6
0100
0000
1000
0000
0010
0000
0100
0000
0001
1000
0001
1000
0001
0000
0010
0000
,  // measure 7
0100
1000
0100
0000
1000
0001
1000
0000
0010
0100
0010
0000
0100
0001
0100
0000
,  // measure 8
0001
0010
0100
1000
0010
0100
0001
1000
0100
0010
0001
1000
0010
0000
0100
0000
,  // measure 9
0001
1000
0100
1000
0001
0000
0010
0000
0200
0000
1000
0000
1300
0000
0000
0000
,  // measure 10
0010
1000
0100
1000
0010
0000
0100
0000
0002
0000
0010
0000
0013
0000
0000
0000
,  // measure 11
0100
0001
0010
0001
0100
0000
0010
0000
2000
0000
0001
0000
3001
0000
0000
0000
,  // measure 12
1000
0001
0010
0001
1000
0000
0100
0000
0020
0000
0100
0000
0130
0000
0000
0000
,  // measure 13
1000
0001
0010
0001
1000
0000
0100
0000
0010
0100
1000
0100
0010
0000
0001
0000
,  // measure 14
0100
0001
0010
0100
1000
0000
0001
0000
0010
0001
1000
0010
1000
0000
0100
0000
,  // measure 15
0010
0001
0010
0001
1000
0100
1000
0100
1000
0010
1000
0010
0100
0001
0100
0001
,  // measure 16
1000
0100
0010
0100
0001
0100
0001
0100
0001
0010
1000
0010
1000
0001
0010
2000
,  // measure 17
0002
0000
3003
0000
1001
0000
0000
0000
0010
0000
0101
0000
0101
0000
0001
1000
,  // measure 18
0100
0000
1100
0000
1100
0000
1000
0010
0100
0000
1010
0000
1010
0000
0001
1000
,  // measure 19
0010
0000
0110
0000
0110
0000
0100
0001
1000
0000
0011
0000
0011
0000
0001
1000
,  // measure 20
0100
0000
1001
0000
1001
0000
0010
0100
0001
0000
0011
0000
1100
0000
0010
0000
,  // measure 21
1000
0100
0010
0001
0100
0010
1000
0001
0100
0000
0110
0000
0110
0000
0010
1000
,  // measure 22
0001
0000
0101
0000
0101
0000
0001
0010
0100
0000
1100
0000
1100
0000
1000
0001
,  // measure 23
0010
0000
0011
0000
0011
0000
0001
1000
0010
0000
1010
0000
1010
0000
0100
1000
,  // measure 24
0001
0000
1001
0000
1001
0000
0100
0000
0001
0010
0001
0010
0100
1000
0100
1000
,  // measure 25
0001
0100
0010
1000
0100
0010
0001
0000
0100
0000
0101
0000
1010
0000
0010
1000
,  // measure 26
0100
0000
0110
0000
0011
0000
0001
0100
0010
0000
1010
0000
0101
0000
0001
1000
,  // measure 27
0100
0000
1100
0000
0011
0000
0010
0001
1000
0000
1001
0000
0110
0000
0100
0001
,  // measure 28
1000
0000
1100
0000
0101
0000
0010
1000
0100
0000
0011
0000
1010
0000
1000
0000
,  // measure 29
0001
0010
0100
1000
0010
0100
0001
1000
0100
0000
1001
0000
0001
0000
1100
0000
,  // measure 30
0011
0000
0100
0001
1000
0000
1010
0000
0101
0000
0010
1000
0100
0000
0110
0000
,  // measure 31
1001
0000
0001
0100
0010
0000
1010
0000
1100
0000
0001
0100
0010
0000
0010
0000
,  // measure 32
0010
1000
0100
0010
0001
0100
0001
1000
0010
0100
0001
0000
1000
0001
0100
0010
,  // measure 33
1000
0000
0100
0000
0010
0000
0001
0000
0100
0000
0000
0000
0100
0000
0001
0000
0010
0000
0100
0000
1000
0000
0000
0000
0001
0100
0001
0100
0001
0100
0001
0100
,  // measure 34
0001
0000
0010
0000
0100
0000
1000
0000
0001
0000
0000
0000
0001
0000
0100
0000
0010
0000
1000
0000
0100
0000
0000
0000
1000
0010
1000
0010
1000
0010
1000
0010
,  // measure 35
1000
0000
0000
0000
0001
0100
0010
1000
0001
0000
0100
0000
0010
0000
0100
0000
0010
0000
1000
0000
0001
0000
0000
0000
1000
0000
0010
0000
0100
0000
0001
0000
,  // measure 36
0010
0000
0100
0000
1000
0001
0100
0010
1000
0000
0001
0000
1000
0000
0010
0000
0100
0000
0001
0000
0100
0000
0000
0000
0001
0010
0001
0010
0100
1000
0100
1000
,  // measure 37
0010
0100
0010
0100
0010
0000
0000
0000
1001
0000
1000
0000
0100
0000
0010
0000
0001
0000
0100
0000
0010
0000
0100
0000
0001
0000
0010
0000
0100
0000
1000
0000
,  // measure 38
0010
0100
0010
0100
0001
1000
0001
1000
0100
0000
0010
0000
0001
0000
0100
0000
0010
0000
1000
0000
0001
0000
1000
0000
0100
0010
0100
0010
0100
0010
0100
0010
,  // measure 39
0001
0000
0100
0000
0010
0000
1000
0000
1100
0000
0100
0000
1000
0000
0010
0000
0100
0000
0001
0000
1000
0000
0001
0000
0010
0100
0010
0100
0010
0000
0001
0000
,  // measure 40
0100
0010
0100
0010
1000
0000
0001
0000
1000
0010
0100
0000
0010
0000
1000
0001
0010
0000
0100
0000
0010
0001
1000
0000
0001
0100
0010
1000
0001
0010
0100
1000
,  // measure 41
0010
0100
0010
0100
0001
1000
0001
1000
0010
0000
0000
0000
0000
0000
0000
0000
1010
0000
0000
0000
1100
0000
0000
0000
0011
0000
0000
0000
1001
0000
0000
0000
,  // measure 42
0101
0100
0000
0110
1010
1001
0011
1100
,  // measure 43
0001
0100
0010
0100
0002
1000
1003
0000
0100
0010
1000
0010
0200
0001
0301
0000
,  // measure 44
1000
0100
1000
0100
1000
0010
1000
0010
0100
0001
0100
0001
0010
0001
0010
0001
1000
0100
0010
0100
0001
1000
0010
0001
0100
1000
0010
0001
0100
0000
0000
0000
,  // measure 45
0001
1000
0000
1000
0100
0000
0110
0000
0000
0000
0010
0001
0000
0001
1000
0010
,  // measure 46
0000
0010
0100
0000
0101
0000
0000
0000
0001
0100
0000
0100
0010
1000
0000
1000
,  // measure 47
0001
0000
0011
0000
0000
0000
0010
0001
0000
0001
0100
0010
0000
0010
1000
0000
,  // measure 48
0000
0000
0001
0100
0010
1000
0100
0010
0100
1000
0001
0000
0100
0010
1000
0000
,  // measure 49
1100
0000
0000
0000
0001
1000
0000
1000
0100
0010
0000
0010
0001
0000
1001
0000
,  // measure 50
0000
0000
0010
0100
0000
0100
0001
0010
0000
0010
0100
0000
0110
0000
0000
0000
,  // measure 51
0010
0001
0000
0001
1000
0010
0100
0001
0010
0100
1000
0000
1100
0000
0101
0000
,  // measure 52
0000
0000
0010
0001
0100
0010
0100
0001
0010
0100
1000
0000
0100
1000
0001
0000
,  // measure 53
1000
0100
0010
0000
0001
0100
0001
0010
0100
1000
0010
0100
0010
1000
0001
0000
,  // measure 54
1000
0001
0010
0100
1000
0001
1000
0010
0100
0001
0100
0000
0010
1000
0010
0000
,  // measure 55
1000
0000
2200
0000
0000
0000
0300
0000
0000
0000
3010
1000
0100
0010
0100
1000
,  // measure 56
0001
0100
0010
0000
1000
0001
0010
0100
0010
0001
1000
0010
0100
0001
0010
0100
,  // measure 57
1000
0001
0100
0000
0000
0000
0101
0000
0000
0000
0010
0001
0100
0001
0010
0000
,  // measure 58
0100
1000
0001
0000
0100
0000
0010
1000
0100
0010
0001
1000
0010
1000
0100
0010
,  // measure 59
0001
0100
0001
0100
0010
0000
1000
0000
0000
0000
0000
0000
0010
0000
0000
0000
1000
0000
0100
0000
1000
0000
0000
0000
0001
0000
0100
0000
0001
0000
0000
0000
,  // measure 60
1000
0010
1000
0000
0001
0010
0001
0000
0100
0010
0100
0000
0010
0100
0010
0000
,  // measure 61
1000
0001
1000
0000
0001
1000
0001
0000
0010
0100
1000
0000
0010
0100
0001
0000
,  // measure 62
1000
0001
0100
0000
0001
1000
0010
0000
1000
0001
1000
0100
1000
0100
0010
0001
,  // measure 63
0010
0001
0100
0000
0000
0000
0001
0010
0001
0010
0100
1000
0100
1000
0010
1000
,  // measure 64
0010
1000
0001
0100
0001
0100
0001
0010
0100
1000
0001
0100
0010
1000
0100
0010
,  // measure 65
0001
1000
0001
1000
0010
0100
0001
0010
1000
0010
1000
0100
0001
0010
0001
0100
,  // measure 66
1000
0001
0100
1000
0010
0100
0001
0010
0001
0010
0001
0100
0001
0100
0001
1000
,  // measure 67
0001
2000
0002
0000
0000
0000
0000
0000
3003
0000
0000
0000
0000
0000
0000
0000
;
