#VERSION:0.83;
#TITLE:Rainy Day Blues;
#SUBTITLE:;
#ARTIST:vlsaurus1;
#TITLETRANSLIT:;
#SUBTITLETRANSLIT:;
#ARTISTTRANSLIT:;
#GENRE:;
#ORIGIN:;
#CREDIT:;
#BANNER:Rainy Day Blues-bn.png;
#BACKGROUND:Rainy Day Blues-bg.png;
#PREVIEWVID:;
#JACKET:Rainy Day Blues-jacket.png;
#CDIMAGE:;
#DISCIMAGE:;
#LYRICSPATH:;
#CDTITLE:;
#MUSIC:Rainy Day Blues.ogg;
#OFFSET:0.000000;
#SAMPLESTART:74.667000;
#SAMPLELENGTH:20.000000;
#SELECTABLE:YES;
#DISPLAYBPM:90.000000;
#BPMS:0.000=90.000;
#STOPS:;
#DELAYS:;
#WARPS:;
#TIMESIGNATURES:0.000=4=4;
#TICKCOUNTS:0.000=4;
#COMBOS:0.000=1;
#SPEEDS:0.000=1.000=0.000=0;
#SCROLLS:0.000=1.000;
#FAKES:;
#LABELS:0.000=Song Start;
#BGCHANGES:;
#KEYSOUNDS:;
#ATTACKS:
;

//---------------dance-single - ----------------
#NOTEDATA:;
#CHARTNAME:;
#STEPSTYPE:dance-single;
#DESCRIPTION:;
#CHARTSTYLE:;
#DIFFICULTY:Hard;
#METER:15;
#RADARVALUES:0.593001,0.635925,0.337873,0.013791,0.730909,602.000000,553.000000,49.000000,2.000000,0.000000,0.000000,0.000000,0.000000,0.000000,0.593001,0.635925,0.337873,0.013791,0.730909,602.000000,553.000000,49.000000,2.000000,0.000000,0.000000,0.000000,0.000000,0.000000;
#CREDIT:;
#DISPLAYBPM:90.000000;
#NOTES:
0000
0000
0000
0000
,
0000
0000
0000
0000
,
0000
0000
0000
0000
,
0000
0000
0000
0000
,
1001
0000
0000
0000
0000
0000
0000
0000
0000
0000
0000
1000
0100
0000
1000
0100
0000
0000
0000
0000
0000
0010
0000
0000
,
0011
0000
0000
0000
0000
0000
0000
0000
0000
0000
0000
0001
1000
0000
0001
1000
0000
0000
0000
0000
0000
0100
0000
0000
,
1100
0000
0000
0000
0000
0000
0000
0000
0000
0000
0000
0010
0100
0000
0010
0100
0000
0000
0000
0000
0000
0001
0000
0000
,
0101
0000
0000
0000
0000
0000
0000
0000
0000
0000
0000
0010
1000
0000
0010
1000
0000
0000
0000
0000
0000
0100
0000
0000
,
0110
0000
0000
0000
0000
0000
0001
0000
0000
0000
0000
1000
0010
0000
1000
0010
0000
0000
0100
0000
0000
0001
0000
0000
,
0011
0000
0000
0000
0000
0000
0100
0000
0000
0000
0000
1000
0001
0000
1000
0001
0000
0000
0100
0000
0000
0010
0000
0000
,
1010
0000
0000
0000
0000
0000
0100
0000
0000
0000
0000
0001
0010
0000
0001
0010
0000
0000
0100
0000
0000
1000
0000
0000
,
1100
0000
0000
0000
0000
0000
0001
0000
0000
0000
0000
0100
0010
0000
0100
0010
0000
0000
1000
0000
0000
0001
0000
0000
,
1001
0000
0000
0010
0000
0000
0100
0000
0000
0000
0000
0001
1000
0000
0001
1000
0000
0000
0100
0000
0000
0010
0000
0000
,
0011
0000
0000
1000
0000
0000
0010
0000
0000
0000
0000
0100
0001
0000
0100
0001
0000
0000
1000
0000
0000
0010
0000
0000
,
1010
0000
0000
1000
0000
0000
0100
0000
0000
0000
0000
0010
0001
0000
0010
0001
0000
0000
1000
0000
0000
0100
0000
0000
,
0110
0000
0000
0001
0000
0000
1000
0000
0000
0000
0000
0010
0100
0000
0010
0100
0000
0000
0001
0000
0000
1000
0000
0000
,
1100
0000
0000
0001
0000
0000
1000
0000
0000
0000
0000
1000
0100
0000
0010
0001
0000
0000
0100
0000
0000
0010
0000
0000
,
0110
0000
0000
0010
0000
0000
1000
0000
0000
0000
0000
1000
0001
0000
0100
0010
0000
0000
0100
0000
0000
0001
0000
0000
,
0011
0000
0000
0010
0000
0000
0001
0000
0000
0000
0000
0001
1000
0000
0100
1000
0000
0000
0010
0000
0000
0100
0000
0000
,
0101
0000
0000
0100
0000
0000
0010
0000
0000
0000
0000
0100
0001
0000
1000
0001
0000
0000
1000
0000
0000
0010
0000
0000
,
0110
0000
0000
0001
0000
0000
1000
0000
0100
0000
0000
1000
0100
0000
0010
0001
0000
0000
0100
0000
0000
0010
0000
0000
,
1010
0000
0000
1000
0000
0000
0001
0000
0010
0000
0000
0001
0100
0000
0010
1000
0000
0000
0100
0000
0000
1000
0000
0000
,
1001
0000
0000
0010
0000
0000
1000
0000
0001
0000
0000
0010
0100
0000
0010
0100
0000
0000
1000
0000
0000
0001
0000
0000
,
0101
0000
0000
0100
0000
0000
0001
0000
1000
0000
0000
1000
0100
0000
0100
0010
0000
0000
0001
0000
0000
0010
0000
0000
,
1100
0000
0000
0001
0000
0000
0010
0000
0100
0000
0000
0100
1000
0000
0001
1000
0000
0000
0010
0000
0000
0100
0000
0000
,
1010
0000
0000
0001
0000
0000
1000
0000
0001
0000
0000
0010
0100
0000
0100
0010
0000
0000
0001
0000
0000
1000
0000
0000
,
0110
0000
0000
0001
0000
0000
0010
0000
0100
0000
0000
1000
0010
0000
1000
0010
0000
0000
0100
0000
0000
0001
0000
0000
,
1010
0000
0000
0100
0000
0000
0001
0000
1000
0000
0000
0010
0100
0000
0010
1000
0000
0000
0001
0000
0000
0010
0000
0000
,
0101
0000
1000
0100
1000
0100
1000
0100
0010
0001
0010
0001
0100
0010
1000
0000
,
1010
0000
0010
0100
0010
0100
0010
0100
0001
1000
0001
1000
0100
0010
0001
0000
,
1001
0000
0001
0100
0001
0100
0001
0100
0010
1000
0010
1000
0001
1000
0100
0000
,
0110
0000
0001
1000
0001
1000
0001
1000
0100
0010
0100
0010
0001
0100
0010
0000
,
1010
0000
0001
0010
0001
0010
0001
0010
0100
1000
0100
1000
0100
0010
0001
0000
,
0101
0000
1000
0001
1000
0001
1000
0001
0100
0010
0100
0010
1000
0001
0100
0000
,
0110
0000
0001
0100
0001
0100
0001
0100
0010
1000
0010
1000
0010
1000
0100
0000
,
1100
0000
0100
0010
0100
0010
0100
0010
0001
1000
0001
1000
0001
0100
0010
0000
,
0101
0000
0001
0010
0100
1000
0010
0100
0010
1000
0100
0010
0001
0100
0010
0000
,
0110
0000
0100
0001
0010
0100
1000
0001
1000
0010
0100
0010
1000
0001
0100
0000
,
1001
0000
0001
0010
0100
0010
0001
1000
0100
1000
0010
1000
0100
0010
0001
0000
,
0011
0000
1000
0001
0010
0001
0100
0010
1000
0100
0010
0001
0100
0010
1000
0000
,
1100
0000
0010
1000
0001
1000
0100
0010
0001
0100
0010
1000
0001
1000
0010
0100
,
0110
0000
0001
0010
0001
0100
0010
0100
0001
0010
0100
1000
0100
1000
0010
1000
,
1010
0000
0010
1000
0100
0010
0001
0100
0010
1000
0100
0010
0100
0010
0001
1000
,
1001
0000
0001
0100
0010
1000
0100
0010
0001
0100
0010
1000
0100
0010
0100
1000
,
1010
0000
0000
0000
0000
0000
0010
0000
0000
1000
0000
0000
0100
0000
0000
0000
0010
0000
0000
0000
0000
0000
0010
0000
0001
0000
0000
0000
1000
0000
0001
0000
0000
1000
0000
0000
0010
0000
0000
0100
0000
0000
0001
0000
0000
1000
0000
0000
,
1001
0000
0000
0000
0000
0000
0001
0000
0000
0100
0000
0000
0010
0000
0000
0000
1000
0000
0000
0000
0000
0000
0001
0000
1000
0000
0000
0000
1000
0000
0100
0000
0000
0010
0000
0000
0001
0000
0000
0100
0000
0000
0010
0000
0000
1000
0000
0000
,
1100
0000
0000
0000
0000
0000
1000
0000
0000
0001
0000
0000
1000
0000
0000
0000
0100
0000
0000
0000
0000
0000
0100
0000
0010
0000
0000
0000
0001
0000
0100
0000
0000
0010
0000
0000
1000
0000
0000
0100
0000
0000
0010
0000
0000
0001
0000
0000
,
0101
0000
0000
0000
0000
0000
0010
0000
0000
1000
0000
0000
0100
0000
0000
0000
0010
0000
0000
0000
0000
0000
0001
0000
1000
0000
0000
0000
0001
0000
0100
0000
0000
0010
0000
0000
1000
0000
0000
0100
0000
0000
0010
0000
0000
0001
0000
0000
,
0011
0000
0000
0000
0000
0000
0010
0000
0000
0001
0000
0000
1000
0000
0000
0000
0100
0000
0010
0000
0000
0000
0001
0000
1000
0000
0000
0000
0010
0000
1000
0000
0000
0100
0000
0000
0010
0000
0000
0001
0000
0000
1000
0000
0000
0010
0000
0000
,
0110
0000
0000
0000
0000
0000
0010
0000
0000
1000
0000
0000
0001
0000
0000
0000
0010
0000
0100
0000
0000
0000
0010
0000
0001
0000
0000
0000
1000
0000
0100
0000
0000
0010
0000
0000
0001
0000
0000
0100
0000
0000
0010
0000
0000
1000
0000
0000
,
1001
0000
0000
0000
0000
0000
0010
0000
0000
0100
0000
0000
0001
0000
0000
0000
0010
0000
0001
0000
0000
0000
1000
0000
0100
0000
0000
0000
1000
0000
0010
0000
0000
0100
0000
0000
0010
0000
0000
1000
0000
0000
0001
0000
0000
0100
0000
0000
,
0110
0000
0000
0000
0000
0000
0001
0000
0000
0010
0000
0000
0100
0000
0000
0000
1000
0000
0001
0000
0000
0000
0010
0000
0001
0000
0000
0000
0100
0000
0010
0000
0000
1000
0000
0000
0100
0000
0000
0010
0000
0000
0001
0000
0000
0100
0000
0000
,
0202
0000
0000
0000
,
0000
0000
0000
0000
,
0000
0303
0000
0000
;

//---------------dance-single - ----------------
#NOTEDATA:;
#CHARTNAME:;
#STEPSTYPE:dance-single;
#DESCRIPTION:;
#CHARTSTYLE:;
#DIFFICULTY:Medium;
#METER:11;
#RADARVALUES:0.400916,0.467592,0.530943,0.013791,0.058611,407.000000,330.000000,77.000000,2.000000,0.000000,0.000000,0.000000,0.000000,0.000000,0.400916,0.467592,0.530943,0.013791,0.058611,407.000000,330.000000,77.000000,2.000000,0.000000,0.000000,0.000000,0.000000,0.000000;
#CREDIT:;
#DISPLAYBPM:90.000000;
#NOTES:
0000
0000
0000
0000
,
0000
0000
0000
0000
,
0000
0000
0000
0000
,
0000
0000
0000
0000
,
1001
0000
0000
0000
1000
0001
0000
0100
,
0110
0000
0000
0000
0010
1000
0000
0001
,
0011
0000
0000
0000
0010
0100
0000
1000
,
1100
0000
0000
0000
0001
1000
0000
0010
,
1010
0000
0001
0000
0010
0100
1000
0001
,
0101
0000
0100
0000
0010
1000
0001
0010
,
0110
0000
1000
0000
0001
1000
0010
0100
,
0101
0000
0010
0000
0100
0001
1000
0100
,
1100
0001
1000
0000
0001
0010
0100
1000
,
1010
0010
0100
0000
0001
0010
0100
1000
,
0101
0010
0100
0000
0010
1000
0001
0100
,
1001
0100
0001
0000
1000
0001
1000
0010
,
0110
0100
0101
0000
0001
0010
0100
1000
,
1010
0001
0011
0000
1000
0001
0010
0100
,
1100
0010
1001
0000
0100
0010
1000
0001
,
0011
1000
1100
0000
0010
1000
0001
0100
,
0110
0000
0001
0010
0100
1000
0010
0100
,
0101
0000
1000
0001
0010
0001
1000
0100
,
1100
0000
1000
0001
0010
0001
1000
0100
,
1001
0000
0001
1000
0100
0010
0100
1000
,
1010
0000
0100
0010
0100
0001
0010
1000
,
1001
0000
0001
0010
0100
1000
0010
0100
,
0110
0000
0001
0010
0100
1000
0001
0100
,
0011
0000
0010
0001
0100
0010
1000
0001
,
1000
0100
0001
0010
0010
0001
0100
1000
,
0001
1000
0100
0010
0100
0001
1000
0010
,
1000
0100
0001
0010
0010
1000
0001
0100
,
0010
0001
0100
0001
1000
0010
0100
1000
,
0100
0010
0001
1000
0010
1000
0001
0100
,
1000
0001
0100
0010
0010
0100
0001
1000
,
0001
0100
0100
0010
1000
0001
0010
1000
,
0100
0001
1000
0100
1000
0010
0010
0001
,
0000
0000
0000
0110
0000
0000
1001
0000
0000
0000
0000
0000
1100
0000
0000
0000
0000
0110
0000
0000
0000
0011
0000
0000
,
0000
0000
0000
0101
0000
0000
1010
0000
0000
0000
0000
0000
1001
0000
0000
0000
0000
1100
0000
0000
0000
0011
0000
0000
,
0000
0000
0000
0110
0000
0000
1100
0000
0000
0000
0000
0000
0011
0000
0000
0000
0000
1001
0000
0000
0000
0101
0000
0000
,
0000
0000
0000
0011
0000
0000
1010
0000
0000
0000
0000
0000
1100
0000
0000
0000
0000
1001
0000
0000
0000
0101
0000
0000
,
0000
0000
0000
0011
0000
0000
0110
0000
0000
0000
0000
0000
1001
0000
0000
0000
0000
1010
0000
0000
0000
1100
0000
0000
,
0000
0000
0000
1001
0000
0000
0011
0000
0000
0000
0000
0000
0110
0000
0000
0000
0000
1100
0000
0000
0000
0101
0000
0000
,
0000
0000
0000
1010
0000
0000
0110
0000
0000
0000
0000
0000
0101
0000
0000
0000
0000
1001
0000
0000
0000
1100
0000
0000
,
0000
0000
0000
0011
0000
0000
1100
0000
0000
0000
0000
0000
1001
0000
0000
0000
0000
0110
0000
0000
0000
1010
0000
0000
,
1001
0001
0010
0100
1000
0010
0100
0001
,
0011
1000
0001
0010
0100
1000
0010
0100
,
0110
0010
1000
0001
1000
0100
0010
0001
,
0101
1000
0001
0010
0001
0100
0010
1000
,
1100
0000
0001
0000
1000
0000
0010
0000
0100
0001
0100
0000
0010
1000
0010
0000
,
1001
0000
0100
0000
0010
0000
0001
0000
1000
0010
1000
0000
0001
0100
0001
0000
,
0011
0000
0100
0000
1000
0000
0010
0000
0100
0001
0100
0000
0001
1000
0001
0000
,
1100
0000
1000
0000
0100
0000
0010
0000
0001
0100
0010
1000
0100
0010
0001
0000
,
2002
0000
0000
0000
,
0000
0000
0000
0000
,
0000
3003
0000
0000
;

//---------------dance-single - ----------------
#NOTEDATA:;
#CHARTNAME:;
#STEPSTYPE:dance-single;
#DESCRIPTION:;
#CHARTSTYLE:;
#DIFFICULTY:Easy;
#METER:8;
#RADARVALUES:0.267934,0.328909,0.186175,0.013791,0.000000,272.000000,245.000000,27.000000,2.000000,0.000000,0.000000,0.000000,0.000000,0.000000,0.267934,0.328909,0.186175,0.013791,0.000000,272.000000,245.000000,27.000000,2.000000,0.000000,0.000000,0.000000,0.000000,0.000000;
#CREDIT:;
#DISPLAYBPM:90.000000;
#NOTES:
0000
0000
0000
0000
,
0000
0000
0000
0000
,
0000
0000
0000
0000
,
0000
0000
0000
0000
,
1001
0000
1000
0000
,
0110
0000
0010
0000
,
1001
0000
0100
0000
,
0110
0000
0001
0000
,
0010
1000
0100
0001
,
1000
0010
0100
0001
,
0010
0100
1000
0001
,
1000
0010
0001
0100
,
1001
0010
1000
0100
,
0010
0001
0100
1000
,
0110
0010
1000
0100
,
1000
0010
0100
0001
,
1001
0010
1000
0100
,
0110
0001
0100
0010
,
1001
0100
0001
0010
,
0110
1000
0001
0100
,
1001
0010
0100
0001
,
0110
0001
0010
1000
,
1001
0100
0010
1000
,
0110
0001
1000
0100
,
1001
0000
0001
0000
0100
0010
1000
0000
,
0110
0000
0010
0000
1000
0100
0001
0000
,
1001
0000
1000
0000
0100
0010
0001
0000
,
0110
0000
0100
0000
0001
0010
1000
0000
,
0010
0000
1000
0000
0100
0010
0001
0000
,
1000
0000
0001
0000
0010
0100
1000
0000
,
0001
0000
0100
0000
1000
0010
0100
0000
,
0010
0000
1000
0000
0100
1000
0001
0000
,
0010
0000
0100
0000
1000
0010
0100
0001
,
1000
0000
0001
0000
0010
0001
0100
0010
,
0100
0000
0001
0000
1000
0001
1000
0100
,
0010
0000
0001
0000
0100
0010
1000
0001
,
1000
0100
0010
0000
0001
0100
0010
0000
,
1000
0001
1000
0000
0010
0100
0001
0000
,
0010
0100
1000
0000
0001
1000
0001
0000
,
1000
0010
0100
0000
0001
0010
1000
0000
,
0010
1000
0100
0010
0001
0100
0010
0000
,
1000
0001
1000
0001
0010
0100
1000
0000
,
0100
0010
0100
1000
0010
0100
0001
0000
,
0010
0001
1000
0010
1000
0100
0010
0000
,
1001
0100
0010
1000
0100
0010
0001
0000
,
0110
0001
0100
0010
1000
0001
0100
0000
,
1001
1000
0001
0010
0001
1000
0100
0000
,
0110
0100
1000
0010
0100
0001
1000
0000
,
1001
1000
0001
0010
0001
1000
0100
0000
,
0110
0100
0010
0001
0100
0010
1000
0000
,
1001
0001
1000
0001
0010
0100
1000
0000
,
0110
0010
0100
0010
0001
0100
1000
0000
,
2002
0000
0000
0000
,
3003
0000
0000
0000
;

//---------------dance-single - ----------------
#NOTEDATA:;
#CHARTNAME:;
#STEPSTYPE:dance-single;
#DESCRIPTION:;
#CHARTSTYLE:;
#DIFFICULTY:Beginner;
#METER:3;
#RADARVALUES:0.112296,0.143424,0.062058,0.000000,0.000000,114.000000,105.000000,9.000000,0.000000,0.000000,0.000000,0.000000,0.000000,0.000000,0.112296,0.143424,0.062058,0.000000,0.000000,114.000000,105.000000,9.000000,0.000000,0.000000,0.000000,0.000000,0.000000,0.000000;
#CREDIT:;
#DISPLAYBPM:90.000000;
#NOTES:
// measure 0
0000
0000
0000
0000
,  // measure 1
0000
0000
0000
0000
,  // measure 2
0000
0000
0000
0000
,  // measure 3
0000
0000
0000
0000
,  // measure 4
1000
0000
0000
0000
,  // measure 5
0100
0000
0000
0000
,  // measure 6
0010
0000
0000
0000
,  // measure 7
0001
0000
0000
0000
,  // measure 8
0100
0000
0000
0000
,  // measure 9
0010
0000
0000
0000
,  // measure 10
1000
0000
0000
0000
,  // measure 11
0001
0000
0000
0000
,  // measure 12
0010
0000
0010
0000
,  // measure 13
0001
0000
0001
0000
,  // measure 14
1000
0000
1000
0000
,  // measure 15
0100
0000
0100
0000
,  // measure 16
1000
0000
1000
0000
,  // measure 17
0001
0000
0001
0000
,  // measure 18
0100
0000
0100
0000
,  // measure 19
0010
0000
0010
0000
,  // measure 20
1000
0000
0100
0000
,  // measure 21
0010
0000
0001
0000
,  // measure 22
1000
0000
0010
0000
,  // measure 23
0100
0000
0001
0000
,  // measure 24
1000
0000
0001
0000
,  // measure 25
0010
0000
0100
0000
,  // measure 26
1000
0000
0001
0000
,  // measure 27
0100
0000
0010
0000
,  // measure 28
1000
1000
1000
0000
,  // measure 29
0100
0100
0100
0000
,  // measure 30
0010
0010
0010
0000
,  // measure 31
0001
0001
0001
0000
,  // measure 32
0100
0100
0100
0000
,  // measure 33
0010
0010
0010
0000
,  // measure 34
1000
1000
1000
0000
,  // measure 35
0001
0001
0001
0000
,  // measure 36
1001
0000
0010
0000
,  // measure 37
0110
0000
0100
0000
,  // measure 38
1001
0000
0001
0000
,  // measure 39
0110
0000
1000
0000
,  // measure 40
1001
0000
1000
0000
,  // measure 41
0110
0000
0001
0000
,  // measure 42
1001
0000
0100
0000
,  // measure 43
0110
0000
0010
0000
,  // measure 44
1000
1000
1000
0000
,  // measure 45
0001
0001
0001
0000
,  // measure 46
0010
0010
0010
0000
,  // measure 47
0100
0100
0100
0000
,  // measure 48
1000
0001
1000
0000
,  // measure 49
0010
0100
0010
0000
,  // measure 50
1000
0100
1000
0000
,  // measure 51
0001
0010
0001
0000
,  // measure 52
1001
0000
0000
0000
;
