#TITLE:Queen Kaguya;
#SUBTITLE:;
#ARTIST:BEMANI Sound Team "U1 overground";
#TITLETRANSLIT:;
#SUBTITLETRANSLIT:;
#ARTISTTRANSLIT:U1 overground;
#GENRE:;
#CREDIT:;
#BANNER:Queen Kaguya.png;
#BACKGROUND:Queen Kaguya-bg.png;
#LYRICSPATH:;
#CDTITLE:;
#MUSIC:Queen Kaguya.ogg;
#OFFSET:0.000000;
#SAMPLESTART:68.400002;
#SAMPLELENGTH:20.000000;
#SELECTABLE:YES;
#DISPLAYBPM:50.000000:400.000000;
#BPMS:0.000000=100.000000
,33.000000=200.000000
,99.000000=100.000000
,115.000000=200.000000
,161.000000=100.000000
,162.000000=200.000000
,176.000000=100.000000
,192.000000=200.000000
,256.000000=100.000000
,272.000000=400.000000
,336.000000=50.000000
;
#STOPS:160.500000=0.600000
;
#BGCHANGES:0.000=Queen Kaguya.avi=1.000=0=0=0=StretchNoLoop====,
99999=-nosongbg-=1.000=0=0=0 // don't automatically add -songbackground-
;
#KEYSOUNDS:;
#ATTACKS:;

//---------------dance-single - ----------------
#NOTES:
     dance-single:
     :
     Beginner:
     5:
     0.154288,0.230090,0.015652,0.125219,0.000000,138.000000,136.000000,2.000000,16.000000,0.000000,0.000000,0.154288,0.230090,0.015652,0.125219,0.000000,138.000000,136.000000,2.000000,16.000000,0.000000,0.000000:
0000
0000
0000
0000
,
0000
0000
0000
0000
,
0000
0000
0000
0000
,
0000
0000
0000
0000
,
0000
0000
0000
0000
2000
3000
0000
0000
,
0200
0300
0000
0000
0020
0030
0000
0000
,
0002
0003
0000
0000
0200
0300
0000
0000
,
0020
0030
0000
0000
2000
3000
0000
0000
,
0002
0003
0000
0000
0000
0000
0010
0000
,
0000
0010
0000
0001
,
0000
0001
0000
1000
,
0000
1000
0000
1000
,
0000
0000
0000
0001
,
0000
0001
0000
1000
,
0000
1000
0000
0100
,
0000
0100
0000
0100
,
0000
0000
0000
0001
,
0001
0001
0000
1000
,
0000
0100
0000
1000
,
1000
1000
0000
0010
,
0010
0000
0000
0100
,
0100
0100
0000
0010
,
0000
1000
0000
0001
,
0001
0001
0000
1000
,
1000
1000
0000
0001
,
0000
0100
0000
0010
,
0000
1000
0000
0001
,
0000
0010
0000
0100
,
0000
1000
0000
0010
,
0000
1000
0000
0001
,
0000
0100
0000
2000
,
0000
3000
0000
0010
,
0000
0000
0000
0001
,
0000
1000
0000
0010
,
0000
0100
0000
0020
,
0000
0030
0000
0200
,
0000
0300
0000
0002
,
0000
0000
0003
0000
,
0000
0000
0000
0100
,
0000
0010
0000
0100
,
0100
1001
0000
0000
,
0000
0000
0000
0000
,
0100
0000
0100
0000
,
0001
0000
0000
0000
,
1000
0000
1000
0000
,
0001
0000
0001
0000
,
0100
0000
0100
0000
,
0010
0000
0010
0000
,
0010
0010
0010
0000
,
0100
0100
0100
0000
,
0000
0000
0000
0000
,
0000
0000
0000
0000
,
0001
0001
0001
0000
,
1000
1000
1000
0000
,
0000
0000
0000
0000
,
0000
0000
0000
0000
,
1001
0000
0000
0000
,
0000
0000
0000
0000
,
0020
0000
0030
0000
,
0200
0000
0300
0000
,
0001
0001
0001
0000
,
1000
1000
1000
0000
,
0001
0001
0001
0000
,
1000
1000
1000
0000
,
0002
0000
0003
0000
,
0010
0000
0100
0000
,
2000
0000
3000
0000
,
0001
0000
0100
0000
,
0010
0000
0010
0000
,
0010
0000
0000
0000
,
1000
0000
1000
0000
,
1000
0000
0000
0000
,
0010
0000
0010
0000
,
0010
0000
0000
0000
,
0100
0000
0000
0000
,
0100
0000
0000
0000
,
0001
0000
0001
0000
,
0001
0000
0000
0000
,
1000
0000
1000
0000
,
1000
0000
0000
0000
,
0100
0000
0100
0000
,
0100
0000
0000
0000
,
0001
0000
0000
0000
,
1000
0000
0000
0000
,
0010
0000
0000
0000
;

//---------------dance-single - ----------------
#NOTES:
     dance-single:
     :
     Easy:
     7:
     0.319756,0.432397,0.109567,0.086088,0.000000,286.000000,272.000000,14.000000,11.000000,0.000000,0.000000,0.319756,0.432397,0.109567,0.086088,0.000000,286.000000,272.000000,14.000000,11.000000,0.000000,0.000000:
0000
0000
0000
0000
,
0000
0000
0000
0000
,
0000
0000
0000
0000
,
0000
0000
0000
0000
,
0000
0000
0000
0000
1000
0100
0000
0000
,
0001
0100
0000
0000
0010
0001
0000
0000
,
0010
1000
0000
0000
0010
0100
0000
0000
,
0100
0010
0000
0000
1000
0001
0000
0000
,
0001
1000
0000
0000
0010
0000
1001
0000
,
1000
0100
0001
0010
,
0100
0010
0001
0100
,
0010
1000
0100
2000
,
0000
3001
1000
0110
,
0010
1000
0001
0010
,
0100
1000
0010
1000
,
0001
0010
0100
0020
,
0000
0031
0100
0110
,
0010
1000
1000
0001
,
1000
0100
0100
1000
,
0001
0010
1000
0100
,
1001
0000
0000
0110
,
0100
0001
1000
0010
,
0010
1000
0100
0001
,
1000
0100
0010
1000
,
0100
0001
0000
0020
,
0031
2000
3100
0002
,
1000
0013
0000
1000
,
1000
0001
0001
0100
,
0100
0010
0010
1001
,
0100
1000
0100
0001
,
0001
1000
1000
0001
,
0010
1000
0010
0002
,
0003
0000
0000
0110
,
0010
1000
0100
0010
,
0010
0100
0100
1000
,
1000
1000
0000
0001
,
0001
0001
0000
0010
,
0010
0010
0010
0010
,
0010
0010
0010
0001
,
0100
0010
1000
0100
,
0110
0000
2002
3000
0010
0000
0013
0000
,
0001
0100
1000
0100
,
0001
1000
0001
1000
,
0001
0010
0100
1000
,
0010
0010
1000
0000
0100
0100
0001
0000
,
1000
1000
0100
0000
0001
0001
0010
0000
,
0100
0100
0010
0000
0001
0001
1000
0000
,
0001
0001
0100
0000
1000
1000
0010
0000
,
0001
0101
1000
1100
,
0010
1000
0100
0001
,
0100
0100
0100
0100
,
0010
0010
0010
0001
,
1000
1010
0001
0011
,
0100
0010
1000
0001
,
1000
1000
1000
1000
,
0001
0001
0100
0000
,
0002
0100
0000
0100
,
0000
0100
0000
0103
,
2000
0100
0000
0100
,
0000
0100
0000
3100
,
1000
0100
0010
0000
,
0001
0100
0010
0000
,
0100
0001
1000
0000
,
0001
0010
1000
0000
,
1001
0000
0000
0000
0000
0010
0000
0100
,
0000
0001
0000
1000
0000
0100
0000
0010
,
0000
0001
0000
0001
0000
1000
0000
1000
,
0000
0010
0000
0010
0000
0100
0000
0100
,
0001
0000
1000
0000
,
0010
0000
1000
0000
,
0100
0000
0010
0000
,
0001
0000
0100
0000
,
0010
0000
0100
0000
,
0010
0000
1000
0000
,
0100
0000
0001
0000
,
0010
0000
1000
0000
,
0001
0000
1000
0000
,
0100
0000
0010
0000
,
0001
0000
1000
0000
,
0010
0000
0100
0000
,
0001
0000
0100
0000
,
1000
0000
0010
0000
,
1000
0000
0100
0000
,
0001
0000
0010
0000
,
2000
0000
0000
0000
,
3000
0000
0000
0000
;

//---------------dance-single - ----------------
#NOTES:
     dance-single:
     :
     Medium:
     12:
     0.493050,0.864795,0.086088,0.211307,0.133045,441.000000,430.000000,11.000000,27.000000,0.000000,0.000000,0.493050,0.864795,0.086088,0.211307,0.133045,441.000000,430.000000,11.000000,27.000000,0.000000,0.000000:
0000
0000
0000
0000
,
0000
0000
0000
0000
,
0000
0000
0000
0000
,
0000
0000
0000
0000
,
0000
0000
0000
0000
0000
0000
0000
0000
0001
0000
0100
0010
0000
1000
0000
0100
,
0000
1000
0001
0010
0000
0200
0000
0000
1000
0000
1000
0000
0000
0000
0000
0000
,
0001
0000
0301
0000
0000
0000
0000
0000
1000
0000
0100
0010
0000
0001
0000
0100
,
0000
0001
1000
0010
0000
0200
0000
0000
0001
0000
0001
0000
0000
0000
0000
0000
,
0010
0310
0000
0100
0020
0000
1030
0000
,
0100
0010
0000
0100
1000
0100
0010
0000
,
0001
0100
0010
0100
0001
1000
0001
0000
,
0010
0100
0010
0010
0010
0000
0001
0100
,
0001
1000
0000
1000
0010
0000
0100
0000
,
0010
1000
0000
0010
0100
0010
1000
0000
,
0100
0010
0000
0100
1000
0000
0001
0001
,
0001
0000
0100
0010
1000
0000
0001
0010
,
0100
1000
0010
0100
0001
0000
1001
0000
,
0100
0001
1000
0000
1010
0000
1000
0100
,
0010
0100
1000
0000
0001
0000
1000
0000
,
0100
1000
0001
0100
0010
0100
0001
0010
,
0100
0010
0000
0010
0002
0000
1003
0000
,
0010
1000
0001
0000
0101
0000
0001
0010
,
0100
0010
0001
1000
0100
0000
0010
0000
,
0100
1000
0001
0000
0110
0000
1000
0010
,
0100
0010
1000
0001
0100
0000
0002
0000
,
0000
2003
0000
3020
,
0000
0000
0230
0000
0000
0000
0301
0001
,
0010
0010
0100
0100
1000
1000
0100
0001
,
0100
0000
1000
0000
0200
0000
0000
0310
0000
0000
0000
0000
0120
0000
0000
0000
,
0000
0000
0000
2030
,
0000
0000
0000
3002
,
0000
0000
0000
0203
,
0000
0301
0000
0000
0000
0000
1000
0100
,
1000
0000
0001
0100
0001
0000
1000
0010
,
1000
0000
0001
0010
0001
0000
1000
0100
,
0010
0001
1000
0100
0010
0000
0001
0010
,
0100
1000
0001
0010
0100
1000
0010
0100
,
0010
0100
0010
0100
0001
0100
0010
0100
,
0010
0100
0010
0100
1000
0100
0010
0100
,
0001
0010
0100
0010
0001
1000
0001
0010
,
0100
0000
0020
0030
1001
0000
0000
0000
0010
0000
0010
0000
0010
0000
0010
0000
,
1000
0100
0001
0100
,
0010
0000
0000
0000
0001
0001
0001
0001
,
0100
1000
0100
0010
,
2000
0000
0000
0000
3100
0000
0000
0000
0001
0100
0010
0000
0110
0000
0000
0000
,
0002
0000
0000
0000
0103
0000
0000
0000
1000
0010
0100
0000
0110
0000
0010
0000
,
2000
0000
0000
0000
3001
0000
0000
0000
0010
0001
0100
0000
0101
0000
0000
0000
,
0002
0000
0000
0000
1003
0000
0000
0000
0100
1000
0010
0000
1010
0000
0000
0000
,
1001
0000
0010
0001
0000
0100
0001
1000
,
0000
0100
1000
0001
0000
1000
0200
0000
,
1000
1000
0010
0010
,
0001
0000
0301
0000
1000
0001
1000
0001
,
1000
0000
0100
1000
0000
0010
1000
0001
,
0000
0010
0001
1000
0000
0001
0200
0000
,
0001
0001
0010
0010
,
1000
1300
0001
1000
,
0001
0000
0010
0001
0000
0100
0001
0000
,
1000
0000
0010
1000
0000
0100
1000
0000
,
0001
0000
0100
0001
0000
0100
0010
0000
,
1000
0000
0100
1000
0000
0100
0010
0000
,
0100
1000
0000
0100
0001
0100
0000
1000
,
0010
1000
0000
0010
0001
0010
0000
0100
,
0010
0100
0010
0100
0010
1000
0010
1000
,
0010
0001
0010
0001
0010
0100
0010
0100
,
0001
0000
1000
0200
0000
0000
0000
0000
0000
1300
0000
0001
0000
0000
0200
0000
,
0000
0000
0310
0000
1000
0001
0010
0000
0001
1000
0010
0000
1000
0100
0010
0001
,
1000
0100
1000
0100
0002
0000
0000
0000
0000
0000
0103
1000
0010
0100
0001
1000
,
0001
0010
0100
0000
1000
0010
0100
0001
1000
0100
0010
0002
0000
0000
1003
0000
,
0001
0100
0001
0100
,
0001
0010
0001
0010
,
0001
0100
2000
0000
,
3100
0001
0100
0010
,
1000
0100
0010
0001
,
0200
0000
0010
0000
,
1000
0000
0301
0000
,
0010
0001
0100
0001
,
1000
0100
1000
0100
,
0001
0100
0001
0100
,
0010
0100
0010
0100
,
0010
0001
1000
0001
,
0100
0001
0010
0000
,
0100
1000
0000
0100
,
0001
0100
0010
0000
,
0001
0010
0000
1000
,
0020
0000
0000
0000
,
0030
0000
0000
0000
;

//---------------dance-single - ----------------
#NOTES:
     dance-single:
     :
     Hard:
     17:
     0.791564,1.363715,0.226960,0.226960,0.614356,708.000000,679.000000,29.000000,29.000000,0.000000,0.000000,0.791564,1.363715,0.226960,0.226960,0.614356,708.000000,679.000000,29.000000,29.000000,0.000000,0.000000:
0000
0000
0000
0000
,
0000
0000
0000
0000
,
0000
0000
0000
0000
,
0000
0000
0000
0000
,
0000
0000
0000
0000
0000
0000
0000
0000
1000
0100
0010
0001
0000
0100
0010
1000
,
0000
0001
0010
1000
0000
0001
0100
1000
0010
1000
0100
0010
0001
0100
1000
0000
,
0100
0010
1000
0001
0010
0001
0100
0000
0001
0010
0100
1000
0000
0010
0100
0001
,
0000
1000
0100
0001
0000
1000
0010
0001
0100
0001
0010
0100
1000
0001
0010
0000
,
0001
0100
0010
1000
0100
0000
0010
0000
0001
1000
0001
1000
0001
0000
0010
0000
,
0100
0000
1000
0000
0010
0100
0010
1000
0001
0000
0100
0000
0001
0000
1000
0000
,
0100
0000
0010
0000
0100
1000
0010
1000
0001
0000
0100
0000
0010
1000
0010
1000
,
0010
0000
0100
0000
0001
0100
0001
0100
0001
0000
1000
0000
0010
1000
0100
0010
,
0001
0000
0100
0000
0000
0000
0100
0000
0001
1000
0001
1000
0001
0000
1000
0000
,
0010
0000
1000
0000
0100
0010
0100
0010
0001
0000
0100
0000
0010
0000
1000
0000
,
0100
0000
1000
0000
0001
1000
0100
0010
0001
0000
0100
0000
0001
1000
0100
1000
,
0100
0000
0010
0000
0001
0100
0010
0100
0010
0000
1000
0000
0001
0100
1000
0100
,
0001
0000
0010
0100
1000
0000
0010
0000
0100
0000
0001
0000
1001
0000
0000
0000
,
0001
0000
0010
0000
0100
1000
0001
0000
0200
0000
0000
0000
0310
0000
1000
0000
,
0010
0001
1000
0100
0001
0100
0010
0100
,
0001
0000
1000
0000
0100
0010
0001
0000
0100
0010
1000
0000
0001
0000
0010
0000
,
0100
0000
1000
0000
0010
0000
0100
0000
0001
1000
0001
1000
0002
0000
0000
0000
,
1003
0000
0100
0000
0010
0000
0001
0000
0100
0001
0010
0000
0001
0000
1000
0000
,
0100
0000
0010
0000
0100
1000
0100
1000
0010
0100
0001
0000
0020
0000
0000
0000
,
0031
0000
0100
0000
0010
0000
1000
0100
0000
0001
0100
0000
1000
0000
0001
0100
,
0001
0000
1000
0000
0100
0010
0100
1000
0001
0000
1000
0000
0010
0000
0100
0000
,
0001
1000
0100
0010
0001
1000
0100
0001
,
1000
0010
0100
1000
0001
0000
1000
0001
,
1001
1001
1000
0100
1100
1100
0100
0010
,
0110
0110
0010
0001
0011
0011
0001
1000
,
0100
0010
0001
2000
0000
3020
0000
1000
,
1030
0100
0010
0001
0100
0001
0101
0000
,
1100
0000
0101
0000
0010
0100
0001
0010
,
0100
1000
0000
0000
0000
0000
0010
1000
,
0001
1000
0100
0020
0000
0032
0000
0100
,
0103
0001
1000
0001
0010
0100
1100
0000
,
0011
0000
0000
0000
1100
0000
0000
0000
0010
0000
0100
0010
0100
0000
0000
0000
,
0101
0000
1100
0000
0000
0010
1000
1000
,
1000
1000
1000
1000
1000
1000
0001
0001
,
0001
0001
0001
0001
0001
0001
0100
0100
,
0010
0000
0010
0000
1000
0000
0100
0000
0010
0000
0001
1000
0001
0000
0010
0000
,
0100
0000
2000
3000
1001
0000
0000
0000
0010
0000
0010
0000
0010
0100
0010
0000
,
0100
0001
0100
0001
0100
0000
0001
0000
2000
0000
0000
0000
3010
0000
0000
0000
,
0200
0000
0000
0000
0301
0000
0000
0000
1000
0000
0100
0001
0000
0100
1000
0000
,
0001
0000
0010
0000
0100
1000
0001
1000
0001
0000
0100
0000
0010
0000
0000
0000
,
2010
0000
0000
0000
0000
0000
0000
0000
3001
0000
0000
0000
0000
0000
0100
0001
0100
0000
0001
1000
0001
0000
0000
0000
1001
0000
0000
0000
0000
0000
0000
0000
,
0012
0000
0000
0000
0000
0000
0000
0000
1003
0000
0000
0000
0000
0000
0100
1000
0100
0000
1000
0001
1000
0000
0000
0000
1001
0000
0000
0000
1000
0000
0000
0000
,
1200
0000
0000
0000
0000
0000
0000
0000
0310
0000
0000
0000
0000
0000
0001
0100
0010
0000
1000
0100
0010
0000
0000
0000
0110
0000
0000
0000
0000
0000
0000
0000
,
0102
0000
0000
0000
0000
0000
0000
0000
1003
0000
0000
0000
0000
0000
0001
0100
1000
0000
0100
0001
1000
0000
0000
0000
1001
0000
0000
0000
0000
0000
0000
0000
,
1010
0000
1000
0100
0010
0100
1000
0100
,
0001
0100
0010
0001
0010
1000
0010
0100
,
1000
0010
0100
0010
0001
0010
0100
0010
,
1000
0000
0100
0000
0010
0000
0001
0000
1000
0100
1000
0100
0010
0001
0010
0001
,
1000
0000
0001
0010
0100
0010
0001
0010
,
1000
0010
0100
1000
0100
0001
0100
0010
,
0001
0100
0010
0100
1000
0100
0010
0100
,
0001
0010
0100
1000
0001
0000
1000
0000
,
0001
0010
0100
0020
0000
0031
0100
0001
,
1000
0100
0010
0200
0000
1300
0010
0100
,
0010
1000
0010
0002
0000
0013
0100
0010
,
1000
0100
0001
0200
0000
1300
0001
0100
,
0001
0010
0000
0001
0100
0000
0001
0010
0100
1000
0000
0100
1000
0000
0010
1000
,
0001
0100
0000
0010
0100
0000
0001
0100
0010
1000
0000
0001
1000
0000
0001
0010
,
0001
0001
0001
0001
1000
1000
1000
1000
,
0001
0010
0001
0010
0001
0010
0001
0010
0100
1000
0100
1000
0100
1000
0100
1000
,
0010
0100
0001
0200
0000
0000
0000
0000
0000
0302
0000
2003
0000
0000
3200
0000
,
1300
0000
0010
0000
0100
0000
0001
0000
0010
0001
0010
0000
0001
1000
0001
0000
0100
0001
0100
0001
1000
0010
1000
0010
1000
0100
0010
0100
1000
0100
0010
0001
,
1000
0000
0000
0001
0000
0000
0100
0000
0000
1000
0000
0000
0200
0000
0000
0000
0000
0000
0000
0000
0000
0000
0000
0000
0000
0000
0000
0000
0000
0000
0310
0000
1000
0000
0010
0000
0100
0000
0001
0000
0100
0000
0001
0000
0010
0000
0100
0000
,
1000
0000
0100
0000
0001
0000
0100
0000
1000
0000
0010
0000
0001
0000
0010
0000
0100
0010
0100
0010
1000
0001
1000
0001
2000
0000
0000
0000
0000
0000
0000
0000
,
3001
0010
0001
0010
0100
0000
1000
0010
,
0100
0000
0010
1000
0001
1000
0001
1000
,
0010
0000
0100
0000
0001
0000
0200
0000
0000
0000
0000
0000
,
0301
0010
1000
0010
,
0100
1000
0001
0010
0100
1000
0001
1000
,
0020
0000
0000
0000
,
0000
0000
0000
0000
0130
0000
0001
1000
,
0100
0000
1000
0100
0010
0001
1000
0000
,
0001
0010
1000
0010
0001
0000
1000
0001
,
0100
0000
0001
0000
1000
0010
0100
0001
,
1000
0100
0001
0100
1000
0000
0001
1000
,
0010
0000
1000
0000
0001
0010
0100
1000
,
0001
0100
1000
0100
0010
0000
1000
0100
,
0001
0000
0100
0000
1000
0010
0100
0001
,
0020
0000
0031
0000
,
0100
0010
1010
0000
,
0220
0000
0000
0000
,
0330
0000
0000
0000
;

//---------------dance-single - ----------------
#NOTES:
     dance-single:
     :
     Challenge:
     19:
     0.969330,1.163933,0.524355,0.172176,0.817837,867.000000,800.000000,67.000000,22.000000,0.000000,0.000000,0.969330,1.163933,0.524355,0.172176,0.817837,867.000000,800.000000,67.000000,22.000000,0.000000,0.000000:
0000
0000
0000
0000
,
0000
0000
0000
0000
,
0000
0000
0000
0000
,
0000
0000
0000
0000
,
0000
0000
0000
0000
0000
0000
0000
0000
1002
0000
1003
1100
0000
0010
0100
0101
,
0000
1000
0001
0011
0000
1100
1001
0000
0001
0001
0001
1000
0010
0100
0001
0000
,
1000
1000
1000
0010
0100
0001
1000
0000
0210
0000
0310
1010
0000
1000
0001
0101
,
0000
0100
0001
0011
0000
0110
1100
0000
0010
0010
0010
1000
0001
0100
0010
0000
,
0100
0100
0100
0001
0010
0000
0100
0000
1000
0010
0100
0001
0010
0000
0001
0100
,
0001
0000
1000
0000
0010
1000
0100
1000
0100
0010
0001
0100
0001
0100
0010
0100
,
0001
0000
1000
0000
0010
1000
0100
0010
0001
1000
0001
0000
0010
0000
1000
0001
,
0100
0000
0001
1000
0100
0000
0010
0001
0100
0000
0010
1000
0001
0000
1000
0000
,
0010
0000
0100
0000
0001
1000
0100
0010
0100
0010
0100
1000
0001
0000
0100
0010
,
0100
0000
0001
0000
1000
0100
0010
0001
0100
0001
0100
0010
1000
0100
0010
0001
,
0100
0000
0010
0000
1000
0001
1000
0100
1000
0010
0100
0000
0001
0000
1000
0100
,
1000
0000
0001
0100
0001
0000
1000
0010
1000
0000
0001
0010
0001
1000
0010
0100
,
0001
0010
0100
1000
0010
0100
0010
0100
0001
1000
0001
1000
0020
0000
0000
0000
,
1030
0000
0001
0000
0010
0001
0100
0001
0100
0010
1000
0000
0001
1000
0001
1000
,
0001
0100
0110
0010
1010
1000
1002
0000
,
0103
0000
0010
0000
1000
0100
0010
0100
0010
0000
0001
0000
0101
0000
0101
0000
,
0110
0000
1001
0000
0000
0000
0000
0000
0010
1000
0001
0100
0020
0000
0000
0000
,
0130
0000
0010
0000
1000
0001
0010
0001
0010
0100
1000
0000
0001
1000
0100
1000
,
0001
0100
0101
0001
0011
0010
0210
0000
,
1300
0000
0010
0000
1000
0001
0010
0100
1000
0010
1000
0000
0011
0000
0011
0000
,
0110
0000
0110
0000
1000
0100
1000
0100
0010
0001
0100
0000
0102
0000
0013
0001
,
0100
0010
1000
0000
1020
0000
0130
0010
1000
0001
0100
0000
2001
0000
3100
1000
,
0100
0010
0001
0000
0012
0000
1003
0001
1000
0010
0100
0000
0110
0000
0110
0000
,
0101
0101
0011
0011
0110
0110
1100
1100
,
1001
1001
1010
1010
0101
0101
1001
0010
,
0100
1000
0010
0001
0010
1000
0100
0001
,
0100
0010
0100
1000
0100
0010
0001
1000
,
0001
0010
1000
0010
0001
0100
0010
0010
,
0110
0000
0101
0000
0000
0000
0000
0000
1000
0001
1000
0001
1000
0000
0010
0000
,
0100
0010
0001
0010
1000
0001
0010
1000
,
0010
0001
0010
0100
0010
0001
0100
0001
,
0100
0010
0100
1000
0100
0010
0100
0001
,
1000
0001
0100
0000
0000
0010
1010
1000
,
1100
1000
1001
1000
1010
0010
0110
0100
,
0101
0000
0001
0000
1001
0000
0001
0000
0011
0000
0001
0000
0010
0001
0100
0001
,
1000
0100
1000
0010
1000
0001
0010
0100
1000
0100
0010
0001
0100
0000
0100
0000
,
0100
0000
0100
0000
2002
0000
3000
0000
1003
0001
1000
0001
0010
0100
0010
0100
,
1000
0000
1000
0000
0001
0000
0001
0000
1000
0010
0100
0010
1000
0010
0100
0000
,
0001
0001
0010
0010
0100
0100
1000
1000
,
0010
1000
0010
1000
0010
0100
0010
0100
0001
1000
0001
1000
0001
0100
0001
0100
,
0010
0100
0010
1000
0100
0010
0001
0000
1000
0001
0010
0100
1000
0010
1000
0000
,
0100
0010
0001
0010
0100
1000
0010
0000
1000
0001
0010
0001
1000
0100
0001
0000
,
0010
0100
1000
0100
0010
0001
1000
0000
0100
1000
0001
1000
0100
0010
0001
0000
,
1000
0000
0001
0000
1000
0000
0100
0000
1000
0000
0010
0000
0100
0000
0000
0000
0010
0000
1000
0000
0100
0000
0010
0000
0001
1000
0001
0100
0010
1000
0100
0010
,
0001
0100
0010
1000
0100
0010
0001
1000
,
0010
1000
0100
0010
0001
0100
0010
1000
,
0001
1000
0100
0010
0001
0100
1000
0001
,
1000
0001
0100
0001
1000
0010
0100
0001
,
0100
0010
0100
0001
1000
0100
0001
0100
,
1000
0010
0100
0010
1000
0001
0010
0100
,
1000
0100
0010
0100
0010
0001
1000
0001
,
0010
0100
1000
0002
0000
0000
0003
0000
,
1001
0100
0010
1000
0001
1000
0100
0000
,
0011
0001
0100
0010
0100
0001
1000
0000
,
1100
0100
0010
0001
0100
0001
1000
0000
,
0110
0100
0001
0010
0001
1000
0100
0000
,
1000
0100
1000
0100
1000
0100
1000
0100
1000
0100
1000
0100
1000
0100
1000
0100
,
0010
0001
0010
0001
0010
0001
0010
0001
0010
0001
0010
0001
0010
0001
0010
0001
,
0100
0010
0100
0010
0100
0010
0100
0010
1000
0001
1000
0001
1000
0001
1000
0001
,
0100
0001
0100
0001
1000
0010
1000
0010
1000
0100
0010
0001
0100
0010
1000
0001
,
0200
0001
1000
0001
1000
0010
0001
0010
,
0001
0000
0000
0000
0010
0000
0000
0000
1000
0000
0000
0000
0010
0000
0000
0000
0301
0100
0010
1000
0001
0010
0100
1000
0010
0100
0010
0100
0001
1000
0001
1000
,
0010
0000
0101
0000
0001
0100
1000
0000
0010
0000
1010
0000
1000
0100
0001
0000
,
0100
0000
1001
0000
0010
1000
0001
0000
0100
0000
0011
0000
0001
1000
0010
0000
,
1000
0100
1000
0100
0001
0100
0001
0100
,
1000
0010
1000
0010
0001
0010
0001
0010
,
1000
0100
0001
0100
1000
0010
0001
0010
,
1000
0001
0100
0010
0100
0001
1000
0010
,
1000
0001
1000
0001
0100
0010
0100
0010
,
2000
0100
0100
0000
,
3001
0000
0000
0000
1000
0010
1000
0100
,
1000
0001
0010
0100
1000
0010
0100
0001
,
0010
0001
0010
1000
0010
0001
0100
0001
,
1000
0010
0001
0010
1000
0100
0001
0100
,
2000
0000
3002
0000
0103
0001
0010
0001
,
0100
0010
1000
0010
0100
0001
1000
0001
,
0010
0100
1000
0100
0020
0000
0001
0000
,
0031
0000
0100
0000
0001
1000
0010
0100
,
0002
1000
1000
0103
,
0020
0100
0130
0000
,
2002
0000
0000
0000
0000
0000
0000
0000
0000
0000
0000
0000
0000
0000
0000
0000
0000
0000
0000
0000
0000
0000
0000
0000
0000
0000
0000
0000
0000
0000
0000
0000
0000
0000
0000
0000
0000
0000
0000
0000
0000
0000
0000
0000
3003
0000
0000
0000
0001
0100
0001
0100
0010
1000
0010
1000
0010
0100
0010
0100
0001
1000
0001
1000
;

//---------------dance-double - ----------------
#NOTES:
     dance-double:
     :
     Easy:
     7:
     0.297395,0.399136,0.062610,0.164350,0.000000,266.000000,258.000000,8.000000,21.000000,0.000000,0.000000,0.297395,0.399136,0.062610,0.164350,0.000000,266.000000,258.000000,8.000000,21.000000,0.000000,0.000000:
00000000
00000000
00000000
00000000
,
00000000
00000000
00000000
00000000
,
00000000
00000000
00000000
00000000
,
00000000
00000000
00000000
00000000
,
00000000
00000000
01000000
01000000
,
00001000
00010000
00000010
00000000
00000100
00000100
00000000
00000000
,
00000001
00000001
00000000
00000000
00000010
00000000
00000100
00000000
,
00010000
00001000
01000000
00000000
00100000
00100000
00000000
00000000
,
01000000
01000000
00000000
00010000
00000000
00000000
10000000
00000000
,
01000000
00100000
00001000
00010000
,
00001000
00010000
00000010
00000100
,
00000100
00000010
00001000
00000100
,
00000010
00000001
00000000
00001000
,
00000100
00000010
00000001
00000100
,
00000100
00000010
00000010
00010000
,
00010000
00001000
00001000
01000000
,
00010000
10000000
01000000
10000000
,
00100000
01100000
00000000
10000000
,
01000000
00100000
00001000
00010000
,
00000010
00000110
00000000
00000001
,
00000001
00001000
00000100
00001000
,
00000001
00000011
00000000
00000001
,
00000100
00000010
00010000
00001000
,
00100000
00110000
00000000
00010000
,
01000000
00100000
10000000
02000000
,
00000000
03100000
00000000
00002000
,
00000000
00013000
00000000
00000010
,
00000010
00000000
00000010
00000010
00000010
00000000
00010000
00000000
,
00010000
00000000
00010000
00010000
00010000
00000000
00001000
00000000
,
00001000
00001000
00000000
01000000
,
01000000
00100000
10000000
01000000
,
01000000
01000000
00000000
00100000
,
00001000
00010000
00000000
00000010
,
00000010
00001000
00000001
00000010
,
00000010
00000001
00001000
00000001
,
00000100
00000010
00001000
00010000
,
01000000
00100000
10000000
02000000
,
00000000
00100000
03100000
00002000
,
00000000
00010000
00013000
00000020
,
00000000
00000100
00000130
00000001
,
00000010
00000100
00021000
00000000
00031000
00000000
00000000
00000000
,
01000000
00100000
01000000
00000000
,
00012000
00000000
00013000
00000000
,
00000010
00000100
00000010
00000000
,
00002001
00000000
00003010
00000000
00000100
00000001
00001000
00000000
,
00000200
00000000
00010300
00000000
00001000
01000000
00010000
00000000
,
20000000
00000000
31000000
00000000
00100000
00010000
00001000
00000000
,
00000020
00000000
00000130
00000000
00000010
00001000
00010000
00000000
,
10000000
01000000
00010000
01000000
,
00010000
00010000
00001000
00001000
,
00000100
00000001
00001000
00000000
,
00000001
00000010
00000100
00000000
,
00000001
00000100
00001000
00000100
,
00001000
00001000
00010000
00010000
,
01000000
10000000
00010000
00000000
,
10000000
00100000
01000000
00000000
,
00200000
00000000
10000000
00000000
,
10000000
00000000
10300000
00000000
,
20000000
00000000
01000000
00000000
,
01000000
00000000
31000000
00000000
,
01000000
00010000
00001000
00000000
,
00000100
00001000
00010000
00000000
,
00100000
00010000
00001000
00000000
,
00000010
00001000
00010000
00000000
,
00200000
00010000
01000000
10300000
,
02000000
00001000
00100000
03010000
,
00200000
00301000
00010000
00000010
,
00000200
00000000
00000301
00000000
00000010
00000100
00010000
00000000
,
00001000
00000000
00010000
00000000
,
00001000
00000000
01000000
00000000
,
00100000
00000000
00200000
00000000
,
10000000
00000000
01300000
00000000
,
10000000
00000000
01000000
00000000
,
00200000
00000000
00000000
00000000
,
00001000
00000000
00000000
00000000
,
00310000
00000000
00000000
00000000
,
00001000
00000000
00001000
00000000
,
00010000
00001000
00000000
00000000
,
00010000
00000000
00010000
00000000
,
00001000
00010000
00000000
00000000
,
00000010
00000000
00000010
00000000
,
00000100
00000010
00000000
00000000
,
00010000
00000000
00000100
00000000
,
00010000
00001000
00000000
00000000
,
00022000
00000000
00000000
00000000
,
00033000
00000000
00000000
00000000
;

//---------------dance-double - ----------------
#NOTES:
     dance-double:
     :
     Medium:
     12:
     0.479634,0.698488,0.101741,0.250438,0.113480,429.000000,416.000000,13.000000,32.000000,0.000000,0.000000,0.479634,0.698488,0.101741,0.250438,0.113480,429.000000,416.000000,13.000000,32.000000,0.000000,0.000000:
00000000
00000000
00000000
00000000
,
00000000
00000000
00000000
00000000
,
00000000
00000000
00000000
00000000
,
00000000
00000000
00000000
00000000
,
00000000
00000000
00000000
00000000
00000000
00000000
00000000
00000000
00100000
00000000
01000000
00010000
00000000
00100000
00000000
00001000
,
00000000
00010000
00000000
00000010
00000000
00000100
00000001
00000000
00000020
00000000
00000230
00000000
00010300
00000000
00000000
00000000
,
00002000
00000000
02003000
00000000
03100000
00000000
00000000
00000000
10000000
00000000
01000000
00100000
00000000
00001000
00000000
00010000
,
00000000
00000010
00000000
00000100
00000000
00000001
00000010
00000000
00000200
00000000
00000320
00000000
00000031
00000000
00000000
00000000
,
00000200
00002300
00013000
00000000
00000000
00000000
10010000
00000000
,
10000000
01000000
00000000
00100000
01000000
00000000
00100000
00000000
,
00001000
00100000
00000000
00001000
00010000
00000000
00000010
00001000
,
00000010
00000000
00000100
00000001
00000100
00000000
00000001
00000000
,
00000010
00000200
00000000
00000000
00010300
00000000
00001000
00000000
,
01000000
00010000
00000000
10000000
01000000
00000000
00100000
00000000
,
01000000
10000000
00000000
00010000
01000000
00000000
00001000
00100000
,
00001000
00000000
00010000
00001000
00010000
00000000
00000010
00000000
,
00000100
00000001
00000000
00001000
00000100
00000000
00010000
00001000
,
01000000
00000000
01100000
00000000
10010000
00000000
10000000
01000000
,
00100000
00010000
00001000
00000000
00000010
00000000
00001000
00000100
,
00000010
00000000
00000001
00001000
00000001
00001000
00000001
00000100
,
00000010
00020000
00000000
00000000
00031000
00000000
01000000
00100000
,
10000000
00000000
01100000
00000000
01010000
00000000
01000000
00010000
,
00001000
00000000
00000010
00000100
00000001
00000000
00000100
00000010
,
00001000
00000000
00000010
00000010
00000010
00000000
00001000
00010000
,
00100000
00000000
00010000
10000000
01000000
10000000
00100000
01000000
,
00020000
00000000
10030000
01000000
00100000
00010000
00000100
00000010
,
00002000
00000000
00003001
00000010
00000100
00000000
00000010
00000010
,
00000001
00000001
00000100
00000100
00001000
00001000
00100000
00100000
,
00010000
00010000
02000000
00000000
03100000
00000000
20000000
00000000
,
00000000
32000000
00000000
03200000
,
00000000
00320000
00000000
00032000
,
00000000
00000000
00003020
00000000
00000000
00000000
00000130
00000001
,
00000000
00001000
00000000
00000000
00000000
00000000
00000001
00000010
,
00000100
00000000
00000010
00000000
00000010
00000000
00000001
00000100
,
00000010
00000000
00010000
00000000
00001000
00000000
01000000
00010000
,
10000000
00000000
01000000
00000000
01000000
00000000
00100000
01000000
,
10000000
00000000
01000000
00000000
00100000
00000000
00001000
00010000
,
00001000
00010000
00001000
00010000
00001000
00010000
00000010
00000100
,
00000010
00000100
00000010
00000100
00000010
00000100
00000001
00001000
,
00000001
00001000
00000001
00001000
00000001
00001000
00000100
00010000
,
00001000
00010000
01100000
00000000
00100000
00100000
00100000
00100000
,
10000000
01000000
00010000
00001000
,
00000110
00000000
00000000
00000000
00000001
00000001
00000001
00000001
,
00000100
00001000
00010000
01000000
,
00200000
00000000
00000000
00000000
00310000
00000000
00000000
00000000
00001000
00000100
00000001
00000000
00000110
00000000
00000000
00000000
,
00000200
00000000
00000000
00000000
00001300
00000000
00000000
00000000
00010000
01000000
10000000
00000000
01000000
00000000
00100000
00000000
,
20000000
00000000
00000000
00000000
30100000
00000000
00000000
00000000
00010000
00001000
00000010
00000000
00000110
00000000
00000000
00000000
,
00000002
00000000
00000000
00000000
00000013
00000000
00000000
00000000
00001000
00010000
01000000
00000000
10010000
00000000
00000000
00000000
,
11000000
00000000
01000000
10000000
00000000
00010000
01000000
00100000
,
00000000
01000000
00010000
00001000
00000000
00000100
00000010
00000000
,
00000001
00000100
00001000
00010000
,
10000000
00000000
01000000
00000000
00100000
10000000
00010000
10000000
,
00100000
00000000
10000000
01000000
00000000
00100000
00010000
10000000
,
00000000
01000000
00010000
00001000
00000000
00000100
00000001
00000000
,
00001000
00000010
00000001
00000100
,
00020000
00000000
00000000
00002000
00000000
00000000
00033000
00000000
,
00011000
00000000
01000000
00010000
00000000
00010000
10000000
00000000
,
01000000
00000000
00100000
00001000
00000000
00001000
00010000
00000000
,
00000010
00000000
00000100
00000001
00000000
00000001
00001000
00000000
,
00000001
00000000
00000010
00000100
00000000
00000100
00010000
00000000
,
00001000
01000000
00000000
00100000
10000000
00010000
00000000
01000000
,
00001000
00010000
00000000
00000100
00010000
00001000
00000000
01000000
,
00001000
00010000
00001000
00010000
00001000
00010000
00001000
00010000
,
00000010
00000100
00000010
00000100
00000001
00001000
00000100
00000000
,
00010000
00000000
00000100
00020000
00000000
00000000
00000000
00000000
00000000
00031000
00000000
02000000
00000000
00000000
03100000
00000000
,
10000000
01000000
00010000
00000000
00001000
00010000
00001000
00000000
00010000
00000100
00001000
00000000
00000001
00000010
00001000
00000000
,
00000010
00000100
00010000
00001000
00020000
00000000
00000000
00000000
00000000
00000000
00031000
00000000
01000000
00000000
00100000
00000000
,
10000000
01000000
00100000
00000000
00001000
00010000
00000010
00000000
00000100
00000001
00001000
00000002
00000000
00000000
00000003
00000000
,
00000001
00000010
00000100
00000000
,
00010000
00001000
01000000
00010000
,
10000000
01000000
00100000
00000000
,
01000000
10000000
00010000
01000000
,
00001000
00010000
00000010
00001000
,
00000020
00000000
00001000
00000000
,
00000100
00000000
00000031
00000000
,
00000100
00000010
00001000
00000000
,
00000001
00000010
00001000
00010000
,
01000000
00100000
00000000
00010000
,
10000000
01000000
00010000
00001000
,
00000010
00000100
00000000
00001000
,
00000010
00000000
00000100
00000000
,
00000001
00000100
00000000
00001000
,
00010000
00000000
01000000
00000000
,
00100000
00010000
10000000
00000000
,
20020000
00000000
00000000
00000000
,
30030000
00000000
00000000
00000000
;

//---------------dance-double - ----------------
#NOTES:
     dance-double:
     :
     Hard:
     16:
     0.730072,1.164147,0.093914,0.234786,0.528268,653.000000,641.000000,12.000000,30.000000,0.000000,0.000000,0.730072,1.164147,0.093914,0.234786,0.528268,653.000000,641.000000,12.000000,30.000000,0.000000,0.000000:
// measure 0
00000000
00000000
00000000
00000000
,  // measure 1
00000000
00000000
00000000
00000000
,  // measure 2
00000000
00000000
00000000
00000000
,  // measure 3
00000000
00000000
00000000
00000000
,  // measure 4
00000000
00000000
00000000
00000000
00000000
00000000
00000000
00000000
10000000
00000000
01000000
00100000
00000000
00010000
00100000
00001000
,  // measure 5
00000000
00010000
00000010
00000100
00000000
00000010
00001000
00000001
00000020
00000000
00000230
00000000
00010300
00000000
00000000
00000000
,  // measure 6
00002000
00000000
02003000
00000000
03100000
00000000
00000000
00000000
10000000
00000000
00100000
01000000
00000000
00010000
01000000
00001000
,  // measure 7
00000000
00010000
00000100
00000010
00000000
00000100
00001000
00000001
00000200
00000000
00000320
00000000
00010030
00000000
00000000
00000000
,  // measure 8
00002000
00203000
01300000
00000000
00000000
00000000
10000000
00000000
,  // measure 9
01000000
00000000
10000000
00000000
00100000
01000000
00000000
00100000
10000000
00000000
00010000
00000000
01000000
00000000
00010000
00000000
,  // measure 10
00001000
00000000
00000100
00000000
00000001
00000000
00000100
00000000
00000010
00000000
00000000
00000000
00000001
00000010
00000001
00000010
,  // measure 11
00000001
00000000
00001000
00000000
00000100
00010000
00000000
00001000
00000000
00001000
00010000
00000000
00001000
00100000
00001000
00000000
,  // measure 12
00100000
00000000
01000000
00000000
10000000
00000000
01000000
00100000
00001000
00010000
00000100
00001000
00000001
00000000
00000000
00000000
,  // measure 13
00000100
00000000
00000001
00000000
00000010
00000100
00000000
00000010
00000001
00000000
00001000
00000000
00000100
00000000
00001000
00000000
,  // measure 14
00010000
00000000
01000000
00000000
10000000
00000000
01000000
00000000
00100000
00000000
00000000
00000000
10000000
00100000
10000000
00100000
,  // measure 15
10000000
00000000
00010000
00000000
01000000
00001000
00000000
00010000
00000000
00010000
00001000
00000000
00010000
00000010
00010000
00000000
,  // measure 16
00000010
00000000
00000100
00000000
00000001
00000000
00000100
00000010
00010000
00001000
01000000
00010000
10000000
00000000
01000000
00000000
,  // measure 17
00010000
00000000
00001000
00000000
00000100
00000001
00001000
00000000
00000001
00001000
00000100
00000000
00001000
00000000
00000100
00000000
,  // measure 18
00000010
00000001
00000100
00001000
00010000
10000000
01000000
00010000
,  // measure 19
00001000
00000010
00000100
00000010
00000010
00000010
00001000
00000001
,  // measure 20
00000100
00000000
00001000
00000000
00000000
00000000
00000000
00000000
10000000
01000000
00100000
00010000
10000000
00000000
00100000
00000000
,  // measure 21
00010000
00000000
00001000
00000000
00000010
00000001
00001000
00000000
00000001
00001000
00000010
00000000
00001000
00000000
00000010
00000000
,  // measure 22
00000100
00000001
00000010
00001000
00010000
10000000
00100000
00010000
,  // measure 23
00001000
00000000
00000100
00000000
00000010
00000000
00000100
00000010
00000000
00000010
00000100
00000000
00001000
00000000
00000001
00000000
,  // measure 24
00000010
00000000
00001000
00000000
00010000
00000000
00001000
00000000
01000000
00000000
00100000
00000000
10000000
00000000
01000000
00200000
,  // measure 25
00000000
00000000
00010000
00000000
01300000
00000000
00001000
00010000
,  // measure 26
00000010
00000100
00000000
00000100
00000001
00002000
00000000
00003001
00000000
00000000
00000000
00000000
00000010
00000000
00000010
00000000
,  // measure 27
00000001
00000001
00000100
00000100
00001000
00001000
00100000
00100000
,  // measure 28
00010000
00000000
00010000
00000000
01000000
00020000
00000000
00130000
00000000
00000000
00000000
00000000
10000000
00000000
01000000
00000000
,  // measure 29
00100000
00010000
10000000
01000000
00010000
00001000
00000001
00000100
,  // measure 30
00000010
00000001
00001000
00000100
00000010
00000001
00000100
00001000
,  // measure 31
00010000
00001000
01000000
00010000
10000000
01000000
00100000
00020000
,  // measure 32
00000000
01030000
00000000
00000000
00000000
00000000
00100000
10000000
,  // measure 33
01000000
00000000
10000000
00000000
00100000
10000000
00100000
00000000
01000000
00010000
01000000
00000000
00001000
00000000
00100000
00000000
,  // measure 34
01000000
00000000
00100000
00000000
00001000
00010000
00001000
00000000
00010000
00000010
00010000
00000000
00000010
00000000
00000100
00000000
,  // measure 35
00000001
00000000
00001000
00000000
00000100
00001000
00000100
00000000
00010000
00001000
00010000
00000000
00001000
00000000
01000000
00000000
,  // measure 36
00100000
00000000
10000000
00000000
00010000
00100000
00010000
00000000
10000000
01000000
10000000
00000000
01000000
00000000
10000000
00000000
,  // measure 37
01000000
00010000
00001000
00000001
00000100
00001000
00010000
10000000
,  // measure 38
00100000
00010000
00001000
00000001
00000010
00001000
00010000
10000000
,  // measure 39
01000000
00010000
00001000
00000001
00000100
00001000
00010000
01000000
,  // measure 40
00100000
00000000
10000000
00000000
10010000
00000000
00000000
00000000
00100000
00000000
00100000
00000000
10000000
00010000
10000000
00010000
,  // measure 41
10000000
01000000
00010000
00000000
00002000
00000000
00003100
00000000
,  // measure 42
00000001
00000000
00000000
00000000
00000010
00000000
00000000
00000000
00000001
00000000
00001000
00000100
00000000
00000100
00010000
00000000
,  // measure 43
00001000
00000000
00010000
00000000
01000000
00100000
01000000
00100000
00010000
00000000
00001000
00000000
00000100
00000000
00000000
00000000
,  // measure 44
00000120
00000000
00000000
00000000
00000000
00000000
00000000
00000000
00001030
00000000
00000000
00000000
00000000
00000000
00000100
00010000
00000100
00000000
00010000
00000000
00010000
00000000
00000000
00000000
00011000
00000000
00000000
00000000
00000000
00000000
00000000
00000000
,  // measure 45
02010000
00000000
00000000
00000000
00000000
00000000
00000000
00000000
03100000
00000000
00000000
00000000
00000000
00000000
10000000
01000000
10000000
00000000
01000000
00000000
01000000
00000000
00000000
00000000
11000000
00000000
00000000
00000000
00100000
00000000
00000000
00000000
,  // measure 46
20010000
00000000
00000000
00000000
00000000
00000000
00000000
00000000
30100000
00000000
00000000
00000000
00000000
00000000
01000000
00001000
01000000
00000000
00001000
00000000
00001000
00000000
00000000
00000000
00011000
00000000
00000000
00000000
00000000
00000000
00000000
00000000
,  // measure 47
00000120
00000001
00001030
00000000
00012000
01000000
00103000
00000000
,  // measure 48
10010000
00000000
10000000
01000000
00100000
01000000
10000000
01000000
,  // measure 49
00010000
00001000
00000100
00000001
00000100
00000010
00001000
00000010
,  // measure 50
00000100
00000001
00000010
00001000
00020000
00000000
00130000
00000000
,  // measure 51
10000000
00000000
01000000
00000000
00100000
00000000
00010000
00000000
00001000
00000010
00001000
00000010
00000100
00000001
00000100
00000001
,  // measure 52
00001000
00000000
00000001
00000010
00000100
00000010
00000001
00000010
,  // measure 53
00001000
00010000
00100000
10000000
00100000
01000000
00010000
01000000
,  // measure 54
00100000
10000000
01000000
00010000
00002000
00000000
00003100
00000000
,  // measure 55
00000001
00000010
00000100
00002000
00000000
00000000
00003000
00000000
,  // measure 56
01100000
00000000
00100000
10000000
00000000
01000000
10000000
00000000
,  // measure 57
01000000
00000000
00100000
00001000
00000000
00010000
00001000
00000000
,  // measure 58
00010000
00000000
00000010
00001000
00000000
00000010
00000100
00000000
,  // measure 59
00000001
00000000
00000010
00000100
00001000
00010000
00100000
00000000
,  // measure 60
00010000
01000000
00000000
00010000
01000000
00000000
00010000
00100000
01000000
10000000
00000000
01000000
10000000
00000000
01000000
00100000
,  // measure 61
00001000
00010000
00000000
00001000
00010000
00000000
00000010
00000100
00000001
00001000
00000000
00000001
00001000
00000000
00000001
00000010
,  // measure 62
00000001
00000001
00000100
00000100
00001000
00001000
00010000
00010000
,  // measure 63
00001000
00100000
00001000
00100000
00001000
00100000
00001000
00100000
01000000
10000000
01000000
10000000
01000000
10000000
01000000
10000000
,  // measure 64
00010000
01000000
00100000
02000000
00000000
00000000
00000000
00000000
00000000
03020000
00000000
00230000
00000000
00000000
00301000
00000000
,  // measure 65
00010000
00000000
00000010
00000000
00000100
00000000
00000001
00001000
00000001
00000000
00001000
00000100
00001000
00000000
00000001
00000000
00001000
00000000
00000100
00010000
00001000
00000000
01000000
00010000
10000000
00000000
00100000
10000000
00010000
00000000
10000000
01000000
,  // measure 66
00100000
00000000
00000000
00010000
00000000
00000000
00001000
00000000
00000000
00000010
00000000
00000000
00000200
00000000
00000000
00000000
00000000
00000000
00000000
00000000
00000000
00000000
00000000
00000000
00000000
00000000
00000000
00000000
00000000
00000000
00000301
00000000
00000010
00000000
00000100
00000000
00001000
00000000
00000000
00000000
00001000
00000000
00010000
00000000
00000000
00000000
00010000
00000000
,  // measure 67
00100000
00000000
00010000
00000000
01000000
00000000
00000000
00000000
10000000
00000000
01000000
00000000
00010000
00000000
00001000
00000000
00000100
00000010
00000100
00000010
00000001
00001000
00000001
00001000
00000002
00000000
00000000
00000000
00001003
00000000
00000000
00000000
,  // measure 68
00000001
00000010
00000001
00000000
00000100
00000000
00000010
00010000
,  // measure 69
00001000
00010000
00001000
01000000
,  // measure 70
00010000
00000000
00100000
00010000
00200000
00000000
00000000
00000000
,  // measure 71
00310000
00000000
10000000
01000000
00100000
00000000
00010000
00001000
,  // measure 72
00000100
00000000
00001000
00000001
00000010
00000000
00000001
00001000
,  // measure 73
00000020
00000000
00000000
00000000
,  // measure 74
00000000
00000000
00000000
00000000
00001030
00000100
00000001
00000000
,  // measure 75
00000100
00010000
00001000
00000000
01000000
00010000
10000000
00000000
,  // measure 76
00010000
00100000
00010000
00000000
10000000
00000000
01000000
00010000
,  // measure 77
00001000
00000000
00000100
00000000
00000010
00001000
00000010
00000000
,  // measure 78
00001000
00000010
00001000
00000000
00000001
00000000
00000100
00001000
,  // measure 79
00010000
00000000
01000000
00000000
00100000
00010000
00100000
00000000
,  // measure 80
00010000
01000000
00100000
01000000
00010000
00000000
10000000
01000000
,  // measure 81
00100000
00001000
00010000
00000000
00000010
00001000
00000010
00000000
,  // measure 82
00001000
00000100
00000010
00000100
00001000
00000000
00000001
00000100
,  // measure 83
00000010
00010000
00001000
00000000
00010000
00001000
00010000
00000000
,  // measure 84
00021000
00001000
00001000
00001000
00001000
00001000
00001000
00031000
00200000
00000000
00000000
00000000
00000000
00000000
00000000
00000000
,  // measure 85
00300000
00000000
00000000
00000000
;

//---------------dance-double - ----------------
#NOTES:
     dance-double:
     :
     Challenge:
     18:
     0.958150,1.729589,0.414788,0.242612,0.966535,857.000000,804.000000,53.000000,31.000000,0.000000,0.000000,0.958150,1.729589,0.414788,0.242612,0.966535,857.000000,804.000000,53.000000,31.000000,0.000000,0.000000:
00000000
00000000
00000000
00000000
,
00000000
00000000
00000000
00000000
,
00000000
00000000
00000000
00000000
,
00000000
00000000
00000000
00000000
,
00000000
00000000
00000000
00000000
00000000
00000000
00000000
00000000
00100000
10000000
01000000
00010000
01000000
00100000
00001000
00010000
,
00000010
00001000
00000100
00000001
00000100
00000010
00000001
00001000
00000002
00000000
00000203
00000000
00001300
00000000
00000000
00000000
,
02000000
00000000
03200000
00000000
10300000
00000000
00000000
00000000
01000000
10000000
00100000
00010000
00100000
01000000
00001000
00010000
,
00000100
00001000
00000010
00000001
00000010
00000100
00000001
00001000
00000002
00000000
00000023
00000000
00001030
00000000
00000000
00000000
,
02000000
00000000
03020000
00000000
10030000
00010000
01000000
00010000
10000000
00000000
00000000
00000000
00010000
00000000
01000000
00100000
,
10000000
00000000
01000000
00100000
00001000
00010000
00001000
00010000
00001000
00000000
00010000
00000010
00000100
00000000
00000010
00001000
,
00000100
00000000
00000010
00000000
00000001
00000000
00000100
00000000
00001000
00000000
00010000
00000000
01000000
00100000
01000000
00100000
,
00010000
00000000
10000000
01000000
00010000
00000000
01000000
00100000
00000000
00001000
00100000
00000000
00001000
00010000
00001000
00010000
,
00000010
00000000
00000100
00000000
00000001
00000000
00001000
00000100
00000010
00000001
00001000
00000001
00000100
00000000
00000010
00000100
,
00000001
00000000
00000010
00000100
00010000
00001000
00010000
00001000
00010000
00000000
00001000
01000000
00100000
00000000
01000000
00010000
,
00100000
00000000
01000000
00000000
10000000
00000000
00100000
00000000
00010000
00000000
00001000
00000000
00000010
00000100
00000010
00000100
,
00001000
00000000
00000001
00000010
00001000
00000010
00000100
00000000
00001000
00000100
00010000
00001000
00010000
00000000
00001000
00000000
,
01000000
00010000
01000000
10000000
01000000
00000000
00100000
00000000
10010000
00000000
00000000
00000000
11000000
00000000
01000000
00010000
,
00001000
00000000
00000100
00000000
00000001
00000010
00000100
00001000
00000001
00000010
00000100
00001000
00000100
00000000
00001000
00000000
,
00010000
00000000
01000000
00000000
00010000
00000000
00001000
00000000
00000110
00000000
00000000
00000000
00000101
00000000
00000100
00001000
,
00010000
01000000
00110000
01100000
10100000
01100000
10000000
01000000
,
00010000
00000000
00001000
00000000
00000001
00000000
00000100
00000000
00000001
00000010
00000100
00001000
00000001
00000000
00000010
00001000
,
00000010
00000000
00001000
00000000
01000000
00000000
00100000
00000000
10010000
00000000
00100000
00000000
10000000
00000000
01000000
00010000
,
01000000
00000000
00010000
00000000
00001000
00000000
00000010
00000000
00001001
00000000
00000100
00000000
00000001
00000010
00000001
00000010
,
00000001
00000010
00000001
00000010
00000100
00001000
00000100
00001000
00000100
00001000
00000100
00001000
00010000
00100000
00010000
00100000
,
01000000
10000000
01000000
10000000
00010000
00000000
01000000
00000000
10000000
00000000
01000000
00000000
00010000
00100000
01000000
10000000
,
01000000
00010000
00001000
00000100
00000001
00000010
00000100
00001000
00000010
00001000
00010000
00100000
00010000
01000000
10000000
01000000
,
00010000
00001000
00000001
00001000
00000001
00000010
00000100
00001000
00000000
00000001
00001000
00000010
00001010
00000000
00000110
00000000
,
00000110
00000110
00010010
00011000
00011000
00011000
01001000
01100000
,
01100000
00000000
01100000
00000000
00100000
10000000
01000000
00010000
00000000
01000000
10000000
00010000
10000000
00000000
01000000
00000000
,
00010000
10000000
00100000
00020000
00000000
00031000
00000001
00000010
,
00000100
00001000
00000001
00000010
00000100
00001000
00010000
01000000
,
10000000
00010000
00100000
20000000
00000000
31000000
00010000
00001000
,
00000100
00000000
00000010
00000000
00001000
00000000
00000000
00000000
00000001
00000000
00000000
00000000
00001000
00000000
00000100
00001000
,
00000100
00000000
00010000
00000010
00010000
00001000
00010000
00000000
00001000
01000000
00001000
00000000
01000000
00000000
00100000
10000000
,
00100000
00000000
10000000
01000000
10000000
00100000
10000000
00000000
00010000
01000000
00010000
00000000
00100000
00000000
00001000
00010000
,
00001000
00000000
00010000
00000010
00000100
00000010
00000100
00000000
00000010
00001000
00000010
00000000
00001000
00000000
00000100
00000010
,
00000001
00000000
00000010
00000100
00010000
00001000
00010000
00000000
00001000
01000000
00100000
10000000
00010000
00000000
01010000
00000000
,
00010000
10010000
00110000
00101000
00011000
00000000
00010000
00010100
,
00010000
00011000
00010010
00000110
00001010
00000000
00000100
00000101
,
00000001
00000011
00001001
00001100
00010100
00000000
00001000
01001000
,
01000000
00000000
01100000
00000000
10010000
00000000
00100000
10000000
01000000
00000000
01000000
00000000
00010000
00001000
00000010
00001000
,
00010000
00000010
00010000
00000010
00000200
00000000
00000000
00000000
00000301
00000000
00000000
00000000
00000110
00000000
00000000
00000000
,
00001001
00000000
00000000
00000000
00000010
00000000
00001000
00000000
00010000
00000000
01000000
00010000
00000000
01000000
10000000
00000000
,
02000000
00000000
00000000
00000000
03001000
00010000
01000000
00010000
00001000
00000000
00000100
00000000
00001001
00000000
00000000
00000000
,
00000200
00000000
00000310
00000000
00001001
00000000
00000000
00000000
02000000
00100000
03100000
00000000
01100000
00000000
00000000
00000000
,
00200000
00000000
00000000
00000000
01300000
00000000
00000000
00000000
10010000
00000000
00000000
00000000
00000000
00000000
00000100
00000010
00000002
00000000
00000100
00000000
00000103
00000000
00000000
00000000
00000110
00000000
00000000
00000000
00000101
00000000
00000000
00000000
,
00002010
00000000
00000000
00000000
00003100
00000000
00000000
00000000
00001000
00000100
00000010
00000001
00001000
00000100
00010000
00001000
02000000
00000000
00100000
00000000
03100000
00000000
00000000
00000000
10000000
00100000
01000000
00010000
00100000
00001000
00010000
00000010
,
00000200
00000000
00000000
00000000
00000310
00000000
00000000
00000000
00001000
00000010
00000100
00000001
00001000
00000100
00010000
00001000
02000000
00000000
00010000
00000000
03010000
00000000
00000000
00000000
10000000
01000000
00100000
00001000
00010000
00000100
00001000
00000001
,
00001000
00000100
00000010
00000100
00000001
00000100
00001000
00010000
,
01000000
10000000
01000000
00010000
01000000
00100000
01000000
00010000
,
10000000
00000000
01000000
00100000
00010000
00000000
00001000
00000000
00000100
00000000
00000001
00000000
00000100
00000000
00000010
00000000
,
00000001
00000000
00001000
00000100
00000001
00000000
00000100
00010000
00001000
01000000
00010000
01000000
00100000
10000000
00010000
10000000
,
00010000
00100000
01000000
00100000
10000000
00100000
00010000
00001000
,
00000010
00000001
00000010
00001000
00000010
00000100
00000010
00001000
,
00000001
00000000
00000010
00000100
00001000
00000000
00010000
00000000
00100000
00000000
10000000
00000000
00100000
00000000
01000000
00000000
,
10000000
00000000
00010000
00100000
10000000
00000000
00100000
00001000
00020000
00000000
00000000
00000000
00031000
00000000
00000000
00000000
,
00021000
00000000
00000000
00001000
00001000
00000000
00000000
00001000
,
00001000
00000000
00000000
00001000
00031000
00000000
00000000
00000000
,
00012000
00000000
00000000
00010000
00010000
00000000
00000000
00010000
,
00010000
00000000
00000000
00010000
00013000
00000000
00000000
00000000
,
00001000
00010000
00000000
01000000
00010000
00000000
01000000
00100000
01000000
10000000
00000000
01000000
00100000
00000000
00010000
00001000
,
00000010
00000100
00000000
00000001
00000010
00000000
00001000
00000010
00000100
00000010
00000000
00000001
00000100
00000000
00000001
00001000
,
00000001
00000010
00000001
00000010
00000001
00000010
00000001
00000010
00000100
00001000
00000100
00001000
00000100
00001000
00000100
00001000
,
00010000
00100000
00010000
00100000
01000000
10000000
01000000
10000000
01000000
00010000
00001000
00000100
00001000
00010000
01000000
00100000
,
00010000
01000000
10000000
02000000
00000000
03010000
00100000
00000000
00001000
00020000
00000000
00030020
00000000
00000130
00000001
00000000
,
00001000
00000100
00001000
00000100
00000010
00000001
00000010
00000001
00001000
00000100
00010000
00001000
01000000
00010000
10000000
00010000
10000000
00100000
10000000
00100000
01000000
00010000
01000000
00010000
00001000
00000010
00001000
00000010
00000100
00000001
00000100
00000001
,
00001000
00000000
00000100
00000000
00000001
00000000
00000100
00000000
00000020
00000000
00000000
00000000
00000001
00000000
00000000
00000000
00000130
00000000
00000000
00000000
00000001
00000100
00000010
00001000
00000100
00010000
00001000
01000000
00010000
00100000
01000000
10000000
,
00010000
00000000
01000000
00000000
10000000
00000000
01000000
00000000
00100000
00000000
00010000
00000000
00001000
00000000
00000010
00000000
00000100
00010000
00001000
01000000
00010000
00000000
01000000
00000000
00200000
00000000
00000000
00000000
10300000
00000000
00000000
00000000
,
00010000
00100000
00010000
00100000
01000000
10000000
01000000
10000000
,
00010000
01000000
00001000
00010000
00000100
00001000
00000100
00001000
,
00000001
00000000
00000100
00000000
00000010
00000000
00002000
00000000
00000000
00000000
00000000
00000000
,
00003001
00000000
00001000
00000100
00010000
00000000
00001000
01000000
,
00010000
00100000
00010000
00100000
01000000
10000000
00010000
01000000
,
00200000
00000000
00010000
00000000
,
01000000
00000000
00000000
00000000
10300000
00010000
01000000
00010000
,
00100000
00001000
00010000
00000010
00001000
00000100
00000010
00000001
,
00001000
00000010
00000001
00000010
00001000
00000000
00000100
00001000
,
00010000
01000000
00100000
00000000
10000000
01000000
00010000
01000000
,
10000000
00100000
00010000
00100000
10000000
00000000
00100000
00010000
,
00001000
00000010
00000100
00000000
00000001
00000010
00001000
00000010
,
00000001
00000100
00001000
00000100
00000001
00000100
00001000
00010000
,
00100000
10000000
00100000
00010000
00100000
01000000
00010000
10000000
,
01000000
00100000
00011000
00000000
,
00000010
00000100
00011000
00000000
,
00100000
00100000
10000000
10000000
01000000
01000000
00010000
00010000
00000010
00000010
00001000
00001000
00000100
00000100
00000001
00000001
00000020
00000000
00000000
00000000
00000000
00000000
00000000
00000000
00000000
00000000
00000000
00000000
00000000
00000000
00000000
00000000
,
00000030
00000000
00000000
00000000
;
