#TITLE:Prey;
#ARTIST:BEMANI Sound Team "Dustup";
#BANNER:Prey-bn.png;
#BACKGROUND:Prey-bg.png;
#JACKET:Prey-jacket.png;
#MUSIC:Prey.ogg;
#SAMPLESTART:1.1429;
#SAMPLELENGTH:20;
#DISPLAYBPM:210;
#BPMS:0=210;
#BGCHANGES:;

//---------------dance-single - ----------------
#NOTES:
     dance-single:
     :
     Beginner:
     5:
     :
0000
0000
0000
0000
,
0000
0000
0000
0000
,
0000
0000
0000
0000
,
0000
0000
0000
0000
,
0000
0000
0000
0000
,
0000
0000
0000
0000
,
0000
0000
0000
0000
,
0000
0000
0000
0000
,
0000
0000
0000
0000
,
0010
0000
0000
0000
,
0010
0000
0000
0000
,
1000
0000
0000
0000
,
1000
0000
0000
0000
,
0001
0000
0000
0000
,
0001
0000
0000
0000
,
0100
0000
0000
0000
,
0100
0000
0000
0000
,
0010
0000
0010
0000
,
0010
0000
0010
0000
,
0100
0000
0100
0000
,
0100
0000
0000
0000
,
0010
0000
0010
0000
,
0100
0000
0100
0000
,
0001
0000
0001
0000
,
1000
0000
1000
0000
,
0010
0000
0010
0000
,
0100
0000
0100
0000
,
0001
0000
0001
0000
,
1000
0000
1000
0000
,
0010
0000
0100
0000
,
0010
0000
0100
0000
,
0001
0000
1000
0000
,
0001
0000
1000
0000
,
0010
0000
0100
0000
,
0010
0000
0100
0000
,
0001
0000
1000
0000
,
0001
0000
1000
0000
,
0010
0000
0000
0000
,
0000
0000
0000
0000
,
0100
0000
0000
0000
,
0000
0000
0000
0000
,
0110
0000
0000
0000
,
0000
0000
0000
0000
,
1001
0000
0000
0000
,
0000
0000
0000
0000
,
0010
0000
0010
0000
,
0001
0000
0001
0000
,
1000
0000
1000
0000
,
0100
0000
0100
0000
,
0010
0000
0100
0000
,
0010
0000
0100
0000
,
1000
0000
0001
0000
,
1000
0000
0000
0000
,
1000
0000
1000
0000
,
0001
0001
0001
0000
,
1000
0000
1000
0000
,
0001
0001
0001
0000
,
0010
0000
0010
0000
,
0100
0100
0100
0000
,
0010
0000
0010
0000
,
0100
0100
0100
0000
,
0001
0000
0001
0000
,
1000
1000
1000
0000
,
0001
0000
0001
0000
,
1000
1000
1000
0000
,
0100
0000
0010
0000
,
0100
0000
0010
0000
,
0100
0000
0010
0010
,
0010
0000
0000
0000
,
1000
0000
0000
1001
,
0001
0000
0000
1001
,
1000
0000
0000
1001
,
0001
0000
0000
0100
,
0110
0000
0000
0010
,
0110
0000
0000
0100
,
0110
0000
0000
0010
,
0110
0000
0000
0000
,
1000
0000
1000
0000
,
0100
0000
0100
0000
,
0010
0000
0010
0000
,
0001
0000
0001
0000
,
0100
0000
0001
0000
,
0100
0000
1000
0000
,
0100
0000
0001
0000
,
0010
0000
0000
0000
,
0110
0000
0000
0000
,
0000
0000
0000
0000
;

//---------------dance-single - ----------------
#NOTES:
     dance-single:
     :
     Easy:
     11:
     :
0000
0000
0000
0000
,
0000
0000
0000
0000
,
0000
0000
0000
0000
,
0000
0000
0000
0000
,
0000
0000
0000
0000
,
0000
0000
0000
0000
,
0000
0000
0000
0000
,
0000
0000
0000
0000
,
0000
0000
0000
0000
,
0010
0000
0010
0000
,
0100
0000
0100
0000
,
0001
0000
0001
0000
,
1000
0000
1000
0000
,
0010
0000
0100
0000
,
0001
0000
1000
0000
,
0010
0000
0100
0000
,
0001
0000
1000
0000
,
0010
1000
0001
1000
,
0100
0010
0001
1000
,
0100
0010
0001
1000
,
0200
0000
0000
0300
,
0010
0001
0010
0100
,
1000
0100
1000
0000
0100
1000
0100
0000
,
1000
0010
0100
0001
,
0100
0001
0100
0000
0001
0100
0001
0000
,
1000
0001
0100
0001
,
1000
0100
0010
0000
0001
0100
0010
0000
,
1000
0001
0100
0001
,
1000
0100
0010
0000
0001
0100
0010
0000
,
1000
0100
1000
0001
0100
0000
0010
0000
,
1000
0100
1000
0000
0001
0100
0001
0000
,
1000
0001
1000
0010
0100
0000
0010
0000
,
1000
0100
1000
0000
0001
0100
0001
0000
,
1000
0010
1000
0010
1000
0100
1000
0000
,
0001
0010
0001
0000
1000
0010
1000
0000
,
0001
0010
0001
0010
0001
0100
0001
0000
,
1000
0001
0100
0000
0001
1000
0100
0000
,
0020
0000
0000
0000
,
0000
0000
0000
0000
,
0230
0000
0000
0000
,
0320
0000
0000
0000
,
0031
0000
1001
0000
,
0010
0100
1001
0000
,
0100
0000
1001
0000
,
0100
0000
0010
0000
1001
0000
0001
0010
,
0100
0010
0100
0010
,
0002
0103
2000
3100
,
1000
0010
0100
0010
,
2000
0000
3010
0000
0002
0000
0013
0100
,
1000
0010
0100
0001
,
2000
3100
0002
0103
,
0010
1000
0100
0001
,
2002
0000
0000
3003
,
0010
0010
1000
1000
,
0010
1000
0010
1000
0010
1000
0100
0000
,
0010
0010
0001
0001
,
0100
0001
0100
0001
0100
0001
0010
0000
,
0001
0010
0001
0010
,
0001
0010
0100
0010
0001
0010
0100
0000
,
0010
0001
0100
0010
,
1000
0100
1000
0100
0010
0001
0010
0000
,
0001
0001
1000
1000
,
0001
1000
0001
1000
0100
0010
0100
0000
,
0010
0010
0100
0100
,
0010
0100
0010
0100
1000
0001
1000
0000
,
1000
0010
0100
0001
,
1000
0100
0010
0001
0100
0010
1000
0000
,
0001
0100
1000
0100
0001
0100
1000
0100
,
0020
0000
0000
0000
,
1030
0010
0100
0101
,
1000
0010
0100
1100
,
0010
1000
0001
0110
,
1000
1000
0001
0001
,
0010
0001
1000
0110
,
0100
0001
1000
0110
,
0010
1000
0001
0100
,
0010
0000
1000
0000
0001
1000
0100
0000
,
0010
1000
0100
1000
0010
0100
0001
0000
,
0001
0100
0010
0100
0001
1000
0100
0000
,
0010
0001
0010
0000
0001
0010
0100
0000
,
1000
0100
0010
0100
1000
0001
0100
0000
,
0100
0001
0010
0001
0100
0010
1000
0000
,
1000
0010
0100
0010
1000
0001
0010
0000
,
0100
1000
0100
0000
1000
0100
0010
0000
,
0200
0000
0000
0000
,
0310
0000
0000
0000
,
0000
0000
0000
0000
;

//---------------dance-single - ----------------
#NOTES:
     dance-single:
     :
     Medium:
     15:
     :
0000
0000
0000
0000
,
0000
0000
0000
0000
,
0000
0000
0000
0000
,
0000
0000
0000
0000
,
0000
0000
0000
0000
,
0000
0000
0000
0000
,
0000
0000
0000
0000
,
0000
0000
0000
0000
,
0000
0000
0000
0000
,
0001
0000
0001
0000
,
0100
0000
0100
0000
,
0010
0000
0010
0000
,
1000
0000
1000
0000
,
0001
0001
0100
0100
,
0010
0010
1000
1000
,
0001
0001
0010
0010
,
0100
0000
0100
0000
1000
0000
1000
0001
,
0100
0010
1000
0000
0010
1000
0100
0000
,
1000
0001
0100
0000
0001
0010
0100
0000
,
1000
0010
0100
0000
0010
1000
0100
0000
,
0220
0000
0330
0000
,
0010
0001
0100
0010
1000
0100
0010
0001
,
1000
1000
1000
1000
0010
0010
0010
0010
,
0100
0001
0010
0100
0010
0001
0100
0010
,
1000
1000
1000
1000
0100
0100
0100
0100
,
0010
0001
0100
1000
0001
1000
0100
0001
,
0010
0010
0010
0010
0100
0100
0100
0100
,
1000
0010
0001
0010
1000
0100
0001
0100
,
1000
1000
1000
1000
0001
0001
0001
0001
,
0010
1000
0001
0100
1000
0010
0100
0010
,
1000
1000
0001
0001
0010
0010
0100
0100
,
1000
0100
0001
0100
1000
0010
0001
0010
,
0100
0100
0001
0001
0010
0010
0100
0100
,
0001
0100
1000
0010
0100
0001
0010
1000
,
0001
0001
0100
0100
1000
1000
0010
0010
,
1000
0010
0001
1000
0100
0001
0010
0100
,
1000
1000
0001
0001
0100
0100
0010
0010
,
0200
0000
0010
0000
,
0000
0000
0010
0000
,
0320
0000
0100
0000
,
0230
0000
0010
0000
,
0301
0000
0101
0000
,
0001
1000
0100
0000
1010
0000
0100
0000
,
0010
0000
0110
0000
,
1000
0001
0000
0001
0010
0100
1000
0100
,
0010
0000
0000
0000
0100
0000
0000
0010
0001
0000
0000
0000
0101
0000
0000
0000
,
0010
0000
0000
0000
0100
0000
0000
0100
0010
0000
0000
0000
0110
0000
0000
0000
,
1000
0000
0000
0000
0100
0000
0000
1000
0100
0000
0000
0000
1100
0000
0000
0000
,
0010
0000
0000
0000
0100
0000
0000
0010
0001
0000
0000
0000
0011
0000
0000
0000
,
0001
0010
1000
0000
0001
0010
0100
0000
,
1000
0010
0001
0000
1000
0010
0100
0000
,
0001
0010
1000
0010
0100
0001
0100
1000
,
0020
0000
0100
0130
,
0010
1000
1100
0010
0100
0001
0010
0100
,
0010
0001
0100
0010
1000
0100
1200
0000
,
1300
0010
0110
0001
0010
1000
0010
0100
,
0001
0100
1000
0001
0010
0100
0100
0100
,
1000
0010
1010
1000
0100
0010
0100
0001
,
0100
1000
0001
0010
0100
0010
0120
0000
,
0031
0100
1000
0100
0001
0010
0100
1000
,
0100
1000
0001
0010
0100
0100
0100
0100
,
0010
0000
0100
1000
0100
0000
0010
0000
0001
0000
0100
0000
0010
0000
1000
0000
,
0010
0000
0001
0000
0010
0000
0100
0000
0001
0000
0010
0001
0020
0000
0000
0000
,
0130
0000
1000
0010
1000
0000
0010
0000
1000
0000
0100
0000
0010
0000
0001
0000
,
0010
0000
0001
0000
1000
0000
0100
0000
0010
0000
0001
0100
0001
0100
0001
0000
,
0100
0000
0001
0100
0001
0000
0010
0000
0001
0000
0010
0000
0100
0000
1000
0000
,
0100
0000
0010
0000
0001
0000
1000
0000
0100
0000
0010
0001
0020
0000
0000
0000
,
0130
1000
0010
0001
0010
0100
1000
0100
,
0200
0000
0010
0310
,
0001
0000
0000
0010
0000
0000
1000
0000
0000
0100
0000
0000
1001
0000
0000
0000
,
1000
0000
0000
0010
0000
0000
0001
0000
0000
0100
0000
0000
1001
0000
0000
0000
,
0001
0010
0100
0010
0001
1000
0100
0000
,
0010
0000
0000
1000
0000
0000
0010
0000
0000
0100
0000
0000
0001
0100
0001
0000
,
1000
0000
0000
0010
0000
0000
0001
0000
0000
0100
0000
0000
1001
0000
0000
0000
,
0001
0000
0000
0010
0000
0000
1000
0000
0000
0100
0000
0000
1001
0000
0000
0000
,
1000
0010
0100
0010
1000
0001
0100
0000
,
0010
0000
0000
0001
0000
0000
0010
0000
0100
0000
1000
0000
0100
0010
0100
0000
,
0010
0000
0001
0010
0000
0001
0010
0000
0001
0010
0000
0001
0010
0000
0100
0000
,
1000
0000
0100
1000
0000
0100
1000
0000
0100
1000
0000
0100
1000
0000
0100
0000
,
0010
0001
0100
1000
0100
0001
0010
0100
,
1000
0000
0001
1000
0000
1000
0001
0000
0010
0000
0100
0000
0010
0100
0010
0000
,
0001
0000
1000
0001
0000
1000
0001
0000
1000
0001
0000
1000
0001
0000
0100
0000
,
0001
0000
0100
0010
0000
0100
0010
0000
0100
0010
0000
0100
0010
0000
1000
0000
,
0001
0010
1000
0100
0001
0010
1000
0001
,
2000
0000
0000
0000
,
3001
0000
0000
0000
,
0000
0000
0000
0000
;

//---------------dance-single - ----------------
#NOTES:
     dance-single:
     :
     Hard:
     18:
     :
0000
0000
0000
0000
,
0000
0000
0000
0000
,
0000
0000
0000
0000
,
0000
0000
0000
0000
,
0000
0000
0000
0000
,
0000
0000
0000
0000
,
0000
0000
0000
0000
,
0000
0000
0000
0000
,
0000
0000
0000
0000
,
1001
0001
0100
0000
,
1001
1000
0100
0000
,
1001
0001
0010
0000
,
1001
1000
0010
0000
,
0100
0010
1000
0100
,
0010
0001
0010
0100
,
1000
0100
0010
0001
,
0100
0000
0010
0000
1000
0000
0001
1000
,
0100
1000
0001
0100
1000
0100
0010
1000
,
0001
0100
0010
1000
0001
1000
0100
0010
,
0001
0100
0010
1000
0100
0010
0100
0001
,
0100
0000
2002
3003
,
1000
0100
1000
0100
1000
0001
1000
0100
0010
0001
0010
0001
1000
0001
0010
0001
,
0100
0010
1000
0001
1000
0100
0110
0000
,
0001
0010
0001
0010
0001
1000
0001
0010
0100
1000
0100
1000
0100
1000
0001
1000
,
0100
0010
0001
1000
0001
0100
1001
0000
,
0100
1000
0100
1000
0010
0100
0010
0100
0001
0010
0001
0010
0100
1000
0100
1000
,
0001
0100
0010
1000
0100
0010
1001
0000
,
0001
0100
0001
0000
0010
0000
0100
0000
1000
0100
1000
0000
0010
0000
0100
0000
,
0001
0010
0001
0000
0100
0000
0010
0000
1000
0100
1000
0000
0100
0000
0010
0000
,
0001
0010
0001
1000
0001
0100
0001
0010
0001
1000
0010
1000
0001
1000
0100
1000
,
0001
0100
0010
1000
0001
0100
1001
0000
,
1000
0010
1000
0001
1000
0100
1000
0010
1000
0001
0010
0001
1000
0001
0100
0001
,
1000
0001
0010
1000
0010
0100
1001
0000
,
0100
0010
0100
0010
1000
0100
1000
0100
0010
0100
0010
0100
1000
0100
1000
0100
,
0010
0001
0100
0010
1000
0100
1001
0000
,
0010
0100
0010
0100
0001
0010
0001
0010
0001
0100
0001
0100
0001
0010
0001
0010
,
0100
1000
0010
0100
0001
0010
1001
0000
,
2000
0000
0000
0000
,
0000
0000
0000
0000
,
3002
0000
0000
0000
,
0203
0000
0000
0000
,
0310
1000
1010
0100
,
0001
0000
0000
0000
1000
0000
0000
0001
0100
0000
0000
0000
0001
0000
0000
0000
,
0100
0001
0000
0000
0010
0000
0000
0100
0010
0000
0100
0000
0010
0001
0100
0000
,
0000
0000
0001
0000
1000
0000
0100
0000
1000
0001
0000
0001
1000
0000
0100
0000
,
0010
1100
0010
0011
,
0001
1000
0100
0000
1000
0001
0100
0000
,
1010
0100
0011
0100
,
0010
1000
0100
0000
0010
0001
0100
0000
,
0001
0100
0001
0000
1000
0100
1000
0000
,
0001
0100
0010
0000
1000
0100
0010
0000
,
1001
0100
1001
0010
,
0220
0000
0000
0330
,
1000
0000
0001
0100
0010
0000
1000
0000
0100
1000
0000
0100
1000
0000
0100
0000
,
1000
0000
0100
0000
0010
0000
0001
0010
0100
0010
0100
0010
0002
0000
0000
0000
,
1003
0000
0010
0000
1000
0000
0100
1000
0100
1000
0000
0100
0010
0000
0001
0000
,
0010
0001
0100
0001
0100
0000
0001
0000
0100
0001
0100
0001
0100
0010
1000
0010
,
1000
0000
0001
0000
0100
0000
0010
0000
1000
0100
0000
1000
0100
0000
1000
0000
,
0100
0000
0010
0000
0001
0000
0100
0001
0100
0000
0001
0100
0002
0000
0000
0000
,
1003
0000
0100
0000
0010
0000
0100
0000
0010
0100
0000
0010
0100
0000
0010
0000
,
0001
0000
0100
0010
1000
0000
0100
0000
0010
0001
0010
0001
1000
0001
0100
0001
,
0100
0000
0001
0010
0100
0000
1000
0000
0100
1000
0000
0100
1000
0000
0100
0010
,
0001
0000
0100
0000
0001
0000
0100
0001
0100
0001
1000
0100
2000
0000
0000
0000
,
3100
0000
0010
0000
0001
0000
0100
0010
0100
0010
0000
1000
0010
0000
1000
0010
,
0100
0000
0001
0000
0100
0000
0010
1000
0010
1000
0100
1000
0100
1000
0001
1000
,
0001
0000
0100
0001
0100
0000
0001
0000
0100
0001
0000
0100
0001
0000
0100
0000
,
0010
0000
1000
0000
0100
0000
1000
0100
1000
0000
0100
1000
0001
0100
0001
0000
,
1000
0000
0010
0000
0100
0000
0001
0010
0001
0010
0000
0100
0010
0000
0001
0000
,
2000
0000
0000
3000
,
0001
0000
0010
0001
0000
0010
0100
0000
0010
0001
0000
0010
0100
0000
1000
0000
,
0001
0000
0010
0100
0000
1000
0100
0000
0010
0100
0000
1000
0100
0000
1000
0100
,
1000
0000
0100
0010
0000
0100
1000
0000
0100
0010
0000
0001
0010
0000
0001
0100
,
0001
0000
0100
0010
0000
0100
0001
0000
0010
0000
0001
0000
0100
0001
1000
0000
,
0001
0000
0010
0001
0000
0010
0100
0000
0010
0001
0000
0010
0100
0000
1000
0000
,
0001
0000
0010
0100
0000
1000
0100
0000
0010
0100
0000
1000
0100
0000
1000
0100
,
1000
0000
0100
0010
0000
0100
1000
0000
0100
0010
0000
0001
0010
0000
0001
0100
,
0001
0000
0100
0010
0000
0100
0001
0000
0010
0000
0001
0000
0100
0001
1000
0000
,
1001
0000
0001
0010
0000
0010
0100
0000
0100
1000
0000
1000
0001
0000
1001
0000
,
1000
0000
1000
0010
0000
0010
0100
0000
0100
0001
0000
0001
0100
0000
0001
1000
,
0001
0000
0001
0010
0000
0100
1000
0000
0100
0010
0000
0001
0100
0000
0010
1000
,
0001
0000
1000
0001
0000
0001
1000
0000
0010
0000
0100
0000
0010
1000
0100
0000
,
1001
0000
0001
0100
0000
0100
0010
0000
0010
1000
0000
1000
0100
0000
0110
0000
,
0010
0000
0010
0001
0000
0001
0100
0000
0100
0010
0000
0010
1000
0000
1001
0000
,
0001
0100
0001
0100
0001
0010
0001
0010
0001
1000
0001
1000
0100
1000
0100
1000
,
0100
0000
0000
1000
0000
0000
0001
0000
0010
0000
0100
0000
1000
0000
0010
0000
,
0220
0000
0000
0000
,
0330
0000
0000
0000
;

//---------------dance-single - ----------------
#NOTES:
     dance-single:
     :
     Challenge:
     19:
     :
0000
0000
0000
0000
,
0000
0000
0000
0000
,
0000
0000
0000
0000
,
0000
0000
0000
0000
,
0000
0000
0000
0000
,
0000
0000
0000
0000
,
0000
0000
0000
0000
,
0000
0000
0000
0000
,
0000
0000
0000
0000
,
0002
0000
0013
0100
2000
0000
3010
0100
,
0001
0000
0000
1000
0001
0000
0100
0000
0010
0000
0000
0000
1000
0000
0001
0000
,
1000
0000
0000
0100
0010
0000
0001
0000
0100
0000
0000
0000
0001
0000
1000
0000
,
0100
0000
0000
0010
0001
0000
0100
0000
0001
1000
0010
1000
0100
0010
0001
0100
,
0020
0000
1030
0001
0200
0000
0301
1000
,
0010
0000
1000
0100
1000
0000
0001
0000
0010
0000
0001
0100
0001
0010
0100
1000
,
0001
0000
0010
0100
0010
0000
0001
0000
1000
0000
0001
0100
0001
0000
1000
0000
,
0010
0000
1000
0100
0010
0000
0001
0000
1000
0000
0001
0100
0001
1000
0100
0010
,
0001
0000
0001
0000
1000
0000
1000
0000
0010
1000
0100
0000
1000
0000
0001
0000
,
0010
0000
0010
0000
0100
0000
0100
0000
1000
0000
0001
0100
0010
1000
0001
0010
,
0100
0000
1000
0010
0001
1000
0001
0010
1000
0100
0001
0010
0100
0001
1000
0010
,
0200
0000
0000
0000
0320
0000
0000
0000
1030
0010
0001
0100
0001
0010
1000
0100
,
0001
1000
0010
0100
1000
0010
0100
0010
1000
0001
0100
0001
0100
1000
0010
0001
,
0100
0010
0100
0000
0010
0100
0010
0000
1000
0001
1000
0000
0001
1000
0001
0000
,
0010
1000
0001
0100
1000
0001
0100
0010
0100
0010
1000
0001
1000
0001
0010
0100
,
1000
0000
1000
0000
0001
0000
0001
0000
1000
0000
0001
0000
0010
0001
0100
1000
,
0001
0100
0010
1000
0010
0100
0010
0100
1000
0001
1000
0010
1000
0001
0100
0001
,
1000
0100
1000
0000
0001
0100
0001
0000
1000
0010
1000
0000
0001
0010
0001
0000
,
0100
1000
0001
0010
1000
0001
1000
0100
0010
0100
0010
0100
0001
1000
0001
0010
,
0001
0010
1000
0001
0100
1000
0100
0010
0001
0010
1000
0100
0010
1000
0100
0001
,
0010
1000
0010
0001
0001
0100
0010
1000
0010
1000
0001
0100
0001
0100
0100
1000
,
0001
0010
0100
0000
1000
0010
0100
0000
0001
1000
0010
0000
0100
0001
1000
0000
,
0001
0010
0100
0010
1000
0010
0100
0001
0010
0001
1000
0001
0100
1000
0100
1000
,
0001
0000
0010
0100
1000
0010
0001
1000
0100
0000
1000
0001
0010
1000
0100
0001
,
1000
0001
0100
0010
0001
0100
0001
0100
1000
1000
1000
0010
0001
0010
0010
0100
,
1000
0001
0100
0000
0001
0010
0100
0000
0010
0001
1000
0000
0100
1000
0010
0000
,
0001
1000
0100
0100
0010
0100
0010
1000
0010
0001
0010
1000
0001
0100
0001
1000
,
0001
1000
0100
1000
0100
1000
0010
0100
0010
0001
0010
1000
0001
0100
0001
0010
,
0100
1000
0010
0001
0010
0001
1000
0100
,
0001
0100
0010
1000
0010
1000
0100
0001
,
1000
0001
0100
0010
0001
0100
0010
1000
,
0100
0000
1000
0000
0010
0000
0001
0000
1000
0000
0010
0000
0001
0000
0100
0010
,
1000
0000
0001
0000
0010
0000
0100
1000
0001
0000
0010
0000
1000
0000
0100
0000
,
0001
0000
1000
0000
0010
0000
0001
0100
1000
0000
0010
0000
0100
0000
0001
0000
,
0010
0100
1000
0000
0001
0000
0100
0001
0010
0000
1000
0000
0100
1000
0010
0000
,
0100
0000
0001
0000
0010
0000
1000
0000
0001
0000
0010
1000
0001
0000
0100
0000
,
0010
0000
0000
1000
0100
0000
0010
0001
0100
0000
0001
0010
1000
0000
0100
0000
,
0010
0000
0001
0000
0100
0010
0000
0010
1000
0000
0001
0100
0001
0000
1000
0000
,
0010
0000
1000
0001
1000
0000
0100
0010
0001
0000
0100
0000
0010
1000
0001
0000
,
1000
0000
0000
0100
0001
0000
0010
0000
1000
0000
0001
0010
0001
0000
1000
0100
,
0001
0000
1000
0000
0010
0000
1000
0000
0100
0000
0001
0000
0100
0000
0010
1000
,
0001
0000
0010
0000
0001
0000
0100
0000
0010
0000
1000
0000
0100
0000
1000
0001
,
0100
0010
0001
1000
0010
0100
0001
1000
,
0001
1000
0000
0100
0010
0000
0000
0000
0001
0010
1000
0100
1000
0010
0001
0100
,
1000
0000
0001
0010
1000
0100
0001
0000
1000
0010
0001
1000
0001
0000
0100
0000
,
0010
0000
1000
0000
0100
0000
0001
0010
1000
0010
0001
0100
2000
0000
0000
0000
,
3010
0000
0100
0000
0001
0000
0010
0100
1000
0010
0001
1000
0100
0000
0010
0000
,
0001
0000
0010
0100
1000
0000
0001
0000
0010
1000
0010
0100
1000
0001
0010
0100
,
1000
0000
0010
0000
0001
0100
1000
0000
0010
0100
0010
1000
0001
0000
0100
0000
,
0001
0000
0010
0000
1000
0000
0100
0010
0001
0000
0100
1000
0002
0000
0000
0000
,
0013
0000
1000
0000
0001
0000
1000
0100
0010
0001
0000
0001
1000
0000
0010
0000
,
0100
0001
0010
0001
1000
0000
0010
0000
0100
0010
0100
0001
1000
1000
1000
0000
,
0001
0000
0010
0001
0100
0000
0010
1000
0010
0100
0001
0010
1000
0000
0100
0000
,
0010
0000
0001
0000
1000
0000
0001
0010
1000
1000
0001
0001
1000
1000
0001
0001
,
0100
0000
1000
0000
0001
0000
0010
0100
1000
0010
0001
1000
0100
0000
0010
0001
,
0100
0000
0001
0000
1000
0000
0010
1000
0100
0100
0010
0010
0001
0001
1000
1000
,
0100
0000
0010
0001
1000
0000
0001
0010
1000
0100
1000
0010
0001
0000
0100
0000
,
0010
0000
1000
0000
0001
0000
0010
0010
0100
1000
0000
1000
0001
0000
0100
0010
,
1000
0000
0100
0000
0010
0001
0100
0000
0001
0010
0000
0010
1000
0100
0001
0000
,
1000
0000
0000
0010
0000
0000
1000
0000
0001
0000
0100
0000
0001
0010
1000
0100
,
0010
0000
0001
0100
0000
0100
1000
0000
0001
0010
0000
0010
1000
0000
0100
0000
,
0001
0000
1000
0010
0000
1000
0100
0000
0001
0010
0000
1000
0001
0010
1000
0100
,
0010
0001
0000
0001
1000
0000
0001
0010
0000
1000
0100
0000
0010
0100
0001
0100
,
1000
0000
0010
1000
0000
0001
0010
0000
1000
0100
0000
0100
0010
0100
1000
0001
,
0010
0000
0001
0100
0000
1000
0001
0000
1000
0010
0000
0100
0001
0000
1000
0000
,
0010
0000
1000
0001
0000
0001
0010
0000
1000
0100
0000
0100
1000
0010
0001
0100
,
1000
0010
1000
0001
0000
0010
0100
0000
1000
0010
0000
1000
0001
0010
0001
0100
,
1000
0000
0010
0100
0000
0010
1000
0000
0001
1000
1000
0010
0100
0010
0100
0001
,
1000
0000
0100
0010
0001
0100
0010
0000
1000
0001
0010
1000
0100
0010
0001
0000
,
0100
0000
0001
0010
1000
0100
0001
0000
1000
0010
1000
0100
0010
0001
0100
1000
,
0001
0000
0010
0100
1000
0010
0001
0000
1000
0001
0010
0100
0010
1000
0001
0100
,
0010
1000
0100
0010
0001
0100
1000
0000
0010
0000
0100
0000
0001
0010
1000
0100
,
1000
0000
0010
0100
0001
0010
1000
0000
0100
0010
0001
0100
0001
0000
1000
0000
,
0010
0000
1000
0001
0010
0100
1000
0000
0001
0010
1000
0000
0100
0010
0001
0100
,
1000
0001
0001
0100
0100
0100
0100
0010
0001
0010
1000
0010
1000
0001
0010
1000
,
0100
0000
0000
0100
0000
0000
0010
0000
0001
0010
1000
0001
1000
0100
0001
0020
,
0200
0000
0000
0000
,
0330
0000
0000
0000
;

//---------------dance-double - ----------------
#NOTES:
     dance-double:
     :
     Easy:
     11:
     :
00000000
00000000
00000000
00000000
,
00000000
00000000
00000000
00000000
,
00000000
00000000
00000000
00000000
,
00000000
00000000
00000000
00000000
,
00000000
00000000
00000000
00000000
,
00000000
00000000
00000000
00000000
,
00000000
00000000
00000000
00000000
,
00000000
00000000
00000000
00000000
,
00000000
00000000
00000000
00000000
,
01000000
00000000
00010000
00000000
,
00100000
00000000
00001000
00000000
,
00010000
00000000
00000100
00000000
,
00000010
00000000
00000001
00000100
,
00000010
00000000
00001000
00000000
,
00000100
00000000
00010000
00000000
,
00001000
00000000
00100000
00000000
,
00010000
01000000
00100000
10000000
,
00010000
00100000
00001000
00010000
,
00000100
00000010
00000001
00000100
,
00001000
00010000
00100000
10000000
,
01100000
00000000
00000000
00000000
,
10000000
01000000
00100000
00000000
01000000
00100000
00010000
00000000
,
00100000
00001000
00010000
00000010
,
00001000
00000100
00000010
00000000
00000001
00000100
00000010
00000000
,
00001000
00000100
00010000
00001000
,
00100000
00010000
01000000
00000000
00100000
10000000
01000000
00000000
,
00100000
00010000
00001000
00000100
,
00001000
00000001
00000100
00000000
00000001
00001000
00000100
00000000
,
00000010
00001000
00010000
01000000
,
00100000
00010000
00100000
00001000
00010000
00001000
00100000
00010000
,
01000000
00100000
00010000
00001000
,
00000100
00000010
00001000
00000100
00010000
00000010
00001000
00000001
,
00000100
00000001
00001000
00000100
,
00010000
00001000
00100000
00010000
01000000
00001000
00100000
00010000
,
01000000
00010000
00001000
00000010
,
00010000
00000100
00001000
00000010
00010000
00000100
00001000
00000010
,
00000100
00001000
00010000
00001000
,
00020000
00000000
00001000
00000000
,
00000000
00000000
00000100
00000000
,
00032000
00000000
01000000
00000000
,
00023000
00000000
00000100
00000000
,
00032000
00000000
00100000
00000000
,
02003000
00000000
00100000
00000000
,
03200000
00000000
01000000
00000000
,
02300000
00000000
03010000
00001000
,
00000010
00000100
00001000
00000100
,
00001100
00011000
00001100
00011000
,
00100000
00010000
01000000
00010000
,
00110000
00011000
00110000
00011000
,
00010000
00010000
00001000
00001000
,
00010000
01000000
10000000
00100000
,
00010000
00001000
00000010
00000001
,
00000200
00000000
00000000
00000000
,
00000310
00001000
00000100
00000000
00000100
00000000
00010000
00000000
,
00001000
00100000
00010000
00000000
01000000
00000000
02000000
00000000
,
03100000
10000000
01000000
00000000
01000000
00000000
00010000
00000000
,
00001000
00100000
00010000
00000000
00010000
00100000
01000000
00000000
,
00100000
00010000
01000000
00000000
01000000
00000000
00001000
00000000
,
00010000
00000010
00001000
00000000
00000100
00000000
00000200
00000000
,
00000310
00000001
00000100
00000000
00000100
00000000
00001000
00000000
,
00010000
00000010
00001000
00000000
00001000
00000010
00000100
00000000
,
00000001
00000000
00000100
00000000
00000010
00001000
00000100
00010000
,
00001000
00000000
00100000
00000000
01000000
10000000
00100000
00000000
,
10000000
00000000
01000000
00000000
00100000
00010000
01000000
00001000
,
00010000
00000000
00000010
00000000
00000100
00000001
00000010
00000000
,
00000110
00000000
00001100
00000000
00000001
00001000
00000100
00000000
,
00001100
00000000
00011000
00000000
00001000
00100000
00010000
00000000
,
00110000
00000000
10010000
00000000
00100000
10000000
01000000
00100000
,
00002000
00000000
00010000
00013000
,
00001000
00000000
00000000
00000100
00000000
00000000
00000010
00000000
00000000
00001000
00000000
00000000
00000100
00000000
00010000
00000000
,
00001000
00000000
00000000
00010000
00000000
00000000
00001000
00000000
00000000
00100000
00000000
00000000
01000000
00000000
10000000
00000000
,
01000000
00000000
00100000
00000000
00010000
00001000
00000100
00000000
,
00000010
00000100
00000011
00001100
,
00000001
00000000
00000000
00000100
00000000
00000000
00001000
00000000
00000000
00010000
00000000
00000000
00100000
00000000
01000000
00000000
,
00010000
00000000
00000000
00100000
00000000
00000000
00010000
00000000
00000000
00001000
00000000
00000000
00000100
00000000
00001000
00000000
,
00000010
00000000
00000100
00000000
00000001
00000010
00000100
00000000
,
00001100
00010100
01001000
01010000
,
00010000
01000000
00100000
01000000
00010000
00000000
00100000
00000000
,
00001000
00010000
00100000
00010000
00001000
00000000
00010000
00000000
,
00001000
00000010
00000100
00000010
00001000
00000000
00000010
00000000
,
00000011
00000110
00001100
00011000
,
00001000
00010000
01000000
00010000
00001000
00000000
00011000
00000000
,
00010000
00001000
00000100
00001000
00010000
00000000
00011000
00000000
,
00000100
00001000
00000010
00000100
00000001
00000010
00000100
00001000
,
00000200
00000000
00000000
00000000
,
00010300
00000000
00000000
00000000
,
00000000
00000000
00000000
00000000
;

//---------------dance-double - ----------------
#NOTES:
     dance-double:
     :
     Medium:
     15:
     :
00000000
00000000
00000000
00000000
,
00000000
00000000
00000000
00000000
,
00000000
00000000
00000000
00000000
,
00000000
00000000
00000000
00000000
,
00000000
00000000
00000000
00000000
,
00000000
00000000
00000000
00000000
,
00000000
00000000
00000000
00000000
,
00000000
00000000
00000000
00000000
,
00000000
00000000
00000000
00000000
,
00000001
00000010
00000001
00000100
,
00000010
00001000
00000010
00001000
,
00000100
00010000
00000100
00010000
,
00001000
00010000
00100000
10000000
,
01000000
10000000
01000000
10000000
,
00100000
01000000
00100000
01000000
,
00001000
00100000
00001000
00100000
,
00001000
00000000
00000100
00000000
00000010
00000000
00001000
00000100
,
00000010
00000001
00000100
00000000
00000001
00001000
00000100
00000000
,
00000010
00001000
00010000
00000000
00001000
00010000
00100000
00000000
,
10000000
00100000
01000000
00000000
00100000
10000000
01000000
00000000
,
02200000
00000000
03300000
00000000
,
10000000
00100000
00010000
00001000
00000010
00000001
00000100
00000010
,
00000100
00000100
00000001
00000001
00000100
00000100
00000010
00000010
,
00001000
00010000
01000000
10000000
01000000
00010000
00100000
00001000
,
00010000
00010000
00000100
00000100
00000010
00000010
00000001
00000001
,
00000010
00000001
00000100
00001000
00010000
01000000
10000000
01000000
,
00100000
00100000
00001000
00001000
00100000
00100000
00001000
00001000
,
00010000
00000100
00001000
00000010
00000001
00000010
00001000
00000100
,
00000010
00000010
00000001
00000001
00001000
00001000
00000100
00000100
,
00001000
00000100
00010000
00001000
00100000
00010000
01000000
00010000
,
00100000
00100000
00100000
00100000
01000000
01000000
01000000
01000000
,
10000000
00100000
00010000
00001000
00000100
00000010
00001000
00000100
,
00000010
00000010
00000010
00000010
00000100
00000100
00000100
00000100
,
00010000
00001000
00010000
01000000
10000000
00100000
00010000
00001000
,
00010000
00010000
00010000
00010000
00001000
00001000
00001000
00001000
,
00100000
00001000
00010000
00000100
00010000
00001000
01000000
00010000
,
01000000
01000000
01000000
01000000
00001000
00001000
00001000
00001000
,
00020000
00000000
00000000
00000000
,
00000000
00000000
00000000
00000000
,
00032000
00000000
00100000
00000000
,
00203000
00000000
01000000
00000000
,
00310000
00000000
01010000
00000000
,
00010000
00100000
00001000
00000000
00011000
00000000
00010000
00000000
,
00000100
00000000
00000110
00000000
,
00000001
00000100
00000000
00000010
00001000
00000100
00010000
00001000
,
00000100
00000000
00000000
00000000
00000010
00000000
00000000
00000100
00001000
00000000
00000000
00000000
00011000
00000000
00000000
00000000
,
01000000
00000000
00000000
00000000
00100000
00000000
00000000
01000000
00100000
00000000
00000000
00000000
11000000
00000000
00000000
00000000
,
10000000
00000000
00000000
00000000
01000000
00000000
00000000
00010000
00001000
00000000
00000000
00000000
00011000
00000000
00000000
00000000
,
00001000
00000000
00000000
00000000
00000100
00000000
00000000
00000010
00000100
00000000
00000000
00000000
00000110
00000000
00000000
00000000
,
00000001
00000100
00001000
00000000
00001000
01000000
00010000
00000000
,
00010000
10000000
01000000
00000000
01000000
00100000
00010000
00000000
,
00010000
00001000
00000100
00000010
00000001
00000100
00001000
00010000
,
02000000
00000000
00100000
03100000
,
00100000
00010000
10000000
00100000
00010000
00001000
00000100
00000001
,
00000010
00001000
00010000
00000010
00000200
00000000
00000320
00000000
,
00001030
00000100
00000001
00000100
00010000
00001000
01000000
00010000
,
10000000
00100000
00010000
10000000
02000000
00000000
03200000
00000000
,
10300000
01000000
00010000
00001000
00000010
00000001
00000100
00000001
,
00001000
00000010
00010000
00001000
00010000
01000000
00200000
00000000
,
00310000
01000000
00001000
00010000
00001000
00000100
00000010
00010000
,
00000100
00010000
00001000
00100000
01000000
01000000
01000000
01000000
,
00100000
00010000
01000000
00100000
00010000
00100000
00010000
00001000
,
00000100
00000010
00001000
00000100
00020000
00000000
00032000
00000000
,
00013000
00001000
00000100
00000010
00001000
00000100
00000010
00001000
,
00010000
00000100
00001000
00000010
00020000
00000000
00032000
00000000
,
00013000
00100000
00010000
00001000
00000100
00001000
00010000
00100000
,
01000000
00010000
00100000
00001000
00010000
00001000
00020000
00000000
,
00031000
00010000
00000100
00000010
00001000
00010000
00100000
00010000
,
00002000
00000000
00010000
00013000
,
00011000
00000000
00000000
00110000
00000000
00000000
10010000
00000000
00000000
01010000
00000000
00000000
00011000
00000000
00000000
00000000
,
00011000
00000000
00000000
00001010
00000000
00000000
00001001
00000000
00000000
00001100
00000000
00000000
00011000
00000000
00000000
00000000
,
00001000
00010000
00001000
00000010
00000100
00000010
00000001
00000000
,
00000010
00000000
00000000
00000001
00000000
00000000
00000100
00000000
00000000
00001000
00000000
00000000
00010000
00000000
00000000
00000000
,
01100000
00000000
00000000
10100000
00000000
00000000
01100000
00000000
00000000
00110000
00000000
00000000
00011000
00000000
00000000
00000000
,
00011000
00000000
00000000
00001100
00000000
00000000
00000110
00000000
00000000
00000011
00000000
00000000
00000110
00000000
00000000
00000000
,
00000001
00000100
00000010
00001000
00000100
00010000
00001000
00000000
,
00001000
00000000
00000000
00010000
00000000
00000000
00001000
00000000
00100000
00000000
00010000
00000000
01000000
00000000
00010000
00000000
,
00100000
00010000
00100000
00001000
00010000
00001000
00001100
00000000
,
00000100
00001000
00000100
00010000
00001000
00010000
00110000
00000000
,
00001000
00010000
00000010
00001000
00000010
00000100
00001000
00010000
,
01000000
10000000
00100000
00010000
00001000
00010000
00011000
00000000
,
00001000
00000000
00100000
00010000
00000000
00100000
00001000
00000000
00010000
00001000
00000000
00010000
00000100
00000000
00001000
00000000
,
00000100
00000000
00010000
00001000
00000000
00010000
00000100
00000000
00001000
00000100
00000000
00010000
00000010
00000000
00001000
00000000
,
00000001
00000100
00001000
00010000
01000000
10000000
00100000
00010000
,
00002000
00000000
00000000
00000000
,
00013000
00000000
00000000
00000000
,
00000000
00000000
00000000
00000000
;

//---------------dance-double - ----------------
#NOTES:
     dance-double:
     :
     Hard:
     18:
     :
00000000
00000000
00000000
00000000
,
00000000
00000000
00000000
00000000
,
00000000
00000000
00000000
00000000
,
00000000
00000000
00000000
00000000
,
00000000
00000000
00000000
00000000
,
00000000
00000000
00000000
00000000
,
00000000
00000000
00000000
00000000
,
00000000
00000000
00000000
00000000
,
00000000
00000000
00000000
00000000
,
00001001
00000100
00000010
00000000
,
00011000
00001000
00100000
00000000
,
10010000
01000000
00100000
00000000
,
00011000
00010000
00000010
00000000
,
00001000
00000001
00000010
00000001
,
00000100
00001000
01000000
00010000
,
00100000
00010000
00001000
00000100
,
00000010
00000000
00000001
00000000
00000100
00000000
00000010
00001000
,
00000100
00001000
00000001
00000000
00001000
00000010
00010000
00000000
,
00001000
00010000
01000000
00000000
00010000
01000000
10000000
00000000
,
01000000
10000000
00100000
00000000
01000000
00001000
00100000
00010000
,
00001000
00000000
00002002
00003003
,
00000001
00000010
00000001
00000010
00000100
00000010
00000100
00000010
00000100
00001000
00000100
00001000
00000100
00010000
00000100
00010000
,
00001000
00100000
00010000
10000000
01000000
00100000
00010000
00000000
,
10000000
00100000
10000000
00100000
01000000
00100000
01000000
00100000
01000000
00010000
01000000
00010000
01000000
00001000
01000000
00001000
,
00010000
00001000
00000100
00000001
00000010
00001000
00010000
00001000
,
00100000
00001000
00010000
00001000
00100000
00001000
00010000
00001000
00010000
00000100
00010000
00001000
00010000
00000100
00010000
00001000
,
00010000
01000000
10000000
00100000
00010000
00001000
00011000
00000000
,
00010000
00001000
00010000
00000000
00000100
00000000
00000010
00000000
00000100
00001000
00000100
00000000
00010000
00000000
00001000
00000000
,
00100000
01000000
00100000
00000000
00001000
00000000
00010000
00000000
00001000
00010000
00001000
00000000
00000100
00000000
00000001
00000000
,
00000010
00000001
00000010
00000100
00001000
00000100
00010000
00001000
00010000
00001000
00010000
00000010
00000100
00000010
00000100
00000001
,
00000010
00000001
00000100
00001000
00010000
01000000
10000000
00000000
,
00100000
01000000
00100000
01000000
00010000
01000000
00001000
00010000
00001000
00010000
00001000
00100000
01000000
00100000
01000000
10000000
,
00100000
10000000
01000000
00010000
00001000
00000100
00000010
00000000
,
00001000
00000010
00000100
00000010
00001000
00000100
00000010
00000001
00000100
00000010
00001000
00000100
00010000
00001000
00100000
00010000
,
01000000
00100000
01000000
00100000
10000000
01000000
10000000
00000000
,
00010000
00100000
01000000
00100000
00010000
01000000
00100000
10000000
01000000
00100000
00010000
01000000
00001000
00010000
00000010
00001000
,
00000100
00000010
00000100
00000010
00000001
00000100
00000001
00000010
,
00000200
00000000
00000000
00000000
,
00000000
00000000
00000000
00000000
,
00020300
00000000
00000000
00000000
,
00032000
00000000
00000000
00000000
,
00103000
00000000
00001000
00000000
00011000
00000000
00010000
01000000
,
10000000
00000000
00000000
00000000
10000000
00000000
00000000
00010000
01000000
00000000
00000000
00000000
00010000
00000000
00000000
00000000
,
00100000
00001000
00000000
00000000
00100000
00000000
00001000
00000000
00010000
00000000
00001000
00000000
00000100
00000000
00000010
00000000
,
00000000
00000000
00000001
00000000
00000010
00000000
00001000
00000000
00000010
00000100
00000000
00000100
00000010
00000000
00000001
00000000
,
00000200
00000320
00002030
00003010
,
00001100
00011000
01010000
10010000
,
20000000
32000000
03200000
01300000
,
11000000
01010000
00011000
00001010
,
00000001
00000010
00001000
00000000
00000010
00000001
00000100
00000000
,
00000100
00001000
00010000
00000000
00001000
00010000
00100000
00000000
,
10010000
01000000
00011000
00000100
,
00000220
00000000
00000000
00000330
,
00001000
00000000
00000001
00000000
00000100
00000000
00001000
00000000
00010000
00001000
00000000
00010000
00001000
00000000
00100000
00000000
,
00010000
00000000
00100000
00000000
10000000
00000000
00010000
00000000
01000000
10000000
01000000
10000000
02000000
00000000
00000000
00000000
,
03100000
00000000
00010000
00000000
10000000
00000000
01000000
00000000
00100000
01000000
00000000
00100000
00010000
00000000
01000000
00000000
,
00001000
00000000
00010000
00001000
00010000
00000000
00001000
00000000
00010000
00000100
00001000
00000100
00001000
00000100
00001000
00000100
,
00010000
00000000
00001000
00000000
00000100
00000000
00000001
00000000
00000010
00000100
00000000
00000010
00000100
00000000
00000010
00000000
,
00000001
00000000
00000100
00000000
00000010
00000000
00001000
00000000
00000100
00000000
00010000
00001000
00020000
00000000
00000000
00000000
,
00031000
00000000
00100000
00000000
01000000
00000000
00100000
00000000
00010000
00100000
00000000
00001000
00010000
00000000
00001000
00000000
,
00010000
00000000
00001000
00000000
00000100
00000000
00000001
00000000
00000010
00000001
00000010
00000001
00000010
00000001
00001000
00000001
,
00000100
00000000
00000010
00000000
00001000
00000000
00000100
00000000
00001000
00000100
00000000
00010000
00001000
00000000
00010000
00000000
,
00001000
00000000
00010000
00000000
00100000
00000000
01000000
00000000
00100000
01000000
00100000
01000000
00200000
00000000
00000000
00000000
,
01300000
00000000
00100000
00000000
10000000
00000000
00100000
00000000
01000000
00010000
00000000
00100000
00001000
00000000
00010000
00000000
,
00001000
00000000
00100000
00000000
00001000
00000000
00010000
00000000
00000100
00001000
00000100
00001000
00000100
00010000
00000100
00010000
,
00000010
00000000
00000100
00000000
00000001
00000000
00000010
00000000
00000100
00001000
00000000
00000100
00010000
00000000
00001000
00000000
,
00000010
00000000
00001000
00000000
00010000
00000000
00100000
00000000
10000000
00000000
01000000
10000000
02000000
00000000
03000000
00000000
,
10000000
00000000
00100000
00000000
01000000
00000000
00001000
00000000
00010000
00001000
00000000
00010000
00001000
00000000
00010000
00000100
,
00000020
00000000
00000000
00000000
,
00000130
00000000
00000000
00010000
00000000
00000000
00001000
00000000
00000000
00100000
00000000
00000000
01000000
00000000
10000000
00000000
,
01000000
00000000
00000000
00010000
00000000
00000000
00001000
00000000
00000000
00000010
00000000
00000000
00000001
00000000
00000100
00000001
,
00000100
00000000
00000010
00001000
00000000
00001000
00000100
00000000
00000100
00010000
00000000
00010000
00001000
00000000
00010000
00000000
,
00001000
00000000
00100000
00010000
00000000
00010000
01000000
00000000
00100000
00000000
10000000
00000000
00010000
00100000
00010000
00000000
,
01000000
00000000
00000000
00001000
00000000
00000000
00010000
00000000
00000000
00000010
00000000
00000000
00000100
00000000
00000001
00000000
,
00000100
00000000
00000000
00001000
00000000
00000000
00010000
00000000
00000000
00100000
00000000
00000000
10000000
00000000
01000000
10000000
,
01000000
00000000
00100000
00010000
00000000
00010000
01000000
00000000
01000000
00001000
00000000
00001000
00010000
00000000
00001000
00000000
,
00010000
00000000
00000000
00000010
00000000
00000000
00001000
00000000
00000100
00000000
00000010
00000000
00000100
00001000
00000001
00000000
,
00001001
00000100
00000001
00000010
00001000
00000010
00001000
00010000
,
00011000
00001000
00100000
01000000
00100000
00010000
00100000
00001000
,
00011000
00010000
00001000
00000100
00000001
00000010
00000100
00000010
,
00000110
00000000
00000100
00000000
00001000
00000000
00000001
00000000
00000100
00000000
00000010
00000000
00010000
00001000
00000100
00000000
,
00001000
00000000
00010000
00100000
00000000
00010000
00001000
00000000
00010000
00000100
00000000
00001000
00000010
00000000
00000110
00000000
,
00000001
00000000
00000100
00001000
00000000
00000100
00000001
00000000
00000100
00000010
00000000
00001000
00000100
00000000
00001100
00000000
,
00010000
00000000
00001000
00010000
00000000
00001000
00100000
00000000
00010000
01000000
00000000
00100000
01000000
00010000
10000000
01000000
,
00200000
00000000
00000000
00000000
01300000
00010000
00001000
00000100
,
00000220
00000000
00000000
00000000
,
00000330
00000000
00000000
00000000
;

//---------------dance-double - ----------------
#NOTES:
     dance-double:
     :
     Challenge:
     20:
     :
00000000
00000000
00000000
00000000
,
00000000
00000000
00000000
00000000
,
00000000
00000000
00000000
00000000
,
00000000
00000000
00000000
00000000
,
00000000
00000000
00000000
00000000
,
00000000
00000000
00000000
00000000
,
00000000
00000000
00000000
00000000
,
00000000
00000000
00000000
00000000
,
00000000
00000000
00000000
00000000
,
20000000
00000000
31000000
00100000
00020000
00000000
00030001
00000100
,
00000010
00000000
00001000
00000100
00001000
00000000
00000001
00000000
00000100
00000000
00000000
00000000
00000010
00000000
00001000
00000000
,
00000100
00000000
00010000
00000010
00010000
00000000
00001000
00000000
00100000
00000000
00000000
00000000
01000000
00000000
10000000
00000000
,
00010000
00000000
01000000
00100000
01000000
00000000
00010000
00000000
10000000
00100000
01000000
00010000
00100000
01000000
10000000
00010000
,
00200000
00000000
00301000
00010000
00000200
00000000
01000300
00001000
,
00010000
00000000
00000010
00000100
00000000
00000100
00000001
00000000
00000010
00000000
00000001
00001000
00000100
00000010
00000001
00001000
,
00000010
00000000
00001000
00000100
00010000
00001000
00100000
00000000
01000000
10000000
00100000
10000000
01000000
00100000
00010000
00000000
,
01000000
00000000
00001000
00010000
00001000
00000000
00000010
00000000
00000001
00000100
00000001
00000010
00001000
00000100
00000001
00001000
,
00000010
00000000
00000010
00000000
00010000
00000000
00010000
00000000
00001000
00000000
00100000
00010000
10000000
00000000
01000000
00000000
,
00100000
00000000
00100000
00000000
00001000
00000000
00001000
00000000
00010000
00000000
00000010
00000000
00000100
00000001
00000010
00001000
,
00000100
00000000
00001000
00000010
00000001
00000100
00000001
00000010
00010000
00000100
00001000
00000010
00001000
00000001
00000010
00000100
,
00020000
00000000
00000000
00000000
20030000
00000000
00000000
00000000
30100000
00001000
00000100
00000010
00000001
00001000
00000100
00010000
,
00100000
10000000
01000000
00100000
10000000
00010000
00100000
00001000
00000100
00010000
01000000
00001000
00010000
00000010
00001000
00000001
,
00000010
00000001
00000010
00000000
00000100
00001000
00000100
00000000
00001000
00000010
00001000
00000000
00000001
00000100
00000001
00000000
,
00000010
00000001
00001000
00000010
00010000
00000100
01000000
00100000
10000000
01000000
00010000
00100000
10000000
00001000
01000000
00001000
,
00000001
00000000
00000010
00000000
00000100
00001000
00000010
00010000
00001000
00000000
00000100
00000000
00000010
00000001
00001000
00000010
,
00010000
00001000
01000000
00100000
10000000
00001000
00010000
10000000
01000000
00000100
00010000
00000001
00000010
00010000
00001000
00000010
,
00000001
00001000
00000001
00000000
00000100
00000010
00000100
00000000
00000001
00001000
00000001
00000000
00000100
00000010
00000100
00000000
,
00000010
00010000
00001000
10000000
01000000
00100000
00001000
01000000
10000000
00010000
10000000
00001000
00000100
00000001
00000010
00010000
,
00001000
00010000
00000010
00000001
00001000
00100000
01000000
10000000
00100000
00010000
00000010
00001000
00100000
00001000
00010000
01000000
,
10000000
01000000
00100000
00000010
00100000
00001000
00000100
00000001
00000100
00010000
10000000
01000000
00100000
01000000
00001000
00010000
,
00000001
00000010
00000100
00000000
00001000
00000100
00000010
00000000
00000001
00000100
00000010
00000000
00001000
00000010
00000100
00000000
,
00000010
00010000
00001000
00100000
10000000
00001000
00000010
00000100
00100000
00010000
00001000
00000001
00000010
00001000
00000100
00010000
,
00001000
00000000
00100000
00010000
01000000
00100000
10000000
00000000
00001000
00000000
00010000
00000010
00001000
00000100
00010000
00000001
,
00001000
00000010
00000001
00000100
00010000
00000010
00010000
01000000
00100000
00000100
00001000
00010000
00100000
01000000
10000000
00100000
,
10000000
01000000
00010000
00000000
10000000
00100000
00010000
00000000
00001000
00000100
00000001
00000000
00001000
00000010
00000001
00000000
,
00010000
00001000
00010000
00100000
01000000
10000000
00100000
00000100
00000001
00000010
00000100
00100000
00010000
00001000
00000100
00000001
,
00000010
00000100
00001000
01000000
10000000
00010000
00100000
00000010
00000001
00000010
00000100
00010000
00001000
00000010
00010000
01000000
,
10000000
00100000
10000000
00100000
10000000
00100000
10000000
00100000
,
10000000
00100000
10000000
00100000
10000000
00100000
10000000
00100000
,
01000000
00001000
01000000
00001000
01000000
00001000
01000000
00001000
,
00010000
00000000
00000100
00000000
00010000
00000000
00000100
00000000
00010000
00000000
00000100
00000000
00010000
00000000
00000100
00001000
,
00000001
00000000
00000010
00000000
00001000
00000000
00000001
00000100
00000010
00000000
00001000
00000000
00000100
00000000
00010000
00000000
,
00001000
00000000
00010000
00001000
00100000
00000000
00010000
01000000
10000000
00000000
00100000
00000000
01000000
00010000
01000000
00010000
,
10000000
00100000
01000000
00100000
10000000
00000000
00010000
00100000
01000000
00000000
10000000
00100000
00000000
01000000
00010000
00000000
,
00000010
00000000
00000001
00000000
00000100
00000000
00001000
00000001
00001000
00000000
00000010
00000100
00000010
00000000
00010000
00000000
,
00001000
00000000
00010000
00000000
00000100
00000000
00000010
00000001
00010000
00000000
00001000
00010000
01000000
00000000
10000000
00100000
,
00010000
00000000
01000000
00100000
00000000
10000000
00010000
00000000
00100000
01000000
10000000
00100000
01000000
00000000
00001000
00010000
,
00001000
00000000
00000010
00000001
00000010
00000000
00010000
00000100
00100000
00000000
00001000
00000000
00010000
00001000
01000000
00000000
,
00100000
00000000
10000000
01000000
10000000
00000000
00010000
00000000
01000000
00000000
00001000
00100000
00001000
00000000
00010000
00000010
,
00000100
00000000
00000001
00000000
00000100
00000000
00000010
00000000
00000100
00000000
00001000
00000000
00000100
00000000
00000001
00000010
,
00001000
00000000
00010000
00000000
01000000
00000000
00010000
00000000
00001000
00000000
00000100
00000000
00010000
00000000
00001000
00100000
,
00010000
00010000
00100000
00100000
10000000
10000000
01000000
01000000
,
00001000
00000000
00000010
00000100
00000001
00000000
00000000
00000000
00001000
00010000
00001000
00000010
00000001
00000100
00001000
00010000
,
01000000
00000000
00100000
00000000
00010000
00000000
01000000
00010000
00100000
10000000
01000000
10000000
00010000
00000000
00000100
00000000
,
00000001
00000000
00000010
00000000
00001000
00000000
00000100
00010000
00000010
00010000
00001000
00000001
00000100
00000000
00000010
00000000
,
00010000
00000000
01000000
00000000
10000000
00000000
00100000
01000000
00100000
10000000
00000000
10000000
00010000
00000000
01000000
00000000
,
00100000
00000000
10000000
00010000
00100000
00010000
10000000
00000000
00100000
00001000
00000100
00000001
00000010
00010000
00001000
00000100
,
00000001
00000000
00000010
00000000
00000100
00000000
00010000
00001000
00000010
00000001
00000000
00000001
00001000
00000010
00000100
00000000
,
01000000
00000000
00100000
00000000
00010000
00000000
10000000
10000000
10000000
00000000
00010000
00010000
00010000
00000000
00000000
00000000
,
00100000
00000000
10000000
00000000
00001000
00000000
00010000
00000010
00001000
00000100
00000000
00000001
00001000
00000000
00000100
00000000
,
00000010
00000000
00000001
00000100
00000001
00000000
00010000
00000000
00001000
00010000
00000010
00001000
00000100
01000000
10000000
00010000
,
00001000
00000000
00010000
00001000
00100000
00000000
10000000
01000000
10000000
00100000
01000000
00010000
00001000
00000000
00100000
00000010
,
00001000
00000000
00000100
00000000
00000001
00000000
00000010
00010000
00000010
00000001
00001000
00000100
00100000
01000000
00100000
00000000
,
00010000
00000000
01000000
00000000
00001000
00000000
00010000
00000010
00001000
00010000
00000000
00000100
00001000
00000010
00000001
00000000
,
00000100
00000000
00000010
00000000
00010000
00000000
00001000
00000000
10000000
10000000
00100000
00100000
00010000
00010000
00000100
00000100
,
00000010
00000000
00000001
00000100
00000001
00000000
00001000
00000000
00000010
00010000
00001000
00100000
01000000
00000000
10000000
00100000
,
00001000
00000000
01000000
00000000
00100000
00000000
10000000
01000000
00010000
00000000
10000000
00010000
00000001
00000010
00001000
00000000
,
00000100
00000000
00010000
00000010
00001000
00000100
00000001
00000000
00000010
00000100
00001000
00000010
00010000
00001000
00010000
01000000
,
10000000
00000000
00000000
10000000
00000000
00000000
10000000
00000000
00100000
00000000
01000000
00000000
00001000
00010000
00001000
00000000
,
00000010
00000000
00001000
00000100
00000000
00000100
00000001
00000000
00001000
00010000
00000000
00010000
00100000
00000000
10000000
01000000
,
00010000
00000000
00100000
00010000
00000000
00010000
00000100
00000000
00000010
00000001
00000000
00001000
00000010
00001000
00000100
00000000
,
00000001
00000000
00000010
00001000
00000000
00000100
00010000
00000000
01000000
00100000
00000000
01000000
10000000
00000000
00010000
00100000
,
10000000
00000000
01000000
00100000
00000000
00100000
00010000
00000000
01000000
00001000
00000000
00000000
00010000
00000010
00001000
00010000
,
00000100
00000000
00000010
00000001
00000000
00000001
00001000
00000000
00000010
00010000
00000000
00001000
00010000
00000000
01000000
00000000
,
10000000
00000000
00100000
00010000
00000000
10000000
01000000
00000000
00100000
00010000
00000000
00010000
01000000
00001000
00010000
00000000
,
00001000
00000010
00000001
00000100
00001000
00010000
01000000
00000000
10000000
00100000
00000000
10000000
01000000
00000000
00100000
00010000
,
00000100
00000000
00000010
00001000
00000000
00001000
00000001
00000000
00001000
00000100
00000010
00000001
00010000
00001000
00010000
01000000
,
10000000
00000000
00100000
01000000
00000000
00100000
01000000
00000000
00010000
00100000
10000000
01000000
00001000
00010000
00000010
00000000
,
00000100
00000000
00000001
00001000
00000000
00000001
00001000
00000000
00000010
00010000
00001000
00000000
00100000
00000100
00010000
00001000
,
01000000
00000000
00100000
10000000
00000000
10000000
01000000
00000000
01000000
00001000
00000000
00001000
10000000
00100000
10000000
00010000
,
00000100
00000000
00000001
00000010
00000000
00001000
00000001
00000000
00001000
00000010
00000000
00000000
00001000
00010000
00000100
00000000
,
01000000
00000000
10000000
00100000
00000000
10000000
00010000
00000000
01000000
00100000
10000000
00100000
01000000
00000000
00010000
00000000
,
00100000
00000000
00000010
00010000
00000000
00000001
00001000
00000000
00000100
00001000
00000001
00000000
00000010
00010000
00001000
00100000
,
10000000
01000000
00100000
00010000
01000000
00001000
00010000
00000010
01000000
00001000
00010000
00000100
00001000
00000010
00001000
00010000
,
10000000
00000000
00000000
10000000
00000000
00000000
10000000
00000000
01000000
00000000
00001000
00000000
00010000
00000010
00020000
00000000
,
00002000
00000000
00000000
00000000
,
00033000
00000000
00000000
00000000
;
