#VERSION:0.83;
#TITLE:Prayer in C;
#SUBTITLE:(Robin Schulz Remix);
#ARTIST:Lilly Wood and the Prick and Robin Schulz;
#TITLETRANSLIT:;
#SUBTITLETRANSLIT:;
#ARTISTTRANSLIT:;
#GENRE:;
#ORIGIN:;
#CREDIT:;
#BANNER:Prayer in C (Robin Schulz Remix)-bn.png;
#BACKGROUND:Prayer in C (Robin Schulz Remix)-bg.png;
#PREVIEWVID:;
#JACKET:Prayer in C (Robin Schulz Remix)-jacket.png;
#CDIMAGE:;
#DISCIMAGE:;
#LYRICSPATH:;
#CDTITLE:;
#MUSIC:Prayer in C (Robin Schulz Remix).ogg;
#OFFSET:0.000000;
#SAMPLESTART:39.037086;
#SAMPLELENGTH:20.000000;
#SELECTABLE:YES;
#DISPLAYBPM:123.000000;
#BPMS:0.000=123.000;
#STOPS:;
#DELAYS:;
#WARPS:;
#TIMESIGNATURES:0.000=4=4;
#TICKCOUNTS:0.000=4;
#COMBOS:0.000=1;
#SPEEDS:0.000=1.000=0.000=0;
#SCROLLS:0.000=1.000;
#FAKES:;
#LABELS:0.000=Song Start;
#BGCHANGES:;
#KEYSOUNDS:;
#ATTACKS:
;

//---------------dance-single - ----------------
#NOTEDATA:;
#CHARTNAME:;
#STEPSTYPE:dance-single;
#DESCRIPTION:;
#CHARTSTYLE:;
#DIFFICULTY:Hard;
#METER:12;
#RADARVALUES:0.476057,0.485140,0.104137,0.016021,0.112148,416.000000,403.000000,13.000000,2.000000,0.000000,0.000000,0.000000,0.000000,0.000000,0.476057,0.485140,0.104137,0.016021,0.112148,416.000000,403.000000,13.000000,2.000000,0.000000,0.000000,0.000000,0.000000,0.000000;
#CREDIT:;
#DISPLAYBPM:123.000000;
#NOTES:
0000
0000
0000
0000
,
0000
0000
0000
0000
,
0000
0000
0000
0000
,
0000
0000
0000
0000
,
1001
0000
0000
0001
0001
0100
1000
0100
,
0001
0010
0100
1000
0010
0001
0010
1000
,
0100
0000
0000
1000
1000
0010
0001
0010
,
1000
0001
0000
0000
0000
0000
0000
0000
,
0110
0000
0000
1000
1000
0100
0001
0100
,
1000
0010
0100
0001
0010
1000
0010
0001
,
0100
0000
0000
0010
0010
1000
0100
0010
,
0001
0000
1000
0000
0000
0000
0000
0000
0010
0000
1000
0100
1000
0000
0000
0000
,
1001
0000
0010
1000
0100
0010
0001
0000
,
0011
0000
0010
0001
0100
0010
1000
0000
,
1100
0000
0100
1000
0010
0100
0001
0000
,
0101
0000
0001
1000
0100
1000
0010
0000
,
0110
0000
0010
0100
0010
1000
0001
0000
,
0101
0000
0010
0100
0001
1000
0100
0000
,
1100
0000
0100
1000
0001
0100
0010
0000
,
1010
0000
0000
0000
0000
0000
0000
0000
0010
0000
1000
0100
1000
0000
0000
0000
,
1001
0000
0010
1000
0100
0010
0100
1000
,
0100
0001
0100
0010
0100
0001
0100
1000
,
0010
0000
1000
0100
0010
0001
0100
0010
,
1000
0001
0010
0100
1000
0001
1000
0000
,
0011
0000
0010
0001
0100
1000
0100
0010
,
0100
1000
0100
0001
0100
0010
0100
0001
,
1000
0000
0001
1000
0010
0100
0010
1000
,
0001
0000
0100
0000
0000
0000
0010
0000
1000
0000
0000
0001
1000
0001
1000
0001
,
1000
0000
0010
1000
0100
0001
0100
0010
,
0100
1000
0100
0001
0100
0010
0100
1000
,
0010
0000
0100
0001
1000
0010
0100
0001
,
0010
0000
0100
0000
0000
0000
0100
0000
1000
0000
0000
0001
0100
0000
0010
0000
,
1000
0000
0001
0010
1000
0010
0100
0010
,
0001
0010
1000
0010
0100
0010
1000
0010
,
0001
0000
1000
0001
0010
0100
0010
0001
,
0100
0000
0010
0000
0000
0000
1000
0000
0001
0000
0000
0100
0010
0100
0010
0100
,
0010
0000
1000
0001
0010
0100
0001
0100
,
0010
0100
1000
0010
0001
0010
0100
0001
,
1000
0000
0010
0100
0001
1000
0100
0010
,
0100
0000
1000
0000
0010
0000
1000
0000
0001
0000
0010
0000
0100
0000
0000
1000
,
0010
0000
1000
0000
0001
0000
0010
0000
0100
0000
1000
0000
0001
0000
0000
0010
,
0001
0000
0010
0000
0100
0000
1000
0000
0010
0000
0100
0000
0001
0000
0000
1000
,
0001
0010
0000
0001
0100
0010
1000
0001
,
0010
0000
0100
0000
0000
0000
1000
0000
0001
0000
0000
1000
0010
1000
0010
1000
,
0010
0000
0010
0000
1000
0000
0001
0000
0100
0000
0001
0000
1000
0000
0000
0100
,
1000
0000
1000
0000
0010
0000
0100
0000
0001
0000
0010
0000
0001
0000
0000
0100
,
0001
0000
0001
0000
1000
0000
0001
0000
0010
0000
0100
0000
1000
0000
0000
0010
,
1000
0000
1000
0000
0100
0000
1000
0000
0001
0000
0010
0000
0100
0000
0000
0010
,
0001
0000
0001
0000
0000
0000
1000
0000
0010
0000
1000
0000
0100
0000
0000
1000
,
0010
0000
0010
0000
0000
0000
0100
0000
0001
0000
1000
0000
0100
0000
0000
0010
,
0100
0000
0100
0000
0000
0000
1000
0000
0010
0000
1000
0000
0001
0000
0000
0100
,
0010
0000
0010
0000
0000
0000
1000
0000
0001
0000
0000
1000
0100
1000
0100
1000
,
0100
0000
0010
0000
0001
0000
1000
0000
0010
0000
1000
0000
0001
0000
0000
0010
,
0001
0000
1000
0000
0100
0000
0010
0000
0001
0000
1000
0000
0010
0000
0000
0100
,
0010
0000
1000
0000
0100
0000
1000
0000
0001
0000
0010
0000
0001
0000
0000
0100
,
0010
1000
0010
0100
0001
0010
0100
0000
,
1000
0010
0001
0010
1000
0010
0001
0010
,
0100
0001
0100
1000
0100
0001
0100
1000
,
0100
0010
1000
0010
0001
0010
1000
0010
,
0001
0100
1000
0100
0001
0100
1000
0100
,
2002
0000
0000
0000
,
0000
0000
0000
0000
,
0000
0000
0000
0000
,
0000
0000
0000
3003
;

//---------------dance-single - ----------------
#NOTEDATA:;
#CHARTNAME:;
#STEPSTYPE:dance-single;
#DESCRIPTION:;
#CHARTSTYLE:;
#DIFFICULTY:Medium;
#METER:9;
#RADARVALUES:0.375353,0.383006,0.320423,0.176233,0.000000,328.000000,288.000000,40.000000,22.000000,0.000000,0.000000,0.000000,0.000000,0.000000,0.375353,0.383006,0.320423,0.176233,0.000000,328.000000,288.000000,40.000000,22.000000,0.000000,0.000000,0.000000,0.000000,0.000000;
#CREDIT:;
#DISPLAYBPM:123.000000;
#NOTES:
0000
0000
0000
0000
,
0000
0000
0000
0000
,
0000
0000
0000
0000
,
0000
0000
0000
0000
,
1001
0000
0000
0001
0100
0010
1000
0000
,
1100
0000
0000
0001
1000
0100
0010
0000
,
0011
0000
0000
0100
0001
1000
0010
0000
,
0110
0000
0000
1000
0001
0100
0010
0000
,
1010
0000
0000
0100
1000
0001
0010
0000
,
0101
0000
0000
0010
0100
0001
1000
0000
,
0110
0000
0000
0001
1000
0100
0010
0000
,
1001
0000
0000
0001
0010
0100
1000
0000
,
0012
0000
1000
0000
0013
0100
0001
0000
,
1200
0000
0301
0100
1000
0000
0010
0000
,
0120
0000
1000
0000
0130
0001
0010
0000
,
2001
0000
3010
0100
0001
0000
1000
0000
,
1020
0000
0031
0010
1000
0100
0010
0000
,
0201
0000
1300
0100
0001
0000
0010
0000
,
0210
0000
0301
0100
0010
0001
1000
0000
,
1100
0000
0000
0010
1000
0001
0100
0000
,
0101
0000
0010
0000
1000
0001
0100
0000
,
0001
0010
1000
0000
0100
0010
0001
0000
,
0101
0000
1000
0000
0100
0010
0001
0000
,
0100
0001
0000
1000
0200
0000
0310
0000
,
1001
0000
0100
0000
0001
0010
1000
0000
,
0100
0010
0001
0000
1000
0010
0100
0000
,
1010
0000
0100
0000
1000
0010
0001
0000
,
0100
0010
0000
0010
2000
0000
3001
0000
,
0011
0000
0100
0000
0010
1000
0001
0000
,
1000
0100
0001
0000
0010
0001
0100
0000
,
0110
0000
1000
0000
0001
1000
0100
0000
,
0010
0001
0000
1000
0002
0000
0103
0000
,
1010
0000
0100
0000
0010
0100
1000
0000
,
0001
0010
1000
0000
0100
1000
0001
0000
,
0101
0000
0010
0000
0100
0001
1000
0000
,
0010
2000
0000
3002
0000
0000
0103
0100
,
1001
0000
0010
0000
1000
0100
0001
0000
,
0010
0001
0100
0000
1000
0010
0001
0000
,
1100
0000
0010
0000
0100
0001
0010
0000
,
0001
0100
0000
0010
1000
0000
0011
0000
,
1010
0000
0100
0000
1000
0010
0001
0000
,
0100
0001
1000
0000
0100
0010
0001
0000
,
1000
0001
0000
0010
0001
1000
0100
0000
,
1000
0020
0000
0230
0000
0000
0301
0001
,
1001
0000
0010
1000
0010
0100
0001
0000
,
0011
0000
0001
0100
1000
0000
0010
0000
,
0101
0000
0010
1000
0100
0010
0001
0000
,
1100
0000
0100
1000
0001
0000
0010
0000
,
0110
0000
0000
1000
0010
0100
0001
0000
,
1010
0000
0000
0001
0100
1000
0010
0000
,
0110
0000
0000
0100
0010
1000
0001
0000
,
0200
0020
0000
0000
0330
0000
1000
0001
,
0010
0001
0000
0001
1000
0000
1010
0000
,
0010
0100
0000
0100
0001
0000
0011
0000
,
0001
0100
0000
0100
1000
0000
1100
0000
,
1000
0010
0000
0010
0001
0000
0101
0000
,
0001
2000
0000
0010
0000
0100
0000
3001
,
0000
0002
0000
0010
0000
1000
0000
0103
,
0000
0200
0000
1000
0000
0010
0000
0301
,
0000
0020
0000
1030
0000
0001
0100
0000
,
2002
0000
0000
0000
,
0000
0000
0000
0000
,
0000
0000
0000
0000
,
0000
0000
0000
3003
;

//---------------dance-single - ----------------
#NOTEDATA:;
#CHARTNAME:;
#STEPSTYPE:dance-single;
#DESCRIPTION:;
#CHARTSTYLE:;
#DIFFICULTY:Easy;
#METER:5;
#RADARVALUES:0.218574,0.255337,0.152201,0.192254,0.000000,191.000000,172.000000,19.000000,24.000000,0.000000,0.000000,0.000000,0.000000,0.000000,0.218574,0.255337,0.152201,0.192254,0.000000,191.000000,172.000000,19.000000,24.000000,0.000000,0.000000,0.000000,0.000000,0.000000;
#CREDIT:;
#DISPLAYBPM:123.000000;
#NOTES:
0000
0000
0000
0000
,
0000
0000
0000
0000
,
0000
0000
0000
0000
,
0000
0000
0000
0000
,
1001
0000
0001
0100
,
0001
0010
0100
1000
,
0100
0000
1000
0001
,
0010
0000
0000
0000
,
0110
0000
0100
1000
,
0010
0100
0001
0010
,
1000
0000
0100
0010
,
0001
0000
1100
0101
,
0002
0000
1000
0103
,
0020
0000
1000
0031
,
0200
0000
0010
0301
,
2000
0000
0001
3100
,
0002
0000
0010
1003
,
0200
0000
1000
0301
,
0020
0000
0100
0031
,
2000
0000
0010
3100
,
1001
0000
0001
1000
,
0001
0100
0010
1000
,
0100
0000
0010
0100
,
2000
0000
0001
3100
,
0110
0000
0001
0010
,
1000
0001
0010
0100
,
1000
0000
0010
0001
,
0200
0000
0300
0110
,
1001
0000
0010
1000
,
0010
0100
0001
1000
,
0100
0000
1000
0010
,
0002
0000
0010
0103
,
0110
0000
0001
0010
,
1000
0001
0010
0100
,
0010
0000
0001
1000
,
0020
0000
0030
0101
,
1100
0000
1000
0010
,
0001
1000
0001
0010
,
0100
0000
0010
0001
,
0200
0000
1000
0301
,
0101
0000
0010
0100
,
1000
0001
0010
0001
,
0100
0000
1000
0001
,
2000
0000
3000
1100
,
0002
0000
0100
1003
,
0200
0000
0010
1300
,
0020
0000
0001
0130
,
2000
0000
0010
3100
,
0002
0000
1003
0000
,
0020
0000
0031
0000
,
0200
0000
0310
0000
,
2000
0000
3000
1001
,
0110
0000
0001
1000
,
1100
0000
0010
0100
,
1001
0000
0100
1000
,
0101
0000
0010
0100
,
0001
0010
0001
0010
,
1000
0100
1000
0100
,
0001
0100
0001
0100
,
1000
0010
1000
0010
,
2002
0000
0000
0000
,
0000
0000
0000
0000
,
0000
0000
0000
0000
,
0000
0000
0000
3003
;

//---------------dance-single - ----------------
#NOTEDATA:;
#CHARTNAME:;
#STEPSTYPE:dance-single;
#DESCRIPTION:;
#CHARTSTYLE:;
#DIFFICULTY:Beginner;
#METER:2;
#RADARVALUES:0.100704,0.145993,0.072095,0.016021,0.000000,88.000000,79.000000,9.000000,2.000000,0.000000,0.000000,0.000000,0.000000,0.000000,0.100704,0.145993,0.072095,0.016021,0.000000,88.000000,79.000000,9.000000,2.000000,0.000000,0.000000,0.000000,0.000000,0.000000;
#CREDIT:;
#DISPLAYBPM:123.000000;
#NOTES:
// measure 0
0000
0000
0000
0000
,  // measure 1
0000
0000
0000
0000
,  // measure 2
0000
0000
0000
0000
,  // measure 3
0000
0000
0000
0000
,  // measure 4
1001
0000
0000
0000
,  // measure 5
0010
0000
0000
0000
,  // measure 6
1000
0000
0000
0000
,  // measure 7
0100
0000
0000
0000
,  // measure 8
0110
0000
0000
0000
,  // measure 9
0001
0000
0000
0000
,  // measure 10
0100
0000
0000
0000
,  // measure 11
1000
0000
0000
0000
,  // measure 12
0010
0000
0000
0000
,  // measure 13
0100
0000
0000
0000
,  // measure 14
0001
0000
0000
0000
,  // measure 15
1000
0000
0000
0000
,  // measure 16
0100
0000
0000
0000
,  // measure 17
1000
0000
0000
0000
,  // measure 18
0010
0000
0000
0000
,  // measure 19
0001
0000
0000
0000
,  // measure 20
1001
0000
0000
0000
,  // measure 21
1000
0000
1000
0000
,  // measure 22
0001
0000
0001
0000
,  // measure 23
0001
0000
0000
0000
,  // measure 24
0110
0000
0000
0000
,  // measure 25
0100
0000
0100
0000
,  // measure 26
0010
0000
0010
0000
,  // measure 27
0010
0000
0000
0000
,  // measure 28
1001
0000
0000
0000
,  // measure 29
0010
0000
0010
0000
,  // measure 30
1000
0000
1000
0000
,  // measure 31
1000
0000
0000
0000
,  // measure 32
0110
0000
0000
0000
,  // measure 33
0001
0000
0001
0000
,  // measure 34
0100
0000
0100
0000
,  // measure 35
0100
0000
0000
0000
,  // measure 36
1001
0000
1000
0000
,  // measure 37
0010
0000
0100
0000
,  // measure 38
0001
0000
1000
0000
,  // measure 39
0100
0000
0000
0000
,  // measure 40
0110
0000
0100
0000
,  // measure 41
0010
0000
0001
0000
,  // measure 42
0100
0000
1000
0000
,  // measure 43
0001
0000
0000
0000
,  // measure 44
1000
0000
1000
0000
,  // measure 45
0010
0000
0010
0000
,  // measure 46
0100
0000
0100
0000
,  // measure 47
0001
0000
0001
0000
,  // measure 48
0010
0000
0000
0000
,  // measure 49
0001
0000
0000
0000
,  // measure 50
0100
0000
0000
0000
,  // measure 51
1000
0000
0000
0000
,  // measure 52
0001
0000
0000
0000
,  // measure 53
0100
0000
0000
0000
,  // measure 54
0010
0000
0000
0000
,  // measure 55
1000
0000
0000
0000
,  // measure 56
0010
0000
0010
0000
,  // measure 57
1000
0000
1000
0000
,  // measure 58
0001
0000
0001
0000
,  // measure 59
0100
0000
0100
0000
,  // measure 60
2002
0000
0000
3003
;
